osu file format v14

[General]
AudioFilename: audio.mp3
AudioLeadIn: 0
PreviewTime: 109110
Countdown: 0
SampleSet: Soft
StackLeniency: 0.7
Mode: 0
LetterboxInBreaks: 0
StoryFireInFront: 0
WidescreenStoryboard: 1

[Editor]
Bookmarks: 735,3121
DistanceSpacing: 0.95
BeatDivisor: 4
GridSize: 8
TimelineZoom: 2.499999

[Metadata]
Title:Whatever It Takes
TitleUnicode:Whatever It Takes
Artist:Hollywood Undead
ArtistUnicode:Hollywood Undead
Creator:hu4lifefllwer
Version:Easy
Source:"V"
Tags:hu; army; 2017; usa; american; five; rap; rock; rap-core; V;hollywood; undead; hollywood undead; whatever; it; takes; whatever it takes; rap; rapcore; rock;j-dog;johnny 3 tears; j3t; charlie scene; danny; funny man; da; kurlzz;
BeatmapID:1608244
BeatmapSetID:667151

[Difficulty]
HPDrainRate:3
CircleSize:2
OverallDifficulty:2
ApproachRate:3
SliderMultiplier:1.6
SliderTickRate:2

[Events]
//Background and Video events
0,0,"Easy_BG.jpg",0,0
//Break Periods
2,55138,64470
//Storyboard Layer 0 (Background)
//Storyboard Layer 1 (Fail)
//Storyboard Layer 2 (Pass)
//Storyboard Layer 3 (Foreground)
//Storyboard Sound Samples

[TimingPoints]
82,342.857142857143,4,2,0,55,1,0
11053,-100,4,2,0,68,0,0
65910,-100,4,2,0,68,0,1
76882,-100,4,2,0,68,0,0
109796,-66.6666666666667,4,2,0,68,0,1
131739,-100,4,2,0,68,0,0

[Colours]
Combo1 : 91,91,91
Combo2 : 255,0,0
Combo3 : 192,192,192
Combo4 : 188,160,67

[HitObjects]
72,72,5567,5,0,0:0:0:0:
144,208,6253,1,2,0:0:0:0:
224,64,6939,1,2,0:0:0:0:
304,208,7624,1,2,0:0:0:0:
400,64,8310,5,2,0:0:0:0:
480,208,8996,1,2,0:0:0:0:
256,144,9681,1,2,0:0:0:0:
64,216,10367,2,2,P|172:288|224:288,1,160
384,304,11053,5,0,0:0:0:0:
384,128,11739,1,0,0:0:0:0:
224,224,12424,1,0,0:0:0:0:
96,96,13110,1,0,0:0:0:0:
304,56,13796,5,0,0:0:0:0:
424,200,14481,1,0,0:0:0:0:
248,304,15167,1,0,0:0:0:0:
96,192,15853,1,0,0:0:0:0:
224,56,16196,2,0,P|296:48|368:96,1,160
256,192,17224,5,0,0:0:0:0:
400,112,17910,1,0,0:0:0:0:
400,280,18596,1,0,0:0:0:0:
248,352,19282,1,0,0:0:0:0:
128,264,19967,1,0,0:0:0:0:
128,112,20653,1,0,0:0:0:0:
288,96,21339,6,0,P|384:96|384:96,2,80
160,128,22024,1,0,0:0:0:0:
192,288,22710,1,0,0:0:0:0:
224,96,23396,1,0,0:0:0:0:
392,192,24082,1,0,0:0:0:0:
216,272,24767,5,0,0:0:0:0:
96,160,25453,1,0,0:0:0:0:
224,32,26139,1,0,0:0:0:0:
344,160,26824,1,0,0:0:0:0:
224,296,27510,5,0,0:0:0:0:
224,64,28196,1,0,0:0:0:0:
88,184,28882,1,0,0:0:0:0:
192,320,29567,1,0,0:0:0:0:
416,192,30253,5,0,0:0:0:0:
208,192,30939,1,0,0:0:0:0:
320,96,31967,2,0,P|256:32|176:40,2,160
136,240,32996,6,0,P|352:288|384:224,1,320
264,224,34024,2,0,P|408:120|512:192,1,320
376,224,35739,6,0,P|216:288|80:232,1,320
248,160,36767,2,0,P|424:104|528:192,1,320
112,208,38481,6,0,P|208:304|352:232,1,280
0,152,39510,2,0,P|128:88|240:208,1,320
48,104,41224,6,0,P|176:72|296:208,1,320
160,216,42253,2,0,P|336:304|432:208,1,320
128,96,43967,5,0,0:0:0:0:
160,288,44653,1,0,0:0:0:0:
352,192,45339,1,0,0:0:0:0:
176,64,46024,1,0,0:0:0:0:
208,288,46710,5,0,0:0:0:0:
368,160,47396,1,0,0:0:0:0:
168,72,48082,1,0,0:0:0:0:
416,64,48767,1,0,0:0:0:0:
304,240,49453,5,0,0:0:0:0:
144,112,50139,1,0,0:0:0:0:
336,24,50824,1,0,0:0:0:0:
320,232,51510,1,0,0:0:0:0:
144,112,52196,5,0,0:0:0:0:
384,104,52882,1,0,0:0:0:0:
256,296,53567,1,0,0:0:0:0:
256,288,54253,2,0,L|448:256,2,160
208,136,65910,5,0,0:0:0:0:
288,288,66596,1,0,0:0:0:0:
376,128,67282,1,0,0:0:0:0:
176,48,67967,1,0,0:0:0:0:
64,192,68653,5,0,0:0:0:0:
240,288,69339,1,0,0:0:0:0:
336,128,70024,1,0,0:0:0:0:
120,112,70710,1,0,0:0:0:0:
224,288,71396,5,0,0:0:0:0:
440,296,72082,1,0,0:0:0:0:
336,112,72767,1,0,0:0:0:0:
128,104,73453,1,0,0:0:0:0:
96,248,74139,6,0,P|160:312|248:296,1,160
200,200,74824,1,0,0:0:0:0:
352,64,75510,1,0,0:0:0:0:
224,64,76196,2,0,L|120:64,2,80
384,96,76882,5,0,0:0:0:0:
376,264,77567,1,0,0:0:0:0:
192,288,78253,1,0,0:0:0:0:
80,152,78939,1,0,0:0:0:0:
248,48,79624,5,0,0:0:0:0:
400,176,80310,1,0,0:0:0:0:
232,280,80996,1,0,0:0:0:0:
64,184,81682,1,0,0:0:0:0:
224,64,82367,5,0,0:0:0:0:
224,272,83053,1,0,0:0:0:0:
384,168,83739,1,0,0:0:0:0:
216,40,84424,1,0,0:0:0:0:
384,168,85110,5,0,0:0:0:0:
176,160,85796,1,0,0:0:0:0:
352,48,86482,1,0,0:0:0:0:
352,248,87167,2,0,P|352:344|352:344,2,80
224,200,87853,6,0,P|128:96|0:192,1,320
120,192,88882,2,0,P|152:288|336:264,1,320
224,216,90596,6,0,P|352:128|280:16,1,320
224,104,91624,2,0,P|128:168|192:336,1,320
248,224,93339,6,0,P|344:160|232:16,1,320
232,112,94367,2,0,P|116:93|32:272,1,320
192,96,96082,6,0,P|96:128|144:312,1,320
192,96,97110,2,0,P|288:160|176:312,1,320
80,64,98824,5,0,0:0:0:0:
176,328,99510,1,0,0:0:0:0:
432,328,100196,1,0,0:0:0:0:
296,56,100882,1,0,0:0:0:0:
80,32,101567,5,0,0:0:0:0:
72,208,102253,1,0,0:0:0:0:
232,328,102939,1,0,0:0:0:0:
376,208,103624,1,0,0:0:0:0:
176,144,104310,5,0,0:0:0:0:
336,32,104996,1,0,0:0:0:0:
288,288,105682,1,0,0:0:0:0:
120,184,106367,1,0,0:0:0:0:
320,80,107053,5,0,0:0:0:0:
472,200,107739,1,0,0:0:0:0:
256,272,108424,1,0,0:0:0:0:
16,208,109110,1,0,0:0:0:0:
176,48,109796,5,0,0:0:0:0:
352,96,110482,1,0,0:0:0:0:
352,256,111167,1,0,0:0:0:0:
128,336,111853,1,0,0:0:0:0:
176,168,112539,5,0,0:0:0:0:
320,32,113224,1,0,0:0:0:0:
472,128,113910,1,0,0:0:0:0:
432,248,114253,1,0,0:0:0:0:
336,160,114596,1,0,0:0:0:0:
312,288,114939,1,0,0:0:0:0:
216,208,115282,1,0,0:0:0:0:
80,64,115967,5,0,0:0:0:0:
360,72,116653,1,0,0:0:0:0:
224,288,117339,1,0,0:0:0:0:
440,280,118024,5,0,0:0:0:0:
440,144,118367,1,0,0:0:0:0:
336,216,118710,1,0,0:0:0:0:
336,80,119053,1,0,0:0:0:0:
224,152,119396,1,0,0:0:0:0:
224,296,120082,1,0,0:0:0:0:
224,112,120767,5,0,0:0:0:0:
440,280,121453,1,0,0:0:0:0:
112,280,122139,1,0,0:0:0:0:
272,40,122824,1,0,0:0:0:0:
152,176,123510,5,0,0:0:0:0:
440,312,124196,1,0,0:0:0:0:
440,80,124882,1,0,0:0:0:0:
216,80,125567,1,0,0:0:0:0:
144,304,126253,5,0,0:0:0:0:
264,304,126596,1,0,0:0:0:0:
208,208,126939,1,0,0:0:0:0:
336,208,127624,1,0,0:0:0:0:
272,112,128310,1,0,0:0:0:0:
128,288,128996,5,0,0:0:0:0:
160,256,129339,1,0,0:0:0:0:
192,224,129682,1,0,0:0:0:0:
224,192,130024,1,0,0:0:0:0:
256,160,130367,1,0,0:0:0:0:
347,94,130710,2,0,L|464:64,2,120.000004577637
176,56,131396,1,0,0:0:0:0:
272,208,131739,5,0,0:0:0:0:
56,208,132424,1,0,0:0:0:0:
160,24,133110,1,0,0:0:0:0:
376,32,133796,1,0,0:0:0:0:
136,144,134139,6,0,P|232:112|320:144,1,160
400,80,135167,1,0,0:0:0:0:
392,288,135853,1,0,0:0:0:0:
168,288,136539,1,0,0:0:0:0:
72,88,137224,5,0,0:0:0:0:
240,176,137910,1,0,0:0:0:0:
416,80,138596,1,0,0:0:0:0:
392,280,139282,1,0,0:0:0:0:
112,288,139967,5,0,0:0:0:0:
232,144,140653,1,0,0:0:0:0:
424,40,141339,1,0,0:0:0:0:
320,256,142024,2,0,L|400:296,2,80
176,304,142710,5,0,0:0:0:0:
56,136,143396,1,0,0:0:0:0:
272,56,144082,1,0,0:0:0:0:
472,136,144767,1,0,0:0:0:0:
376,320,145453,5,0,0:0:0:0:
152,328,146139,1,0,0:0:0:0:
256,176,146824,1,0,0:0:0:0:
112,48,147510,1,0,0:0:0:0:
368,40,148196,5,0,0:0:0:0:
496,192,148882,1,0,0:0:0:0:
352,320,149567,1,0,0:0:0:0:
192,200,150253,1,0,0:0:0:0:
416,200,150939,5,0,0:0:0:0:
224,320,151624,1,0,0:0:0:0:
24,208,152310,1,0,0:0:0:0:
216,80,152996,1,0,0:0:0:0:
176,80,153682,6,0,P|328:96|328:248,1,320
248,160,154710,2,0,P|224:256|400:328,1,320
88,56,156424,6,0,P|80:152|264:216,1,320
200,128,157453,2,0,P|328:112|360:272,1,320
200,240,159167,6,0,P|104:192|192:40,1,320
208,136,160196,2,0,P|304:168|248:344,1,320
288,208,161910,6,0,P|192:208|184:24,1,320
240,112,162939,2,0,P|336:112|352:296,1,320
208,40,164653,6,0,P|128:224|192:288,1,320
232,152,166024,1,0,0:0:0:0:
320,288,166710,1,0,0:0:0:0:
400,144,167396,5,0,0:0:0:0:
264,320,168082,1,0,0:0:0:0:
104,184,168767,1,0,0:0:0:0:
368,192,169453,1,0,0:0:0:0:
232,48,170139,5,0,0:0:0:0:
232,320,170824,1,0,0:0:0:0:
464,184,171510,1,0,0:0:0:0:
240,176,172196,1,0,0:0:0:0:
64,320,172882,5,0,0:0:0:0:
64,56,173567,1,0,0:0:0:0:
320,184,174253,1,0,0:0:0:0:
168,328,174939,1,0,0:0:0:0:
160,80,175624,5,0,0:0:0:0:
360,192,176310,1,0,0:0:0:0:
160,296,176996,1,0,0:0:0:0:
160,56,177682,1,0,0:0:0:0:
416,192,178367,5,0,0:0:0:0:
256,344,179053,1,0,0:0:0:0:
80,192,179739,1,0,0:0:0:0:
416,192,180424,5,0,0:0:0:0:
256,40,181110,1,0,0:0:0:0:
88,192,181796,1,0,0:0:0:0:
360,336,182482,1,0,0:0:0:0:
168,328,183167,1,0,0:0:0:0:
184,56,183853,5,0,0:0:0:0:
400,160,184539,1,0,0:0:0:0:
176,264,185224,1,0,0:0:0:0:
352,256,185910,2,0,P|232:48|200:56,1,320
