osu file format v14

[General]
AudioFilename: audio.mp3
AudioLeadIn: 0
PreviewTime: 108505
Countdown: 1
SampleSet: Normal
StackLeniency: 0.4
Mode: 0
LetterboxInBreaks: 0
WidescreenStoryboard: 0

[Editor]
Bookmarks: 41219,54933,68648,82362,109790,137219,164648,178362,192076,205790,219505,246933,274362
DistanceSpacing: 1.6
BeatDivisor: 4
GridSize: 32
TimelineZoom: 1.6

[Metadata]
Title:Breathing Underwater (Ether Remix)
TitleUnicode:Breathing Underwater (Ether Remix)
Artist:Hollywood Principle
ArtistUnicode:Hollywood Principle
Creator:pimmerik
Version:Drift
Source:
Tags:Rocket League Melodic Dubstep Drumstep Electronic English
BeatmapID:2119117
BeatmapSetID:1012432

[Difficulty]
HPDrainRate:5
CircleSize:3.5
OverallDifficulty:8
ApproachRate:9.1
SliderMultiplier:1.4
SliderTickRate:1

[Events]
//Background and Video events
0,0,"ocean.jpg",0,0
//Break Periods
2,164418,177778
//Storyboard Layer 0 (Background)
//Storyboard Layer 1 (Fail)
//Storyboard Layer 2 (Pass)
//Storyboard Layer 3 (Foreground)
//Storyboard Sound Samples

[TimingPoints]
76.6502094578156,428.571428571429,4,1,0,100,1,0
77,-133.333333333333,4,2,0,20,0,0
1790,-133.333333333333,4,2,1,20,0,0
3076,-133.333333333333,4,2,0,20,0,0
8969,-133.333333333333,4,2,1,20,0,0
9940,-133.333333333333,4,2,0,20,0,0
15290,-133.333333333333,4,2,1,20,0,0
16790,-133.333333333333,4,2,0,20,0,0
19790,-133.333333333333,4,2,1,20,0,0
20433,-133.333333333333,4,2,1,5,0,0
20540,-133.333333333333,4,2,1,20,0,0
20648,-133.333333333333,4,2,1,20,0,0
21290,-133.333333333333,4,2,1,5,0,0
21398,-133.333333333333,4,2,1,20,0,0
22790,-133.333333333333,4,2,1,20,0,0
23862,-133.333333333333,4,2,0,20,0,0
25790,-100,4,2,0,20,0,0
36719,-100,4,2,1,20,0,0
37362,-100,4,2,0,5,0,0
37469,-100,4,2,1,20,0,0
38433,-100,4,2,1,5,0,0
38487,-100,4,2,1,20,0,0
38862,-100,4,2,1,5,0,0
38915,-100,4,2,1,15,0,0
39290,-100,4,2,1,5,0,0
39344,-100,4,2,1,15,0,0
39719,-100,4,2,1,5,0,0
39773,-100,4,2,1,10,0,0
40148,-100,4,2,1,5,0,0
40201,-100,4,2,1,10,0,0
40576,-100,4,2,1,5,0,0
40630,-100,4,2,1,20,0,0
41219,-83.3333333333333,4,3,0,50,0,0
54941,-83.3333333333333,4,2,0,50,0,0
58362,-83.3333333333333,4,2,1,50,0,0
60933,-83.3333333333333,4,2,0,50,0,0
65219,-83.3333333333333,4,2,1,50,0,0
66933,-83.3333333333333,4,2,0,50,0,0
67362,-333.333333333333,4,1,0,25,0,0
68648,-133.333333333333,4,2,0,35,0,0
82362,-117.647058823529,4,3,0,50,0,0
89219,-100,4,3,0,65,0,0
92649,-90.9090909090909,4,3,0,70,0,0
96076,-83.3333333333333,4,3,0,75,0,0
99505,-76.9230769230769,4,3,0,80,0,0
106362,-133.333333333333,4,3,0,85,0,0
108076,-333.333333333333,4,1,0,85,0,0
109790,-66.6666666666667,4,1,0,100,0,1
113112,-66.6666666666667,4,1,0,100,0,0
113219,-66.6666666666667,4,1,0,100,0,1
119969,-66.6666666666667,4,1,0,100,0,0
120076,-66.6666666666667,4,1,0,100,0,1
122219,-333.333333333333,4,1,0,100,0,0
123505,-66.6666666666667,4,1,0,100,0,1
126826,-66.6666666666667,4,1,0,100,0,0
126933,-66.6666666666667,4,1,0,100,0,1
133683,-66.6666666666667,4,1,0,100,0,0
133790,-66.6666666666667,4,1,0,100,0,1
135933,-333.333333333333,4,1,0,100,0,0
137219,-133.333333333333,4,3,0,65,0,0
140648,-133.333333333333,4,3,1,65,0,0
142790,-133.333333333333,4,3,0,65,0,0
147505,-133.333333333333,4,3,1,65,0,0
149648,-133.333333333333,4,3,0,65,0,0
149701,-133.333333333333,4,3,0,65,0,0
154362,-100,4,3,1,70,0,0
161219,-100,4,3,1,70,0,0
163362,-333.333333333333,4,1,0,25,0,0
164648,-166.666666666667,4,1,0,25,0,0
178362,-100,4,2,0,70,0,0
179219,-100,4,2,1,70,0,0
181683,-100,4,2,1,5,0,0
181737,-100,4,2,1,70,0,0
182540,-100,4,2,1,5,0,0
182594,-100,4,2,1,70,0,0
183398,-100,4,2,1,5,0,0
183451,-100,4,2,1,70,0,0
184255,-100,4,2,1,5,0,0
184308,-100,4,2,1,70,0,0
185112,-100,4,2,1,5,0,0
185219,-100,4,2,1,60,0,0
186933,-100,4,2,1,40,0,0
187790,-83.3333333333333,4,2,1,70,0,0
189398,-83.3333333333333,4,2,1,5,0,0
189451,-83.3333333333333,4,2,1,70,0,0
190255,-83.3333333333333,4,2,1,5,0,0
190308,-83.3333333333333,4,2,1,70,0,0
191112,-83.3333333333333,4,2,1,5,0,0
191165,-83.3333333333333,4,2,1,70,0,0
191969,-83.3333333333333,4,2,1,5,0,0
192023,-83.3333333333333,4,2,0,70,0,0
192076,-133.333333333333,4,1,0,40,0,0
205790,-117.647058823529,4,1,0,55,0,0
212648,-166.666666666667,4,3,0,75,0,0
216076,-133.333333333333,4,3,0,80,0,0
218648,-100,4,1,0,85,0,1
218755,-100,4,1,0,85,0,0
219076,-100,4,1,0,85,0,1
219183,-100,4,1,0,85,0,0
219505,-66.6666666666667,4,1,0,100,0,1
222076,-500,4,1,0,100,0,0
222719,-500,4,1,0,100,0,0
222933,-66.6666666666667,4,1,0,100,0,1
228933,-133.333333333333,4,3,0,100,0,0
229362,-66.6666666666667,4,1,0,100,0,0
229790,-66.6666666666667,4,1,0,100,0,1
231933,-333.333333333333,4,1,0,100,0,0
233219,-66.6666666666667,4,1,0,100,0,1
235790,-133.333333333333,4,3,0,100,0,0
236219,-66.6666666666667,4,1,0,100,0,0
236648,-66.6666666666667,4,1,0,100,0,1
243398,-66.6666666666667,4,1,0,100,0,0
243505,-66.6666666666667,4,1,0,100,0,1
245648,-333.333333333333,4,1,0,100,0,0
246933,-100,4,2,0,60,0,0
260648,-133.333333333333,4,2,0,40,0,0
262790,-117.647058823529,4,2,0,40,0,0
263219,-133.333333333333,4,2,0,40,0,0
274790,-133.333333333333,4,2,0,30,0,0
275219,-133.333333333333,4,2,0,20,0,0
275648,-133.333333333333,4,2,0,25,0,0
276076,-133.333333333333,4,2,0,10,0,0
276505,-133.333333333333,4,2,0,5,0,0

[Colours]
Combo1 : 255,255,128
Combo2 : 0,255,144
Combo3 : 0,186,255
Combo4 : 255,0,0

[HitObjects]
144,192,76,6,0,B|256:128|256:256|364:177,1,210,4|0,0:0|0:0,0:0:0:0:
384,64,933,2,0,P|368:128|368:144,1,52.5000020027161
288,128,1362,2,0,P|304:192|304:208,1,52.5000020027161
352,304,1790,2,0,P|272:224|231:214,2,157.500006008148,0|0|0,2:2|2:2|2:2,2:2:0:0:
358,213,3290,5,0,0:0:0:0:
305,120,3504,2,0,P|275:179|272:195,1,52.5000020027161,4|0,0:0|0:0,0:0:0:0:
275,182,3825,1,0,0:0:0:0:
267,199,3932,1,0,0:0:0:0:
358,213,4147,21,0,0:0:0:0:
425,130,4361,2,0,P|443:193|443:209,1,52.5000020027161
444,197,4682,1,0,0:0:0:0:
449,214,4789,1,0,0:0:0:0:
358,213,5005,1,0,0:0:0:0:
256,192,5112,12,4,6933,0:0:0:0:
175,124,7790,6,0,P|151:106|126:102,2,52.5000020027161
249,215,8540,2,0,P|305:251|312:251,1,52.5000020027161
365,263,8969,2,0,P|390:240|322:90,1,236.250009012223
233,77,10148,5,0,0:0:0:0:
233,77,10362,2,0,P|242:128|239:156,1,52.5000020027161,4|0,0:0|0:0,0:0:0:0:
242,159,10683,1,0,0:0:0:0:
235,182,10790,1,0,0:0:0:0:
153,189,11005,21,0,0:0:0:0:
153,189,11219,2,0,P|175:235|194:256,1,52.5000020027161
193,260,11540,1,0,0:0:0:0:
213,275,11647,1,0,0:0:0:0:
307,262,11862,1,0,0:0:0:0:
256,192,11969,12,4,13790,0:0:0:0:
337,124,14648,6,0,P|361:106|386:102,2,52.5000020027161
279,198,15291,2,0,P|223:234|184:237,1,105.000004005432
134,135,15933,2,0,P|240:120|337:162,1,210.000008010865
54,301,17219,5,4,0:0:0:0:
271,251,17862,21,0,0:0:0:0:
271,251,18076,2,0,P|280:200|277:172,1,52.5000020027161
280,169,18397,1,0,0:0:0:0:
273,146,18504,1,0,0:0:0:0:
254,287,18719,1,0,0:0:0:0:
367,279,19790,6,0,P|381:257|333:143,1,157.500006008148
293,221,20648,2,0,L|117:236,1,157.500006008148,4|0,0:0|0:0,0:0:0:0:
145,317,21505,2,0,P|119:312|56:263,2,105.000004005432
259,276,22790,2,0,B|325:264|385:228|385:228|365:281|373:302,1,210.000008010865
256,192,23862,5,0,0:0:0:0:
188,109,24076,2,0,P|170:173|169:189,1,52.5000020027161,4|0,0:0|0:0,0:0:0:0:
169,176,24397,1,0,0:0:0:0:
164,193,24504,1,0,0:0:0:0:
256,192,24719,21,0,0:0:0:0:
308,99,24933,2,0,P|337:158|339:174,1,52.5000020027161
338,161,25254,1,0,0:0:0:0:
346,178,25361,1,0,0:0:0:0:
256,192,25576,1,0,0:0:0:0:
127,69,25790,5,6,0:0:0:0:
127,69,26648,1,2,0:0:0:0:
316,147,26862,1,2,0:0:0:0:
177,231,27076,1,2,0:0:0:0:
333,288,27290,1,2,0:0:0:0:
187,353,27505,6,0,L|199:209,1,140,4|0,0:0|0:0,0:0:0:0:
215,74,28362,1,2,0:0:0:0:
215,74,28790,2,0,P|280:82|347:115,1,140,2|2,0:0|0:0,0:0:0:0:
258,157,30076,2,0,P|228:222|173:276,2,140,2|2|6,0:0|0:0|0:0,0:0:0:0:
193,269,32648,21,2,0:0:0:0:
220,99,32862,1,2,0:0:0:0:
193,269,33076,2,0,P|201:189|218:109,1,140,2|2,0:0|0:0,0:0:0:0:
105,76,34362,6,0,B|144:134|137:204|137:204|205:167|249:222|299:157,1,280,6|2,0:0|0:0,0:0:0:0:
344,132,35433,1,0,0:0:0:0:
254,56,35648,2,0,P|238:120|237:149,1,70,2|0,0:0|0:0,0:0:0:0:
323,162,36076,2,0,P|317:196|292:254,1,70,2|0,0:0|0:0,0:0:0:0:
135,282,36719,2,0,P|74:233|115:115,1,210
183,56,37576,1,0,0:0:0:0:
183,56,37790,2,0,P|185:103|196:134,1,70,6|0,0:0|0:0,0:0:0:0:
264,89,38219,6,0,P|278:118|270:157,1,70
202,127,38540,2,0,P|173:225|176:257,1,105
255,126,39076,22,0,P|274:152|273:192,1,70
201,175,39397,2,0,P|189:277|199:308,1,105
253,163,39933,6,0,P|276:185|282:224,1,70
208,220,40254,2,0,P|214:322|229:351,1,105
130,341,40790,2,0,P|118:301|116:270,1,70
114,68,41219,5,14,0:0:0:0:
353,74,41433,1,0,0:0:0:0:
185,216,41648,1,4,0:0:0:0:
185,216,41755,1,4,0:0:0:0:
185,216,41862,1,12,0:0:0:0:
352,261,42076,2,0,P|389:244|430:216,1,83.9999974365235
374,124,42505,2,0,P|336:140|295:168,1,83.9999974365235,8|0,0:0|0:0,0:0:0:0:
199,290,42933,22,4,P|170:300|143:303,1,41.9999987182618,12|4,0:0|0:0,0:0:0:0:
250,234,43148,2,4,P|278:223|306:220,1,41.9999987182618
177,213,43362,1,4,0:0:0:0:
208,74,43576,1,8,0:0:0:0:
305,158,43790,2,0,P|289:196|279:244,1,83.9999974365235
157,321,44219,2,0,P|172:282|182:234,1,83.9999974365235,8|0,0:0|0:0,0:0:0:0:
195,87,44648,5,8,0:0:0:0:
312,285,44862,1,0,0:0:0:0:
339,83,45077,1,4,0:0:0:0:
339,83,45184,1,4,0:0:0:0:
339,83,45291,1,12,0:0:0:0:
252,225,45505,2,0,P|259:184|260:135,1,83.9999974365235
169,60,45934,2,0,P|159:100|157:149,1,83.9999974365235,8|0,0:0|0:0,0:0:0:0:
217,268,46362,5,12,0:0:0:0:
242,265,46469,1,4,0:0:0:0:
264,254,46576,1,4,0:0:0:0:
283,236,46683,1,4,0:0:0:0:
295,215,46790,1,4,0:0:0:0:
323,116,47005,1,8,0:0:0:0:
323,116,47220,2,0,P|330:75|331:26,1,83.9999974365235
249,81,47648,2,0,P|239:121|237:170,1,83.9999974365235,8|0,0:0|0:0,0:0:0:0:
205,281,48076,21,8,0:0:0:0:
330,189,48290,1,0,0:0:0:0:
152,135,48505,1,4,0:0:0:0:
152,135,48612,1,4,0:0:0:0:
152,135,48719,1,12,0:0:0:0:
294,46,48933,2,0,P|335:38|384:37,1,83.9999974365235
401,202,49362,2,0,P|360:209|311:210,1,83.9999974365235,8|0,0:0|0:0,0:0:0:0:
169,157,49790,5,12,0:0:0:0:
151,176,49897,1,4,0:0:0:0:
141,198,50004,1,4,0:0:0:0:
139,224,50111,1,4,0:0:0:0:
142,245,50219,1,4,0:0:0:0:
272,311,50433,1,8,0:0:0:0:
322,199,50648,2,0,P|329:158|330:109,1,83.9999974365235
175,154,51076,2,0,P|168:113|167:64,1,83.9999974365235,8|0,0:0|0:0,0:0:0:0:
375,118,51505,5,8,0:0:0:0:
234,289,51719,1,0,0:0:0:0:
181,131,51934,1,4,0:0:0:0:
181,131,52041,1,4,0:0:0:0:
181,131,52148,1,12,0:0:0:0:
375,118,52362,2,0,P|364:158|343:202,1,83.9999974365235
234,289,52791,2,0,P|242:248|258:202,1,83.9999974365235,8|0,0:0|0:0,0:0:0:0:
291,55,53219,21,12,0:0:0:0:
269,39,53326,1,4,0:0:0:0:
245,32,53433,1,4,0:0:0:0:
219,33,53540,1,4,0:0:0:0:
197,40,53647,1,4,0:0:0:0:
119,127,53862,1,8,0:0:0:0:
185,241,54077,2,0,P|225:249|274:252,1,83.9999974365235
336,144,54505,2,0,P|294:151|248:166,1,83.9999974365235,8|0,0:3|0:3,0:3:0:0:
154,191,54933,6,0,L|138:15,1,167.999994873047,6|2,0:0|0:0,0:0:0:0:
280,115,55790,1,0,0:0:0:0:
261,282,56219,1,0,0:3:0:0:
126,181,56648,2,0,B|222:229|222:133|318:181,1,167.999994873047,2|2,0:0|0:0,0:0:0:0:
427,261,57505,1,0,0:0:0:0:
260,236,57933,1,0,0:0:0:0:
397,138,58362,2,8,B|172:256|381:255|110:351|110:351|242:253|153:163|153:163|220:73|248:157|303:50|303:50|179:-17|91:116,1,1007.99996923828,2|0,0:0|0:0,0:0:0:0:
384,64,61790,6,0,P|352:160|320:224,1,167.999994873047,2|0,0:1|0:0,0:0:0:0:
190,324,62648,1,0,0:0:0:0:
259,171,63076,1,2,0:1:0:0:
99,224,63505,2,0,P|182:207|270:251,1,167.999994873047,2|0,0:1|0:0,0:0:0:0:
175,90,64362,2,0,P|185:189|211:252,1,167.999994873047,2|0,0:1|0:0,0:0:0:0:
416,272,65219,2,0,B|365:185|385:101|385:101|300:142|296:66|232:145|232:145|295:204|226:291|226:291|127:261|124:150,1,671.999979492188,2|0,0:1|0:0,0:0:0:0:
144,80,67362,6,2,B|141:90|141:90|145:101,1,20.9999993591309
218,192,67790,2,2,B|226:171|226:171|221:150,1,41.9999987182618
366,313,68648,5,10,0:0:0:0:
366,313,68862,1,0,0:0:0:0:
366,313,69076,1,0,0:0:0:0:
366,313,69290,1,0,0:0:0:0:
240,220,69505,5,2,0:0:0:0:
240,220,69719,1,0,0:0:0:0:
240,220,69933,1,0,0:0:0:0:
240,220,70147,1,0,0:0:0:0:
341,133,70362,5,2,0:0:0:0:
341,133,70576,1,0,0:0:0:0:
341,133,70790,1,0,0:0:0:0:
341,133,71004,1,0,0:0:0:0:
213,64,71219,21,2,0:0:0:0:
213,64,71433,1,0,0:0:0:0:
213,64,71647,1,0,0:0:0:0:
213,64,71861,1,0,0:0:0:0:
193,159,72076,6,0,L|187:222,1,52.5000020027161,2|0,0:0|0:0,0:0:0:0:
251,228,72505,2,0,L|256:164,1,52.5000020027161
199,169,72933,2,0,L|193:232,1,52.5000020027161,2|0,0:0|0:0,0:0:0:0:
257,238,73362,2,0,L|262:174,1,52.5000020027161
205,178,73790,2,0,L|199:241,1,52.5000020027161,2|0,0:0|0:0,0:0:0:0:
263,247,74219,2,0,L|268:183,1,52.5000020027161
211,188,74647,2,0,L|205:251,1,52.5000020027161,2|0,0:0|0:0,0:0:0:0:
269,257,75076,2,0,L|274:193,1,52.5000020027161
294,75,75505,5,10,0:0:0:0:
294,75,75719,1,0,0:0:0:0:
294,75,75933,1,0,0:0:0:0:
294,75,76147,1,0,0:0:0:0:
181,134,76362,21,2,0:0:0:0:
181,134,76576,1,0,0:0:0:0:
181,134,76790,1,0,0:0:0:0:
181,134,77004,1,0,0:0:0:0:
318,169,77219,5,2,0:0:0:0:
318,169,77433,1,0,0:0:0:0:
318,169,77647,1,0,0:0:0:0:
318,169,77861,1,0,0:0:0:0:
193,221,78076,5,2,0:0:0:0:
193,221,78290,1,0,0:0:0:0:
193,221,78504,1,0,0:0:0:0:
193,221,78718,1,0,0:0:0:0:
330,196,78933,22,0,L|277:191,1,52.5000020027161,2|0,0:0|0:0,0:0:0:0:
295,128,79362,2,0,L|347:132,1,52.5000020027161,0|0,0:0|0:0,0:0:0:0:
340,190,79790,2,0,L|287:185,1,52.5000020027161,2|0,0:0|0:0,0:0:0:0:
305,122,80219,2,0,L|357:126,1,52.5000020027161,0|0,0:0|0:0,0:0:0:0:
349,184,80647,2,0,L|296:179,1,52.5000020027161,2|0,0:0|0:0,0:0:0:0:
314,116,81076,2,0,L|366:120,1,52.5000020027161,0|0,0:0|0:0,0:0:0:0:
359,178,81504,2,0,L|306:173,1,52.5000020027161,2|0,0:0|0:0,0:0:0:0:
324,110,81933,2,0,L|376:114,1,52.5000020027161,0|0,0:0|0:0,0:0:0:0:
110,74,82362,5,6,0:0:0:0:
110,74,82790,1,0,0:0:0:0:
304,162,83005,1,0,0:0:0:0:
154,256,83219,2,0,P|152:207|164:179,1,59.5000011348725,4|0,0:0|0:0,0:0:0:0:
240,35,83648,1,0,0:0:0:0:
341,194,83863,1,0,0:0:0:0:
416,40,84077,2,0,P|370:58|349:80,1,59.5000011348725,4|0,0:0|0:0,0:0:0:0:
214,208,84505,5,0,0:0:0:0:
339,150,84719,1,0,0:0:0:0:
360,309,84933,2,0,P|394:274|405:245,1,59.5000011348725,4|0,0:0|0:0,0:0:0:0:
374,99,85362,1,0,0:0:0:0:
231,177,85576,1,0,0:0:0:0:
374,99,85790,2,0,P|421:86|451:92,1,59.5000011348725,4|0,0:0|0:0,0:0:0:0:
382,256,86219,21,0,0:0:0:0:
205,150,86433,1,0,0:0:0:0:
256,321,86648,2,0,P|254:272|266:244,1,59.5000011348725,4|0,0:0|0:0,0:0:0:0:
343,110,87076,1,0,0:0:0:0:
171,193,87290,1,0,0:0:0:0:
320,271,87505,2,0,P|291:230|286:200,1,59.5000011348725,4|0,0:0|0:0,0:0:0:0:
250,74,87933,5,0,0:0:0:0:
394,184,88148,1,0,0:0:0:0:
240,208,88362,2,0,P|210:213|185:228,1,59.5000011348725,4|0,0:0|0:0,0:0:0:0:
112,288,88790,1,0,0:0:0:0:
306,231,89005,1,0,0:0:0:0:
176,63,89219,6,0,P|147:60|104:68,1,70,4|0,0:0|0:0,0:0:0:0:
225,123,89648,2,0,P|260:127|294:139,1,70,4|0,0:0|0:0,0:0:0:0:
130,166,90076,2,0,P|98:173|58:191,1,70,4|0,0:0|0:0,0:0:0:0:
244,227,90505,2,0,P|276:233|318:251,1,70,4|0,0:0|0:0,0:0:0:0:
361,356,90933,1,4,0:0:0:0:
162,278,91362,1,4,0:0:0:0:
355,208,91790,1,4,0:0:0:0:
177,149,92219,1,4,0:0:0:0:
352,64,92648,22,0,L|345:143,1,70,4|0,3:0|3:0,3:0:0:0:
303,224,93076,2,0,L|292:130,1,77.0000023498536,4|0,3:0|3:0,3:0:0:0:
263,49,93505,2,0,L|255:134,1,77.0000023498536,4|0,3:0|3:0,3:0:0:0:
214,209,93933,2,0,L|205:125,1,77.0000023498536,4|0,3:0|3:0,3:0:0:0:
206,29,94362,1,4,0:0:0:0:
324,189,94790,1,4,0:0:0:0:
463,44,95219,1,4,0:0:0:0:
324,189,95648,1,4,0:0:0:0:
137,75,96076,6,0,P|92:57|41:55,1,83.9999974365235,4|0,0:0|0:0,0:0:0:0:
177,227,96505,2,0,P|132:244|81:246,1,83.9999974365235,4|0,0:0|0:0,0:0:0:0:
278,143,96933,2,0,P|233:125|182:123,1,83.9999974365235,4|0,0:0|0:0,0:0:0:0:
318,295,97362,2,0,P|273:312|222:314,1,83.9999974365235,4|0,0:0|0:0,0:0:0:0:
404,188,97790,1,4,0:0:0:0:
206,94,98219,1,4,0:0:0:0:
238,310,98648,1,4,0:0:0:0:
265,93,99076,1,4,0:0:0:0:
138,293,99505,6,0,P|138:229|129:194,1,90.9999958343508,4|0,0:0|0:0,0:0:0:0:
313,215,99933,2,0,P|333:155|336:119,1,90.9999958343508,4|0,0:0|0:0,0:0:0:0:
159,174,100362,2,0,P|157:129|166:84,1,90.9999958343508,4|0,0:0|0:0,0:0:0:0:
344,110,100790,2,0,P|350:65|367:22,1,90.9999958343508,4|0,0:0|0:0,0:0:0:0:
202,100,101219,22,0,P|193:144|195:190,1,90.9999958343508,4|0,0:0|0:0,0:0:0:0:
264,305,101648,2,0,P|299:277|328:242,1,90.9999958343508,4|0,0:0|0:0,0:0:0:0:
346,114,102076,2,0,P|300:119|258:134,1,90.9999958343508,4|0,0:0|0:0,0:0:0:0:
191,244,102505,2,0,P|233:260|278:267,1,90.9999958343508,4|0,0:0|0:0,0:0:0:0:
208,112,102933,5,4,0:0:0:0:
198,96,103148,1,0,0:0:0:0:
304,272,103362,1,4,0:0:0:0:
313,288,103577,1,0,0:0:0:0:
272,59,103790,5,4,0:0:0:0:
274,40,104005,1,0,0:0:0:0:
242,243,104219,1,4,0:0:0:0:
239,261,104434,1,0,0:0:0:0:
234,74,104648,21,4,0:0:0:0:
273,295,104862,1,0,0:0:0:0:
234,74,105076,1,4,0:0:0:0:
273,295,105290,1,0,0:0:0:0:
316,66,105505,5,4,0:0:0:0:
218,234,105719,1,0,0:0:0:0:
316,66,105933,1,4,0:0:0:0:
218,234,106147,1,0,0:0:0:0:
202,23,106362,5,6,0:0:0:0:
191,47,106469,1,0,0:0:0:0:
186,72,106576,1,0,0:0:0:0:
188,98,106683,1,0,0:0:0:0:
197,123,106790,1,6,0:0:0:0:
206,148,106897,1,0,0:0:0:0:
209,174,107004,1,0,0:0:0:0:
206,200,107111,1,0,0:0:0:0:
203,219,107219,21,6,0:0:0:0:
200,240,107326,1,0,0:0:0:0:
209,265,107433,1,0,0:0:0:0:
230,280,107540,1,0,0:0:0:0:
255,280,107647,1,6,0:0:0:0:
276,264,107755,1,0,0:0:0:0:
282,238,107862,1,0,0:0:0:0:
276,212,107969,1,0,0:0:0:0:
260,190,108076,5,6,0:0:0:0:
144,80,108505,22,2,B|141:90|141:90|145:101,1,20.9999993591309
218,192,108933,2,2,B|226:171|226:171|221:150,1,41.9999987182618
89,200,109790,5,0,0:0:0:0:
264,254,110005,1,0,0:0:0:0:
264,254,110112,1,0,0:0:0:0:
264,254,110219,2,2,P|263:190|249:127,1,105.000004005432,0|0,0:0|0:0,0:0:0:0:
215,54,110648,2,8,P|160:87|113:131,1,105.000004005432,0|0,0:0|0:0,0:0:0:0:
198,209,111076,2,2,P|261:201|322:181,1,105.000004005432,4|0,0:0|0:0,0:0:0:0:
414,49,111505,2,2,P|350:41|286:47,1,105.000004005432,4|0,0:0|0:0,0:0:0:0:
225,136,111933,5,8,0:0:0:0:
369,264,112148,1,8,0:0:0:0:
379,105,112362,2,0,B|347:187|287:175|259:276,1,210.000008010865,4|0,0:0|0:0,0:0:0:0:
369,264,113005,1,0,0:0:0:0:
192,267,113219,5,12,0:0:0:0:
338,137,113433,1,0,0:0:0:0:
159,178,113648,1,0,0:0:0:0:
338,137,113862,1,0,0:0:0:0:
144,80,114076,22,0,P|201:109|250:150,1,105.000004005432,12|0,0:0|0:0,0:0:0:0:
288,288,114505,1,0,0:0:0:0:
144,208,114719,1,0,0:0:0:0:
368,239,114933,2,0,P|430:250|488:276,1,105.000004005432,12|0,0:0|0:0,0:0:0:0:
208,352,115362,1,0,0:0:0:0:
272,176,115576,1,0,0:0:0:0:
252,302,115790,2,0,B|226:192|170:230|148:119,1,210.000008010865,12|0,0:0|0:0,0:0:0:0:
148,51,116433,1,0,0:0:0:0:
165,279,116648,5,8,0:0:0:0:
399,161,116862,2,0,P|431:167|459:185,1,52.5000020027161
413,190,117076,2,0,P|349:172|293:141,1,105.000004005432,12|0,0:0|0:0,0:0:0:0:
188,64,117505,1,12,0:0:0:0:
188,64,117933,38,0,P|164:125|155:188,1,105.000004005432
128,319,118362,2,0,P|104:258|95:195,1,105.000004005432
146,70,118790,1,8,0:0:0:0:
228,264,119005,1,8,0:0:0:0:
315,73,119219,1,4,0:0:0:0:
160,184,119433,1,0,0:0:0:0:
160,184,119540,1,0,0:0:0:0:
160,184,119648,2,0,P|174:120|201:62,1,105.000004005432,4|0,0:0|0:0,0:0:0:0:
291,277,120076,6,0,P|289:211|272:149,1,105.000004005432,12|0,0:0|0:0,0:0:0:0:
193,41,120505,1,0,0:0:0:0:
145,190,120719,1,0,0:0:0:0:
248,169,120933,2,0,P|196:128|138:101,1,105.000004005432,12|0,0:0|0:0,0:0:0:0:
40,193,121362,1,0,0:0:0:0:
156,298,121576,1,0,0:0:0:0:
185,164,121790,2,0,P|133:204|94:254,1,105.000004005432,12|0,0:0|0:0,0:0:0:0:
217,334,122219,22,2,B|227:329|227:329|233:320,1,20.9999993591309
264,208,122648,2,2,B|242:215|242:215|228:230,1,41.9999987182618
165,133,123505,6,0,P|183:70|185:6,1,105.000004005432,12|0,0:0|0:0,0:0:0:0:
282,216,123933,2,0,P|297:165|322:119,1,105.000004005432
129,264,124362,2,0,P|83:311|51:366,1,105.000004005432,12|0,0:0|0:0,0:0:0:0:
241,298,124791,1,4,0:3:0:0:
241,298,124898,1,4,0:3:0:0:
241,298,125005,1,4,0:3:0:0:
187,187,125220,6,0,P|162:125|125:74,1,105.000004005432
279,252,125648,1,8,0:0:0:0:
325,89,125862,1,8,0:0:0:0:
388,218,126076,2,0,B|296:202|283:143|197:133,1,210.000008010865,4|0,0:0|0:0,0:0:0:0:
91,130,126719,1,0,0:0:0:0:
275,320,126933,5,12,0:0:0:0:
307,130,127148,1,0,0:0:0:0:
275,320,127362,1,0,0:0:0:0:
307,130,127576,1,0,0:0:0:0:
369,287,127790,21,12,0:0:0:0:
224,145,128005,1,0,0:0:0:0:
369,287,128219,1,0,0:0:0:0:
224,145,128433,1,0,0:0:0:0:
240,266,128648,21,12,0:0:0:0:
281,66,128862,1,0,0:0:0:0:
240,266,129076,1,0,0:0:0:0:
281,66,129290,1,0,0:0:0:0:
215,188,129505,38,0,P|218:122|206:60,1,105.000004005432,12|0,0:0|0:0,0:0:0:0:
344,168,129933,2,0,P|359:117|384:71,1,105.000004005432,12|0,0:0|0:0,0:0:0:0:
226,139,130362,5,0,0:0:0:0:
284,287,130576,2,0,P|289:321|304:349,1,52.5000020027161
313,306,130790,2,0,P|300:242|273:184,1,105.000004005432,12|0,0:0|0:0,0:0:0:0:
186,78,131219,1,12,0:0:0:0:
186,78,131648,22,0,P|239:74|291:81,1,105.000004005432
390,265,132076,2,0,P|338:259|288:243,1,105.000004005432
156,106,132505,1,8,0:0:0:0:
379,170,132718,1,8,0:0:0:0:
226,262,132933,1,4,0:0:0:0:
302,76,133148,1,0,0:0:0:0:
302,76,133255,1,0,0:0:0:0:
302,76,133362,2,0,P|277:122|262:172,1,105.000004005432
340,352,133790,5,12,0:0:0:0:
249,242,134005,1,0,0:0:0:0:
340,352,134219,1,0,0:0:0:0:
395,183,134433,1,0,0:0:0:0:
249,242,134648,5,12,0:0:0:0:
395,183,134862,1,0,0:0:0:0:
249,242,135076,1,0,0:0:0:0:
275,97,135290,1,0,0:0:0:0:
335,276,135505,21,12,0:0:0:0:
275,97,135719,1,0,0:0:0:0:
249,242,135933,38,2,B|246:252|246:252|250:263,1,20.9999993591309
323,354,136362,2,2,B|331:333|331:333|326:312,1,41.9999987182618
179,189,137219,5,12,0:0:0:0:
179,189,137648,1,0,0:0:0:0:
336,85,138076,1,8,0:0:0:0:
240,128,138933,2,0,L|230:239,1,105.000004005432,0|12,0:0|0:0,0:0:0:0:
96,104,139790,1,8,0:0:0:0:
176,64,140648,6,0,B|208:160|157:269|157:269|256:160|367:220|367:220|320:240|304:288,1,525.000020027161,8|0,0:0|0:0,0:0:0:0:
286,346,143005,1,12,0:0:0:0:
257,204,143219,1,8,0:0:0:0:
336,96,144076,5,12,0:0:0:0:
336,96,144505,1,0,0:0:0:0:
177,173,144933,1,8,0:0:0:0:
346,226,145790,2,0,L|234:235,1,105.000004005432,0|12,0:0|0:0,0:0:0:0:
305,384,146648,1,8,0:0:0:0:
352,128,147505,22,0,B|256:64|256:160|160:128|160:128|194:218|125:276|125:276|238:322|261:224|261:224,1,525.000020027161,8|0,0:0|3:0,0:0:0:0:
288,161,149862,1,12,0:0:0:0:
280,302,150076,1,8,0:0:0:0:
135,92,150933,5,8,0:0:0:0:
135,92,151362,1,0,0:0:0:0:
251,142,151790,1,6,0:2:0:0:
170,234,152648,1,0,0:0:0:0:
170,234,153076,1,0,0:0:0:0:
401,326,153505,1,8,0:0:0:0:
134,43,154362,6,0,B|107:169|47:207|47:207|51:301|139:344|139:344|130:255|190:286|173:190|173:190|243:288|330:273|330:273,1,700,8|0,0:0|0:0,0:0:0:0:
414,278,156719,1,12,0:0:0:0:
305,182,156933,1,8,0:0:0:0:
318,345,157790,38,0,P|312:306|318:249,1,70,12|0,0:0|0:0,0:0:0:0:
225,300,158219,2,0,P|220:260|198:207,1,70
363,174,158648,1,8,0:0:0:0:
236,115,159076,1,0,0:0:0:0:
287,227,159505,2,0,P|326:226|381:210,1,70
404,110,159933,2,0,P|365:120|316:149,1,70,12|0,0:0|0:0,0:0:0:0:
301,311,160362,1,8,0:0:0:0:
174,270,160790,1,0,0:0:0:0:
301,311,161219,6,0,B|327:225|418:234|418:234|351:130|446:131|380:34|380:34|301:119|271:43|227:149,1,560,12|0,0:0|0:0,0:0:0:0:
204,199,163362,6,2,B|197:207|197:207|198:218,1,20.9999993591309
241,327,163790,2,2,B|254:309|254:309|255:287,1,41.9999987182618
256,192,178362,5,4,0:0:0:0:
191,242,179219,2,0,P|234:204|267:103,2,140
243,340,180933,1,0,0:0:0:0:
243,340,181362,6,0,P|181:306|130:293,1,105
113,295,181790,2,0,P|205:222|341:201,1,245,4|0,0:0|0:0,0:0:0:0:
363,201,182648,2,0,P|254:156|117:174,1,245
96,179,183505,2,0,P|173:91|305:47,1,245
326,45,184362,2,0,P|298:159|203:259,1,245
182,266,185219,1,4,0:0:0:0:
111,307,186076,6,0,L|119:211,1,70
180,248,186505,2,0,L|171:343,1,70
119,299,186933,21,0,0:0:0:0:
171,255,187362,1,0,0:0:0:0:
67,285,187790,5,0,0:0:0:0:
58,180,188005,1,0,0:0:0:0:
154,141,188219,1,0,0:0:0:0:
223,217,188433,1,0,0:0:0:0:
174,318,188648,2,0,P|267:209|398:251,1,293.999991027832,4|0,2:0|2:0,2:0:0:0:
409,263,189505,2,0,P|265:263|211:137,1,293.999991027832,0|0,2:0|2:0,2:0:0:0:
215,120,190362,2,0,P|329:205|297:338,1,293.999991027832,0|0,2:0|2:0,2:0:0:0:
282,351,191219,2,0,B|197:240|350:200|256:64,1,293.999991027832,0|0,2:0|2:0,2:0:0:0:
234,59,192076,6,0,P|228:96|233:122,1,52.5000020027161,4|0,0:0|0:0,0:0:0:0:
302,164,192504,2,0,P|308:127|305:100,1,52.5000020027161
302,34,192933,1,0,0:0:0:0:
371,72,193148,1,0,0:0:0:0:
225,28,193362,2,0,P|188:37|165:51,1,52.5000020027161
132,110,193790,1,0,0:0:0:0:
212,161,194005,21,0,0:0:0:0:
212,161,194112,1,0,0:0:0:0:
212,161,194219,2,0,P|207:124|212:97,1,52.5000020027161
277,70,194648,2,0,P|282:107|277:134,1,52.5000020027161
151,218,195076,1,0,0:0:0:0:
212,161,195290,1,0,0:0:0:0:
230,241,195505,5,4,0:0:0:0:
291,184,195719,1,0,0:0:0:0:
230,241,195933,1,0,0:0:0:0:
291,184,196148,1,0,0:0:0:0:
212,161,196362,6,0,P|207:124|212:97,1,52.5000020027161
159,210,196790,2,0,P|123:197|96:196,1,52.5000020027161
132,277,197219,2,0,P|95:285|72:299,1,52.5000020027161
149,347,197647,2,0,P|117:367|100:388,1,52.5000020027161
210,298,198076,2,0,P|205:261|210:234,1,52.5000020027161
278,261,198504,2,0,P|279:223|271:197,1,52.5000020027161
234,141,198933,1,0,0:0:0:0:
317,235,199148,22,0,P|329:262|341:276,1,26.2500010013581
328,260,199362,2,0,P|329:222|321:196,1,52.5000020027161
293,136,199790,2,0,P|265:162|253:186,1,52.5000020027161
290,246,200219,2,0,P|317:219|330:195,1,52.5000020027161
355,134,200648,1,0,0:0:0:0:
268,158,200862,5,0,0:0:0:0:
261,166,200969,1,0,0:0:0:0:
253,176,201076,2,0,P|255:214|246:239,1,52.5000020027161
213,292,201505,1,0,0:0:0:0:
152,242,201719,1,0,0:0:0:0:
139,166,201933,2,0,P|141:139|152:115,1,52.5000020027161
229,98,202362,1,0,0:0:0:0:
261,231,202576,1,0,0:0:0:0:
271,159,202790,2,0,P|233:165|210:179,1,52.5000020027161
157,217,203219,5,0,0:0:0:0:
213,271,203433,1,0,0:0:0:0:
232,198,203648,2,0,P|256:186|282:183,1,52.5000020027161
397,235,204076,2,0,P|359:241|336:255,1,52.5000020027161
300,311,204505,2,0,P|270:285|258:261,1,52.5000020027161
322,221,204933,2,0,P|301:188|279:172,1,52.5000020027161
220,214,205362,2,0,P|190:188|178:164,1,52.5000020027161
97,154,205790,22,0,P|107:192|124:217,1,59.5000011348725
205,224,206219,2,0,P|194:185|177:160,1,59.5000011348725
123,103,206648,1,0,0:0:0:0:
194,49,206862,1,0,0:0:0:0:
252,116,207076,2,0,P|262:154|279:179,1,59.5000011348725
342,226,207505,1,0,0:0:0:0:
378,98,207719,5,0,0:0:0:0:
378,98,207826,1,0,0:0:0:0:
378,98,207933,2,0,P|343:117|323:140,1,59.5000011348725
319,232,208362,2,0,P|297:252|271:265,1,59.5000011348725
164,261,208791,1,0,0:0:0:0:
255,184,209005,1,0,0:0:0:0:
274,297,209219,5,4,0:0:0:0:
365,220,209433,1,0,0:0:0:0:
274,297,209648,1,0,0:0:0:0:
365,220,209862,1,0,0:0:0:0:
303,160,210076,22,0,P|268:179|248:202,1,59.5000011348725
260,319,210505,2,0,P|294:299|314:276,1,59.5000011348725
348,173,210933,2,0,P|328:138|305:118,1,59.5000011348725
176,129,211362,2,0,P|195:163|218:183,1,59.5000011348725
338,224,211790,2,0,P|372:204|392:181,1,59.5000011348725
257,142,212219,2,0,P|222:161|202:184,1,59.5000011348725
326,73,212648,5,4,0:0:0:0:
333,55,212861,1,0,0:0:0:0:
249,243,213077,1,4,0:0:0:0:
242,259,213290,1,0,0:0:0:0:
254,108,213505,5,4,0:0:0:0:
243,90,213719,1,0,0:0:0:0:
340,271,213933,1,4,0:0:0:0:
349,288,214148,1,0,0:0:0:0:
351,135,214362,37,4,0:0:0:0:
212,293,214576,1,0,0:0:0:0:
351,135,214790,1,4,0:0:0:0:
212,293,215005,1,0,0:0:0:0:
211,85,215219,5,4,0:0:0:0:
286,264,215433,1,0,0:0:0:0:
211,85,215648,1,4,0:0:0:0:
286,264,215862,1,0,0:0:0:0:
336,172,216076,21,6,0:0:0:0:
310,179,216183,1,0,0:0:0:0:
284,180,216290,1,0,0:0:0:0:
259,173,216397,1,0,0:0:0:0:
234,164,216504,1,6,0:0:0:0:
208,163,216611,1,0,0:0:0:0:
183,169,216718,1,0,0:0:0:0:
164,188,216826,1,0,0:0:0:0:
160,213,216933,5,6,0:0:0:0:
167,236,217040,1,0,0:0:0:0:
188,252,217147,1,0,0:0:0:0:
213,250,217254,1,0,0:0:0:0:
235,235,217361,1,6,0:0:0:0:
241,211,217468,1,0,0:0:0:0:
225,188,217576,1,0,0:0:0:0:
201,175,217683,1,0,0:0:0:0:
179,177,217790,6,0,P|193:206|200:244,1,52.5000020027161
272,105,218219,2,0,P|255:136|250:172,1,52.5000020027161
156,73,218648,21,10,0:0:0:0:
219,312,218862,1,8,0:0:0:0:
271,79,219076,5,10,0:0:0:0:
158,321,219290,1,8,0:0:0:0:
360,125,219505,5,0,0:0:0:0:
264,254,219720,1,0,0:0:0:0:
264,254,219827,1,0,0:0:0:0:
264,254,219934,2,2,P|263:190|249:127,1,105.000004005432,0|0,0:0|0:0,0:0:0:0:
149,33,220362,2,2,P|150:97|164:160,1,105.000004005432,0|0,0:0|0:0,0:0:0:0:
243,269,220791,2,2,P|306:261|367:241,1,105.000004005432,4|0,0:0|0:0,0:0:0:0:
451,131,221220,2,2,P|392:101|330:84,1,105.000004005432,4|0,0:0|0:0,0:0:0:0:
146,99,221648,21,8,0:0:0:0:
297,297,221862,1,8,0:0:0:0:
150,257,222076,38,4,B|157:234|157:234|177:225,1,42,6|0,0:0|1:0,0:0:0:0:
390,194,222933,5,12,0:0:0:0:
227,83,223148,1,0,0:0:0:0:
390,194,223362,1,0,0:0:0:0:
227,83,223576,1,0,0:0:0:0:
336,258,223790,5,12,0:0:0:0:
279,26,224004,1,0,0:0:0:0:
336,258,224218,1,0,0:0:0:0:
279,26,224433,1,0,0:0:0:0:
215,225,224648,6,0,P|191:164|182:101,1,105.000004005432,12|0,0:0|0:0,0:0:0:0:
338,174,225076,2,0,P|349:109|346:45,1,105.000004005432
138,142,225505,2,0,P|139:76|156:14,1,105.000004005432,12|0,0:0|0:0,0:0:0:0:
293,230,225933,2,0,P|322:172|337:110,1,105.000004005432
137,255,226362,21,12,0:0:0:0:
229,77,226576,2,0,P|236:44|235:11,1,52.5000020027161
207,47,226790,2,0,P|191:110|190:173,1,105.000004005432,4|0,0:0|0:0,0:0:0:0:
233,294,227219,1,12,0:0:0:0:
233,294,227648,6,0,P|284:281|331:259,1,105.000004005432
339,65,228076,2,0,P|288:78|241:100,1,105.000004005432
188,245,228505,1,8,0:0:0:0:
332,98,228719,1,8,0:0:0:0:
255,178,228933,1,4,0:0:0:0:
240,156,229040,1,4,0:0:0:0:
236,130,229147,1,4,0:0:0:0:
243,105,229254,1,4,0:0:0:0:
257,85,229362,2,0,P|219:139|172:181,1,105.000004005432,4|0,0:0|0:0,0:0:0:0:
28,202,229790,6,0,P|66:148|113:106,1,105.000004005432,12|0,0:0|0:0,0:0:0:0:
251,119,230219,1,0,0:0:0:0:
162,219,230433,1,0,0:0:0:0:
144,93,230648,2,0,P|207:73|270:69,1,105.000004005432,12|0,0:0|0:0,0:0:0:0:
370,164,231077,1,0,0:0:0:0:
238,189,231291,1,0,0:0:0:0:
287,75,231505,2,0,P|352:80|412:100,1,105.000004005432,12|0,0:0|0:0,0:0:0:0:
445,182,231933,6,2,B|434:183|434:183|424:176,1,20.9999993591309
355,82,232361,2,2,B|377:80|377:80|396:90,1,41.9999987182618
347,133,233219,6,0,P|329:70|327:6,1,105.000004005432,12|0,0:0|0:0,0:0:0:0:
230,216,233647,2,0,P|215:165|190:119,1,105.000004005432
383,264,234076,2,0,P|428:311|460:366,1,105.000004005432,12|0,0:0|0:0,0:0:0:0:
271,298,234505,1,4,0:3:0:0:
271,298,234612,1,4,0:3:0:0:
271,298,234719,1,4,0:3:0:0:
315,218,234934,6,0,P|290:156|253:105,1,105.000004005432
143,39,235362,1,8,0:0:0:0:
218,249,235576,1,8,0:0:0:0:
312,101,235790,1,4,0:0:0:0:
286,105,235897,1,4,0:0:0:0:
265,120,236004,1,4,0:0:0:0:
251,144,236111,1,4,0:0:0:0:
245,175,236219,2,0,P|215:115|176:66,1,105.000004005432,4|0,0:0|0:0,0:0:0:0:
257,309,236648,5,12,0:0:0:0:
347,142,236863,1,0,0:0:0:0:
257,309,237077,1,0,0:0:0:0:
215,188,237291,1,0,0:0:0:0:
388,234,237505,21,12,0:0:0:0:
215,188,237720,1,0,0:0:0:0:
388,234,237934,1,0,0:0:0:0:
273,58,238148,1,0,0:0:0:0:
215,188,238363,5,12,0:0:0:0:
273,58,238577,1,0,0:0:0:0:
215,188,238791,1,0,0:0:0:0:
143,39,239005,1,0,0:0:0:0:
111,198,239219,2,0,P|133:150|163:107,1,105.000004005432,12|0,0:0|0:0,0:0:0:0:
307,163,239648,2,0,P|300:110|285:60,1,105.000004005432,12|0,0:0|0:0,0:0:0:0:
111,198,240076,5,12,0:0:0:0:
322,287,240290,2,0,P|338:316|345:347,1,52.5000020027161
309,319,240504,2,0,P|279:262|262:198,1,105.000004005432,12|0,0:0|0:0,0:0:0:0:
313,65,240933,1,8,0:0:0:0:
313,65,241362,22,0,P|247:66|185:83,1,105.000004005432
122,248,241790,2,0,P|186:242|247:223,1,105.000004005432
356,106,242219,1,8,0:0:0:0:
133,170,242432,1,8,0:0:0:0:
286,262,242647,1,4,0:0:0:0:
210,76,242862,1,0,0:0:0:0:
210,76,242969,1,0,0:0:0:0:
210,76,243076,2,0,P|235:122|250:172,1,105.000004005432
126,341,243504,5,12,0:0:0:0:
263,242,243719,1,0,0:0:0:0:
126,341,243933,1,0,0:0:0:0:
187,147,244147,1,0,0:0:0:0:
263,242,244362,5,12,0:0:0:0:
187,147,244576,1,0,0:0:0:0:
263,242,244790,1,0,0:0:0:0:
279,27,245004,1,0,0:0:0:0:
187,147,245219,21,12,0:0:0:0:
279,27,245433,1,0,0:0:0:0:
263,242,245648,38,2,B|260:252|260:252|263:261,1,20.9999993591309
337,354,246076,2,2,B|345:333|345:333|340:314,1,41.9999987182618
144,197,246933,5,0,0:0:0:0:
273,242,247148,1,0,0:0:0:0:
273,242,247255,1,0,0:0:0:0:
273,242,247362,2,2,P|272:199|263:157,1,70,0|0,0:0|0:0,0:0:0:0:
187,148,247790,2,2,P|187:190|196:232,1,70,8|0,0:0|0:0,0:0:0:0:
225,293,248219,2,2,P|255:264|280:229,1,70,4|0,0:0|0:0,0:0:0:0:
320,174,248648,2,2,P|277:168|234:172,1,70,4|0,0:0|0:0,0:0:0:0:
169,197,249076,5,8,0:0:0:0:
169,197,249291,1,8,0:0:0:0:
153,100,249505,2,0,B|117:155|94:146|73:213,1,140,4|0,0:0|0:0,0:0:0:0:
169,197,250148,1,0,0:0:0:0:
167,325,250362,5,12,0:0:0:0:
262,210,250576,1,0,0:0:0:0:
167,325,250791,1,0,0:0:0:0:
262,210,251005,1,0,0:0:0:0:
235,287,251219,22,0,P|203:257|167:236,1,70,12|0,2:0|1:0,1:0:0:0:
111,231,251648,1,0,0:0:0:0:
111,231,251862,1,0,0:0:0:0:
159,170,252076,2,0,P|190:140|226:119,1,70,4|0,2:0|1:0,1:0:0:0:
283,114,252505,1,0,0:0:0:0:
283,114,252719,1,0,0:0:0:0:
230,52,252933,2,0,P|191:31|150:19,1,70,12|0,0:0|0:0,0:0:0:0:
304,36,253362,2,0,P|342:14|383:3,1,70,8|0,0:0|0:0,0:0:0:0:
300,187,253791,5,8,0:0:0:0:
358,132,254005,2,0,P|366:111|368:89,1,35
347,110,254219,2,0,P|331:150|325:192,1,70,4|0,0:0|0:0,0:0:0:0:
349,274,254648,1,12,0:0:0:0:
246,150,255076,6,0,P|230:190|224:232,1,70
284,271,255505,2,0,P|299:230|305:188,1,70
319,127,255933,21,8,0:0:0:0:
318,126,256148,1,8,0:0:0:0:
272,55,256362,2,0,B|236:110|213:101|192:168,1,140,4|0,0:0|0:0,0:0:0:0:
196,245,257005,1,0,0:0:0:0:
279,248,257219,6,0,P|277:204|266:163,1,70,12|0,0:0|0:0,0:0:0:0:
244,115,257648,1,0,0:0:0:0:
244,115,257862,1,0,0:0:0:0:
204,172,258076,2,0,P|205:215|216:257,1,70,12|0,0:0|0:0,0:0:0:0:
239,305,258505,1,0,0:0:0:0:
239,305,258719,1,0,0:0:0:0:
283,218,258933,6,0,P|327:220|368:231,2,70,12|0|0,0:0|0:0|0:0,0:0:0:0:
154,268,259576,1,8,0:0:0:0:
141,117,259790,2,0,P|147:151|148:186,1,70,12|0,0:0|0:0,0:0:0:0:
154,268,260219,2,0,P|192:246|223:216,1,70,12|0,0:0|0:0,0:0:0:0:
352,191,260648,38,0,L|288:186,1,52.5000020027161,4|0,0:0|0:0,0:0:0:0:
319,128,261076,2,0,L|256:133,1,52.5000020027161,4|0,0:0|0:0,0:0:0:0:
288,191,261505,2,0,L|224:186,1,52.5000020027161,4|0,0:0|0:0,0:0:0:0:
256,128,261933,2,0,L|192:133,1,52.5000020027161,4|0,0:0|0:0,0:0:0:0:
224,191,262362,2,0,L|160:186,1,52.5000020027161,4|0,0:0|0:0,0:0:0:0:
129,130,262790,2,0,B|146:125|146:125|161:134|161:134|184:129,1,59.5000011348725,4|0,0:0|0:0,0:0:0:0:
391,186,263219,1,12,0:0:0:0:
391,186,263862,1,0,0:0:0:0:
348,81,264076,6,0,L|343:144,1,52.5000020027161,12|0,0:0|0:0,0:0:0:0:
285,112,264504,2,0,L|290:176,1,52.5000020027161,4|0,0:0|0:0,0:0:0:0:
348,145,264933,2,0,L|342:208,1,52.5000020027161,12|0,0:0|0:0,0:0:0:0:
285,177,265361,2,0,L|290:240,1,52.5000020027161,4|0,0:0|0:0,0:0:0:0:
349,209,265790,2,0,L|343:272,2,52.5000020027161,4|0|0,0:0|0:0|0:0,0:0:0:0:
353,124,266433,1,8,0:0:0:0:
232,270,266648,1,12,0:0:0:0:
91,287,267505,22,0,L|97:223,1,52.5000020027161,12|0,0:0|0:0,0:0:0:0:
155,254,267933,2,0,L|149:190,1,52.5000020027161,4|0,0:0|0:0,0:0:0:0:
91,222,268362,2,0,L|96:159,1,52.5000020027161,12|0,0:0|0:0,0:0:0:0:
155,190,268790,2,0,L|150:126,1,52.5000020027161,4|0,0:0|0:0,0:0:0:0:
91,158,269219,2,0,L|97:94,1,52.5000020027161,4|0,0:0|0:0,0:0:0:0:
155,126,269647,2,0,L|149:63,1,52.5000020027161,12|0,0:0|0:0,0:0:0:0:
125,320,270076,1,12,0:0:0:0:
256,192,270933,5,12,0:0:0:0:
256,192,271790,1,12,0:0:0:0:
276,244,272648,6,0,L|307:241,2,26.2500010013581
192,186,273076,2,0,L|160:183,2,26.2500010013581
282,125,273505,2,0,L|346:119,1,52.5000020027161
189,69,273933,1,0,0:0:0:0:
256,192,274362,12,0,276933,0:0:0:0:
