osu file format v14

[General]
AudioFilename: audio.mp3
AudioLeadIn: 0
PreviewTime: 24051
Countdown: 0
SampleSet: None
StackLeniency: 0.4
Mode: 0
LetterboxInBreaks: 0
WidescreenStoryboard: 1

[Editor]
Bookmarks: 24383
DistanceSpacing: 0.3
BeatDivisor: 4
GridSize: 4
TimelineZoom: 1.200006

[Metadata]
Title:Turn It Up (Speed Up ver.)
TitleUnicode:Turn It Up (Speed Up ver.)
Artist:Holiday Parade
ArtistUnicode:Holiday Parade
Creator:livezi
Version:ShaunWhite
Source:Shaun White Skateboarding
Tags:rock,pop
BeatmapID:1204053
BeatmapSetID:568153

[Difficulty]
HPDrainRate:6
CircleSize:4
OverallDifficulty:8
ApproachRate:9.6
SliderMultiplier:1.6
SliderTickRate:1

[Events]
//Background and Video events
0,0,"wall.jpg",0,0
//Break Periods
2,21925,23874
2,45849,47466
2,65619,66405
//Storyboard Layer 0 (Background)
//Storyboard Layer 1 (Fail)
//Storyboard Layer 2 (Pass)
//Storyboard Layer 3 (Foreground)
//Storyboard Sound Samples

[TimingPoints]
460,332.273749266229,4,1,0,100,1,0
460,-100,4,2,0,40,0,0
1456,-66.6666666666667,4,2,0,40,0,0
5776,-66.6666666666667,4,2,0,45,0,0
10926,-50,4,2,0,50,0,0
24300,-50,4,2,0,60,0,1
39917,-50,4,1,0,60,0,1
42907,-50,4,1,0,60,0,1
43738,-50,4,2,0,60,0,1
45649,-50,4,2,0,60,0,0
47809,-66.6666666666667,4,2,0,45,0,0
49553,-50,4,2,0,45,0,0
49885,-66.6666666666667,4,2,0,45,0,0
51214,-50,4,2,0,45,0,0
56198,-50,4,2,0,50,0,0
64505,-100,4,2,0,50,0,0
65170,-50,4,2,0,50,0,0
66831,-50,4,2,0,60,0,0

[Colours]
Combo1 : 243,241,237
Combo2 : 238,167,47
Combo3 : 255,81,81

[HitObjects]
51,96,460,5,0,0:0:0:0:
134,80,626,1,0,0:0:0:0:
199,135,792,1,0,0:0:0:0:
198,219,958,1,0,0:0:0:0:
128,280,1124,6,0,P|174:355|202:347,1,80,8|0,0:0|0:0,0:0:0:0:
240,328,1456,1,0,0:0:0:0:
325,332,1622,1,0,0:0:0:0:
392,276,1789,6,0,P|328:167|295:165,1,120.000004577637
256,184,2121,1,8,0:0:0:0:
176,232,2287,2,0,P|228:105|240:104,1,120.000004577637
256,184,2619,1,8,0:0:0:0:
352,168,2785,2,0,P|344:226|299:263,1,120.000004577637
76,104,3118,5,0,0:0:0:0:
76,104,3284,1,0,0:0:0:0:
76,104,3450,2,0,P|139:149|224:124,1,120.000004577637
264,96,3782,2,0,P|256:216|232:244,1,120.000004577637,8|0,0:0|0:0,0:0:0:0:
120,284,4115,5,0,0:0:0:0:
52,152,4281,1,0,0:0:0:0:
204,88,4447,1,0,0:0:0:0:
116,268,4613,1,0,0:0:0:0:
48,132,4779,2,0,P|164:76|168:44,1,120.000004577637
176,64,5111,2,0,P|244:152|296:152,1,120.000004577637
232,248,5444,2,0,P|316:152|344:144,1,120.000004577637,8|0,0:0|0:0,0:0:0:0:
440,208,5776,5,0,0:0:0:0:
440,208,5942,1,0,0:0:0:0:
440,208,6108,2,0,P|352:144|336:88,1,120.000004577637
320,172,6440,2,0,P|394:193|420:248,1,120.000004577637
332,256,6773,2,0,P|268:328|212:312,1,120.000004577637
100,148,7105,2,0,P|140:191|160:248,1,120.000004577637
256,192,7437,12,2,10760,0:0:0:0:
420,176,11092,6,0,P|320:84|232:124,1,160
208,116,11425,1,0,0:0:0:0:
208,116,11591,2,0,P|216:188|316:252,1,160
452,248,11923,5,0,0:0:0:0:
349,208,12089,1,0,0:0:0:0:
376,310,12255,1,0,0:0:0:0:
380,168,12421,5,0,0:0:0:0:
465,293,12587,1,0,0:0:0:0:
327,304,12754,1,0,0:0:0:0:
261,172,12920,6,0,P|109:122|34:212,1,160
48,272,13252,2,0,P|197:224|290:273,1,160
194,223,13584,1,0,0:0:0:0:
364,100,13750,5,0,0:0:0:0:
364,100,13917,1,0,0:0:0:0:
364,100,14083,2,0,P|281:268|318:323,1,160
276,273,14415,2,0,P|145:146|86:151,1,160
94,192,14747,6,0,P|222:86|323:101,1,160
169,64,15080,2,0,P|332:166|342:220,1,160
217,195,15412,5,0,0:0:0:0:
217,195,15578,2,0,L|190:369,1,160,8|0,0:0|0:0,0:0:0:0:
444,130,15910,2,0,L|477:332,1,160,8|0,0:0|0:0,0:0:0:0:
148,46,16243,2,0,L|101:246,1,160,4|0,0:0|0:0,0:0:0:0:
352,84,16741,5,8,0:0:0:0:
268,212,16907,1,0,0:0:0:0:
417,156,17073,2,0,P|325:297|275:301,1,160
259,353,17405,5,0,0:0:0:0:
220,324,17572,1,0,0:0:0:0:
180,296,17738,1,8,0:0:0:0:
173,278,18236,1,8,0:0:0:0:
167,264,18735,1,4,0:0:0:0:
452,152,19067,5,0,0:0:0:0:
452,152,19233,2,0,P|288:64|244:108,1,160
332,56,19565,1,0,0:0:0:0:
320,68,19731,1,0,0:0:0:0:
308,84,19898,1,0,0:0:0:0:
300,96,20064,2,0,P|376:204|383:263,1,160
104,276,20396,5,0,0:0:0:0:
104,276,20562,2,0,P|260:180|296:196,1,160
276,222,20894,1,0,0:0:0:0:
361,162,21060,1,0,0:0:0:0:
261,287,21227,1,0,0:0:0:0:
361,97,21393,1,0,0:0:0:0:
116,76,21725,5,4,0:0:0:0:
32,188,24383,6,0,P|168:128|248:144,1,160,4|0,0:0|0:0,0:0:0:0:
259,235,24715,1,0,0:0:0:0:
326,61,24882,1,0,0:0:0:0:
364,344,25048,1,0,0:0:0:0:
472,60,25214,1,0,0:0:0:0:
464,289,25380,1,0,0:0:0:0:
220,135,25546,1,0,0:0:0:0:
333,270,25712,6,0,P|237:334|153:314,1,160,4|0,0:0|0:0,0:0:0:0:
76,200,26045,1,0,0:0:0:0:
232,48,26211,1,0,0:0:0:0:
136,312,26377,1,0,0:0:0:0:
232,48,26543,1,0,0:0:0:0:
248,328,26709,1,0,0:0:0:0:
144,120,26875,5,0,0:0:0:0:
144,120,27041,2,0,P|340:60|420:108,1,160,4|0,0:0|0:0,0:0:0:0:
428,216,27374,2,0,P|284:100|236:100,1,160,4|0,0:0|0:0,0:0:0:0:
156,272,27706,2,0,P|276:144|324:136,1,160,4|0,0:0|0:0,0:0:0:0:
340,68,28038,6,0,P|468:196|488:200,1,160,4|0,0:0|0:0,0:0:0:0:
212,136,28370,2,0,P|84:264|64:268,1,160,4|0,0:0|0:0,0:0:0:0:
48,328,28703,1,0,0:0:0:0:
152,348,28869,1,8,0:0:0:0:
224,276,29035,1,0,0:0:0:0:
112,224,29201,2,0,P|264:132|344:168,1,160,8|0,0:0|0:0,0:0:0:0:
408,223,29533,5,0,0:0:0:0:
217,61,29700,1,0,0:0:0:0:
235,258,29866,1,0,0:0:0:0:
380,36,30032,1,0,0:0:0:0:
312,342,30198,1,0,0:0:0:0:
447,126,30364,5,0,0:0:0:0:
235,258,30530,1,0,0:0:0:0:
119,109,30696,1,0,0:0:0:0:
333,74,30863,1,0,0:0:0:0:
67,225,31029,1,0,0:0:0:0:
248,334,31195,1,0,0:0:0:0:
239,94,31361,5,0,0:0:0:0:
406,301,31527,1,0,0:0:0:0:
260,48,31693,1,0,0:0:0:0:
456,312,31859,1,0,0:0:0:0:
173,131,32026,1,0,0:0:0:0:
456,207,32192,1,0,0:0:0:0:
220,272,32358,5,0,0:0:0:0:
220,272,32524,2,0,P|344:144|412:152,1,160
324,76,32856,2,0,P|404:256|356:296,1,160
472,240,33188,2,0,P|288:200|260:228,1,160
308,148,33521,2,0,P|212:96|260:60,1,160
284,48,33853,5,0,0:0:0:0:
212,160,34019,1,0,0:0:0:0:
188,72,34185,2,0,L|168:240,1,160
220,332,34518,2,0,P|300:196|360:164,1,160
404,264,34850,6,0,L|328:192,1,80,8|0,0:0|0:0,0:0:0:0:
324,184,35016,1,4,0:0:0:0:
116,136,35182,1,0,0:0:0:0:
408,82,35348,1,0,0:0:0:0:
151,294,35514,1,0,0:0:0:0:
266,33,35681,1,0,0:0:0:0:
31,222,35847,1,0,0:0:0:0:
128,30,36013,1,0,0:0:0:0:
234,271,36179,1,0,0:0:0:0:
343,55,36345,5,4,0:0:0:0:
372,207,36511,1,0,0:0:0:0:
246,300,36677,1,0,0:0:0:0:
414,101,36843,5,0,0:0:0:0:
371,290,37010,1,0,0:0:0:0:
192,240,37176,1,0,0:0:0:0:
454,164,37342,5,0,0:0:0:0:
302,326,37508,1,0,0:0:0:0:
85,236,37674,6,0,L|252:108,1,160,4|0,0:0|0:0,0:0:0:0:
233,195,38006,1,0,0:0:0:0:
233,195,38173,2,0,L|373:87,1,160
487,246,38505,5,0,0:0:0:0:
304,280,38671,1,0,0:0:0:0:
304,280,38837,2,0,P|372:128|428:104,1,160,4|0,0:0|0:0,0:0:0:0:
340,80,39169,2,0,P|400:240|448:276,1,160
428,272,39502,2,0,P|272:232|220:248,1,160
277,231,39834,1,0,0:0:0:0:
248,148,40000,5,0,0:0:0:0:
92,80,40166,1,0,0:0:0:0:
256,44,40332,2,0,P|300:144|280:252,1,160,4|0,0:0|0:0,0:0:0:0:
260,292,40665,5,0,0:0:0:0:
112,160,40831,1,0,0:0:0:0:
144,312,40997,2,0,P|252:216|328:208,1,160,4|0,0:0|0:0,0:0:0:0:
328,132,41329,5,0,0:0:0:0:
388,324,41495,1,0,0:0:0:0:
328,188,41661,2,0,P|184:300|180:300,1,160,4|0,0:0|0:0,0:0:0:0:
28,108,41994,5,0,0:0:0:0:
116,324,42160,1,0,0:0:0:0:
120,188,42326,2,0,P|224:96|296:88,1,160,4|0,0:0|0:0,0:0:0:0:
336,74,42658,5,0,0:0:0:0:
248,244,42824,1,0,0:0:0:0:
365,196,42991,1,4,0:0:0:0:
367,243,43074,1,0,0:0:0:0:
352,288,43157,1,0,0:0:0:0:
322,325,43240,1,0,0:0:0:0:
280,348,43323,1,0,0:0:0:0:
233,353,43406,1,0,0:0:0:0:
186,341,43489,1,0,0:0:0:0:
148,312,43572,1,0,0:0:0:0:
123,272,43655,1,0,0:0:0:0:
84,144,43821,5,8,0:0:0:0:
84,144,43987,2,0,P|176:56|228:52,1,160,4|0,0:0|0:0,0:0:0:0:
356,112,44320,1,0,0:0:0:0:
384,284,44486,1,0,0:0:0:0:
256,196,44652,2,0,P|144:228|100:320,1,160
56,328,44984,2,0,P|236:280|276:288,1,160
176,320,45316,2,0,P|312:304|372:336,1,160
448,232,45649,1,4,0:0:0:0:
56,256,47975,6,0,P|160:156|164:156,1,120.000004577637,2|0,0:0|0:0,0:0:0:0:
236,232,48307,5,0,0:0:0:0:
236,232,48473,1,0,0:0:0:0:
368,164,48639,5,0,0:0:0:0:
368,164,48805,1,0,0:0:0:0:
252,324,48971,6,0,P|152:260|112:264,1,120.000004577637,8|0,0:0|0:0,0:0:0:0:
64,320,49304,5,0,0:0:0:0:
200,120,49470,1,0,0:0:0:0:
36,196,49636,2,0,P|176:256|228:248,1,160,10|0,0:0|0:0,0:0:0:0:
336,88,49968,5,0,0:0:0:0:
336,88,50134,2,0,P|380:176|420:204,1,120.000004577637
312,308,50467,2,0,P|216:216|208:212,1,120.000004577637
288,144,50799,2,0,P|192:72|184:56,1,120.000004577637
176,96,51297,6,0,L|360:192,1,160
344,112,51630,2,0,L|376:296,1,160
448,216,51962,2,0,L|320:336,1,160
336,296,52294,2,0,L|168:232,1,160
240,152,52626,1,0,0:0:0:0:
80,136,52793,1,8,0:0:0:0:
152,336,52959,1,0,0:0:0:0:
32,120,53125,1,0,0:0:0:0:
192,336,53291,1,4,0:0:0:0:
256,192,53457,12,0,55949,0:0:0:0:
416,208,56281,6,0,P|344:112|264:112,1,160,2|0,0:0|0:0,0:0:0:0:
120,160,56614,1,0,0:0:0:0:
264,336,56780,1,0,0:0:0:0:
320,168,56946,2,0,P|384:112|480:104,1,160,8|0,0:0|0:0,0:0:0:0:
456,272,57278,5,0,0:0:0:0:
320,88,57444,1,0,0:0:0:0:
280,304,57611,2,0,P|152:208|136:152,1,160,8|0,0:0|0:0,0:0:0:0:
320,88,57943,5,0,0:0:0:0:
192,336,58109,2,0,P|64:192|40:184,1,160
192,48,58441,1,8,0:0:0:0:
288,216,58607,1,0,0:0:0:0:
440,236,58774,5,8,0:0:0:0:
440,236,58940,1,8,0:0:0:0:
440,236,59106,2,0,P|304:212|224:220,1,160
132,272,59438,1,0,0:0:0:0:
132,272,59604,2,0,P|84:112|68:88,1,160
312,64,59937,5,0,0:0:0:0:
260,256,60103,1,0,0:0:0:0:
392,160,60269,2,0,P|424:272|368:312,1,160
179,245,60601,6,0,L|59:101,1,160
256,136,60933,1,0,0:0:0:0:
92,340,61099,1,0,0:0:0:0:
24,208,61266,2,0,L|224:256,1,160
464,216,61598,6,0,P|360:152|304:88,1,160
248,56,61930,2,0,P|184:184|136:224,1,160
60,236,62262,5,8,0:0:0:0:
64,240,62595,1,8,0:0:0:0:
64,240,62927,2,0,P|208:200|296:200,1,160,8|0,0:0|0:0,0:0:0:0:
384,80,63259,5,2,0:0:0:0:
456,316,63425,2,0,L|304:196,1,160
52,152,63758,5,2,0:0:0:0:
232,88,63924,2,0,L|144:272,1,160
456,136,64256,6,0,P|304:128|256:168,1,160,4|0,0:0|0:0,0:0:0:0:
336,288,64588,2,0,L|408:312,2,40
168,176,64921,2,0,L|112:208,2,40
240,328,65253,2,0,P|312:216|272:136,1,160,4|0,0:0|0:0,0:0:0:0:
384,128,66914,5,0,0:0:0:0:
