osu file format v14

[General]
AudioFilename: audio.mp3
AudioLeadIn: 0
PreviewTime: 4848
Countdown: 0
SampleSet: Normal
StackLeniency: 0.7
Mode: 0
LetterboxInBreaks: 0
WidescreenStoryboard: 0

[Editor]
DistanceSpacing: 0.7
BeatDivisor: 4
GridSize: 8
TimelineZoom: 1

[Metadata]
Title:Pingu Theme Trap Remix
TitleUnicode:Pingu Theme Trap Remix
Artist:Holder
ArtistUnicode:Holder
Creator:Senzzen
Version:NOOT NOOT
Source:
Tags:
BeatmapID:1119898
BeatmapSetID:527927

[Difficulty]
HPDrainRate:6.5
CircleSize:4.5
OverallDifficulty:8
ApproachRate:9.3
SliderMultiplier:1.5
SliderTickRate:1

[Events]
//Background and Video events
0,0,"osu wallpaper.png",0,0
//Break Periods
//Storyboard Layer 0 (Background)
//Storyboard Layer 1 (Fail)
//Storyboard Layer 2 (Pass)
//Storyboard Layer 3 (Foreground)
//Storyboard Sound Samples

[TimingPoints]
0,303.030303030303,4,1,0,100,1,0
2196,-100,4,1,0,10,0,0
2272,-100,4,1,0,100,0,0
2348,-100,4,1,0,10,0,0
2424,-100,4,1,0,100,0,0

[Colours]
Combo1 : 0,64,64
Combo2 : 0,0,160
Combo3 : 0,191,191
Combo4 : 0,0,64
Combo5 : 64,0,64

[HitObjects]
156,316,0,6,0,L|99:177,1,150
141,74,454,1,0,0:0:0:0:
214,154,606,1,0,0:0:0:0:
356,316,1212,6,0,L|413:177,1,150
371,74,1666,1,0,0:0:0:0:
298,154,1818,1,0,0:0:0:0:
74,166,2121,6,0,L|53:126,1,37.5
92,193,2272,2,0,L|109:231,1,37.5
109,160,2424,2,0,L|248:103,1,150
352,146,2878,1,0,0:0:0:0:
271,218,3030,1,0,0:0:0:0:
126,83,3333,5,0,0:0:0:0:
352,239,3484,1,0,0:0:0:0:
167,42,3636,1,0,0:0:0:0:
167,42,3939,1,0,0:0:0:0:
204,67,4242,5,0,0:0:0:0:
218,78,4318,1,0,0:0:0:0:
232,88,4393,1,0,0:0:0:0:
246,99,4469,1,0,0:0:0:0:
261,109,4545,2,0,P|279:154|264:202,1,75
180,224,4848,6,0,P|162:179|177:131,1,75
286,24,5151,1,0,0:0:0:0:
149,132,5303,1,0,0:0:0:0:
223,4,5454,2,0,P|187:30|158:68,1,75
191,207,5757,2,0,P|227:181|256:143,1,75
383,60,6060,5,0,0:0:0:0:
383,60,6212,1,0,0:0:0:0:
239,37,6363,2,0,P|196:59|176:106,1,75
355,123,6666,2,0,P|389:110|431:69,1,75
228,136,6968,1,0,0:0:0:0:
301,38,7120,1,0,0:0:0:0:
328,189,7272,6,0,P|308:228|270:260,1,75
148,354,7574,1,0,0:0:0:0:
53,222,7726,1,0,0:0:0:0:
164,343,7877,1,0,0:0:0:0:
141,167,8029,1,0,0:0:0:0:
172,345,8181,6,0,P|215:339|258:314,1,75
387,241,8483,1,0,0:0:0:0:
240,164,8635,1,0,0:0:0:0:
243,328,8786,1,0,0:0:0:0:
387,241,8938,1,0,0:0:0:0:
194,233,9090,6,0,L|109:258,1,75
308,145,9393,2,0,L|396:169,1,75
380,164,9620,1,0,0:0:0:0:
380,164,9695,5,0,0:0:0:0:
512,213,9847,1,0,0:0:0:0:
368,249,9999,2,0,P|325:237|280:198,1,75
158,118,10303,1,0,0:0:0:0:
276,99,10454,1,0,0:0:0:0:
138,226,10606,2,0,P|95:255|59:261,1,75
238,275,10909,5,0,0:0:0:0:
74,151,11060,1,0,0:0:0:0:
211,58,11212,2,0,P|255:44|312:64,1,75
181,166,11515,2,0,P|146:179|109:176,1,75
240,247,11818,1,0,0:0:0:0:
102,101,11969,1,0,0:0:0:0:
34,216,12121,6,0,P|47:251|105:286,1,75
182,345,12424,1,0,0:0:0:0:
331,225,12575,1,0,0:0:0:0:
288,308,12727,1,0,0:0:0:0:
290,138,12878,1,0,0:0:0:0:
440,225,13030,6,0,P|427:260|369:295,1,75
292,354,13333,1,0,0:0:0:0:
69,72,13636,1,0,0:0:0:0:
163,191,13939,2,0,P|190:217|177:196,1,150
397,251,14545,6,0,B|422:208|422:208|408:152|408:152|349:117,1,150
306,203,14999,1,0,0:0:0:0:
434,335,15151,2,0,B|464:307|464:307|476:251|484:257,1,75
406,135,15454,2,0,B|376:163|376:163|364:219|356:213,1,75
395,332,15757,1,0,0:0:0:0:
395,332,16060,5,0,0:0:0:0:
191,261,16212,1,0,0:0:0:0:
391,186,16363,2,0,L|417:148,2,37.5
191,261,16666,1,0,0:0:0:0:
206,69,16818,1,0,0:0:0:0:
328,75,16969,6,0,B|379:108|379:108|389:167,1,112.5
385,188,17272,1,0,0:0:0:0:
345,330,17424,1,0,0:0:0:0:
201,292,17575,1,0,0:0:0:0:
241,149,17727,1,0,0:0:0:0:
333,290,17878,2,0,B|303:318|303:318|246:319,1,75
136,222,18181,6,0,B|169:189|169:189|234:187|234:187|282:234,1,150
198,272,18636,1,0,0:0:0:0:
51,340,18787,2,0,B|88:355|88:355|156:352,1,75
280,241,19090,2,0,B|243:226|243:226|175:229,1,75
82,293,19393,6,0,B|40:279|40:279|28:205|28:205|40:187,1,112.5
29,197,19696,1,0,0:0:0:0:
225,41,19848,1,0,0:0:0:0:
244,42,20151,1,0,0:0:0:0:
443,182,20303,2,0,B|454:219|454:219|430:260,1,75
426,266,20530,1,0,0:0:0:0:
415,281,20606,6,0,B|383:303|383:303|337:295,1,75
161,229,20909,1,0,0:0:0:0:
397,161,21060,1,0,0:0:0:0:
301,335,21212,2,0,L|297:373,2,37.5
285,137,21515,1,0,0:0:0:0:
203,266,21666,1,0,0:0:0:0:
424,264,21818,6,0,B|454:227|454:227|454:166|454:166|426:129,1,150
414,120,22196,1,0,0:0:0:0:
400,107,22272,2,0,B|356:94|356:94|295:102,1,75
134,162,22575,1,0,0:0:0:0:
331,248,22727,2,0,B|374:255|374:255|419:221,1,75
410,221,22954,1,0,0:0:0:0:
419,204,23030,6,0,L|420:115,1,75
349,304,23333,1,0,0:0:0:0:
293,179,23484,2,0,L|294:90,1,75
223,279,23787,1,0,0:0:0:0:
160,142,23939,2,0,L|161:53,1,75
90,242,24242,6,0,B|106:286|106:286|161:312|161:312|211:288,1,150
174,219,24696,1,0,0:0:0:0:
216,356,24848,2,0,B|242:351|242:351|270:312,1,75
169,205,25151,2,0,B|143:210|143:210|115:249,1,75
49,355,25454,1,0,0:0:0:0:
49,355,25757,5,0,0:0:0:0:
114,146,25909,1,0,0:0:0:0:
246,308,26060,2,0,L|299:313,2,37.5
194,118,26363,1,0,0:0:0:0:
37,199,26515,1,0,0:0:0:0:
101,338,26666,6,0,B|173:344|173:344|222:306,1,112.5
217,305,26969,1,0,0:0:0:0:
304,132,27121,1,0,0:0:0:0:
372,245,27272,1,0,0:0:0:0:
158,150,27424,1,0,0:0:0:0:
312,90,27575,2,0,B|336:121|336:121|320:184,1,75
199,261,27878,6,0,B|149:237|149:237|140:191|140:191|181:126,1,150
239,190,28333,1,0,0:0:0:0:
366,273,28484,2,0,B|407:245|407:245|423:198,1,75
410,59,28787,2,0,B|369:87|369:87|353:134,1,75
484,219,29090,6,0,B|498:265|498:265|468:308|468:308|383:300,1,150
414,232,29545,2,0,B|366:226|366:226|329:263|329:263|351:345,1,150
294,174,29999,1,0,0:0:0:0:
463,209,30151,1,0,0:0:0:0:
341,325,30303,6,0,B|309:357|309:357|251:320|251:320|237:263,1,150
306,258,30757,2,0,B|309:212|309:212|244:192|244:192|191:218,1,150
94,291,31212,1,0,0:0:0:0:
243,352,31363,1,0,0:0:0:0:
151,178,31515,6,0,L|138:69,2,100
189,342,32121,1,0,0:0:0:0:
72,282,32272,1,0,0:0:0:0:
255,175,32424,2,0,B|272:213|272:213|269:263,1,75
269,265,32651,1,0,0:0:0:0:
269,283,32727,6,0,B|276:332|276:332|310:294,1,75
389,134,33030,1,0,0:0:0:0:
401,274,33181,1,0,0:0:0:0:
273,118,33333,2,0,B|239:150|239:150|239:207|239:207|296:252,1,150
256,192,33939,12,0,35151,0:0:0:0:
