osu file format v14

[General]
AudioFilename: audio.mp3
AudioLeadIn: 0
PreviewTime: 41494
Countdown: 0
SampleSet: Soft
StackLeniency: 0.6
Mode: 0
LetterboxInBreaks: 0
WidescreenStoryboard: 1

[Editor]
Bookmarks: 74137,106352,132124,164338,170781
DistanceSpacing: 1
BeatDivisor: 4
GridSize: 16
TimelineZoom: 1.9

[Metadata]
Title:Emil / Despair (Cut Ver.)
TitleUnicode:エミール/絶望 (Cut Ver.)
Artist:Hoashi Keigo, Ishihama Kakeru
ArtistUnicode:帆足圭吾・石濱 翔
Creator:Ryuusei Aika
Version:pocket's Insane
Source:NieR:Automata
Tags:gokugohan12468 kittyadventure addy2607 kaedeharakazuha paradogi pocket- l1ght_u -hitomi zetsubou female vocal video game original soundtrack ost instrumental constructed language conlang classical square enix ニーア オートマタ Final Fantasy XIV: Shadowbringers ファイナルファンタジーXIV: 漆黒の反逆者 YoRHa: Dark Apocalypse ヨルハ:ダークアポカリプス
BeatmapID:3447004
BeatmapSetID:1589015

[Difficulty]
HPDrainRate:5
CircleSize:4
OverallDifficulty:6
ApproachRate:9
SliderMultiplier:2.2
SliderTickRate:1

[Events]
//Background and Video events
0,0,"BG.jpg",0,0
//Break Periods
//Storyboard Layer 0 (Background)
//Storyboard Layer 1 (Fail)
//Storyboard Layer 2 (Pass)
//Storyboard Layer 3 (Foreground)
//Storyboard Layer 4 (Overlay)
//Storyboard Sound Samples

[TimingPoints]
-3178,402.684563758389,4,2,1,60,1,0
2459,-66.6666666666667,4,2,1,35,0,0
2526,-66.6666666666667,4,2,1,5,0,0
2593,-66.6666666666667,4,2,1,10,0,0
2728,-66.6666666666667,4,2,1,15,0,0
2862,-66.6666666666667,4,2,1,20,0,0
2929,-66.6666666666667,4,2,1,25,0,0
2996,-66.6666666666667,4,2,1,30,0,0
3063,-66.6666666666667,4,2,1,35,0,0
3130,-66.6666666666667,4,2,1,40,0,0
3197,-66.6666666666667,4,2,1,45,0,0
3264,-50,4,2,1,50,0,1
3466,-50,4,2,1,50,0,0
3667,-133.333333333333,4,2,1,40,0,0
3969,-133.333333333333,4,2,1,5,0,0
4070,-100,4,2,1,40,0,0
4372,-100,4,2,1,5,0,0
4473,-100,4,2,1,40,0,0
4875,-200,4,2,1,40,0,0
6486,-80,4,2,1,40,0,1
7694,-500,4,2,1,40,0,0
9607,-500,4,2,1,5,0,0
9707,-50,4,2,1,50,0,0
9909,-50,4,2,1,5,0,0
10110,-100,4,2,1,50,0,0
11117,-66.6666666666667,4,2,1,50,0,0
11419,-66.6666666666667,4,2,1,5,0,0
11721,-100,4,2,1,50,0,0
12728,-66.6666666666667,4,2,1,50,0,0
13030,-66.6666666666667,4,2,1,5,0,0
13332,-66.6666666666667,4,2,1,50,0,0
13734,-100,4,2,1,50,0,0
14338,-66.6666666666667,4,2,1,50,0,0
14540,-100,4,2,1,50,0,0
14842,-100,4,2,1,5,0,0
14942,-200,4,2,1,50,0,0
15345,-100,4,2,1,50,0,0
16150,-100,4,2,1,60,0,0
19372,-200,4,2,1,60,0,0
22191,-100,4,2,1,60,0,0
24204,-133.333333333333,4,2,1,60,0,0
25815,-200,4,2,1,60,0,0
28634,-100,4,2,1,60,0,0
32258,-200,4,2,1,60,0,0
35077,-100,4,2,1,60,0,0
39506,-133.333333333333,4,2,1,60,0,0
40311,-200,4,2,1,60,0,0
41922,-100,4,2,1,70,0,0
45546,-80,4,2,1,70,0,0
45949,-100,4,2,1,70,0,0
46352,-80,4,2,1,70,0,0
47157,-100,4,2,1,70,0,0
47560,-181.818181818182,4,2,1,70,0,0
48365,-100,4,2,1,70,0,0
50781,-200,4,2,1,70,0,0
51587,-100,4,2,1,70,0,0
52392,-80,4,2,1,70,0,0
54003,-66.6666666666667,4,2,1,70,0,0
55211,-80,4,2,1,70,0,0
56419,-100,4,2,1,70,0,0
59238,-80,4,2,1,70,0,0
60043,-100,4,2,1,70,0,0
60446,-200,4,2,1,70,0,0
61251,-100,4,2,1,70,0,0
62056,-80,4,2,1,70,0,0
64473,-100,4,2,1,70,0,0
65681,-80,4,2,1,70,0,0
66889,-200,4,2,1,70,0,0
67694,-100,4,2,1,70,0,0
68499,-80,4,2,1,70,0,0
70915,-100,4,2,1,70,0,0
72124,-80,4,2,1,70,0,0
73332,-200,4,2,1,70,0,0
74137,-500,4,2,1,70,0,0
79775,-100,4,2,1,70,0,0
80077,-125,4,2,1,70,0,0
80580,-200,4,2,1,50,0,0
84607,-125,4,2,1,50,0,0
85412,-200,4,2,1,50,0,0
104741,-125,4,2,1,50,0,0
106352,-200,4,2,1,55,0,0
112593,-125,4,2,1,55,0,0
112795,-200,4,2,1,55,0,0
119036,-125,4,2,1,55,0,0
119238,-125,4,2,1,60,0,0
130513,-200,4,2,1,60,0,0
132124,-100,4,2,1,70,0,1
132828,-100,4,2,1,70,0,1
132929,-125,4,2,1,70,0,1
135345,-100,4,2,1,70,0,1
136150,-200,4,2,1,70,0,1
137358,-125,4,2,1,70,0,1
138566,-100,4,2,1,70,0,1
139271,-100,4,2,1,70,0,1
139372,-200,4,2,1,70,0,1
140077,-200,4,2,1,70,0,1
140177,-125,4,2,1,70,0,1
140479,-125,4,2,1,70,0,1
140580,-100,4,2,1,70,0,1
140882,-100,4,2,1,70,0,1
140983,-100,4,2,1,70,0,1
141788,-125,4,2,1,70,0,1
142593,-100,4,2,1,70,0,1
144204,-80,4,2,1,70,0,1
144909,-80,4,2,1,70,0,1
145009,-80,4,2,1,70,0,1
145714,-80,4,2,1,70,0,1
145815,-125,4,2,1,70,0,1
148231,-100,4,2,1,70,0,1
148936,-100,4,2,1,70,0,1
149036,-125,4,2,1,70,0,1
149439,-100,4,2,1,70,0,1
149741,-100,4,2,1,70,0,1
149842,-100,4,2,1,70,0,1
150144,-100,4,2,1,70,0,1
150244,-125,4,2,1,70,0,1
150546,-125,4,2,1,70,0,1
150647,-125,4,2,1,70,0,1
152157,-125,4,2,1,70,0,1
152258,-125,4,2,1,70,0,1
152560,-125,4,2,1,70,0,1
152660,-100,4,2,1,70,0,1
152962,-100,4,2,1,70,0,1
153063,-100,4,2,1,70,0,1
154674,-125,4,2,1,70,0,1
155077,-125,4,2,1,70,0,1
155379,-125,4,2,1,70,0,1
155479,-100,4,2,1,70,0,1
157090,-125,4,2,1,70,0,1
157895,-100,4,2,1,70,0,1
158197,-100,4,2,1,70,0,1
158298,-100,4,2,1,70,0,1
158600,-100,4,2,1,70,0,1
158701,-100,4,2,1,70,0,1
159103,-80,4,2,1,70,0,1
159707,-100,4,2,1,70,0,1
159909,-125,4,2,1,70,0,1
161419,-125,4,2,1,70,0,1
161519,-100,4,2,1,70,0,1
161821,-100,4,2,1,70,0,1
161922,-80,4,2,1,70,0,1
162929,-100,4,2,1,70,0,1
163533,-66.6666666666667,4,2,1,70,0,1
164338,-500,4,2,1,50,0,0
169976,-100,4,2,1,50,0,0
170278,-125,4,2,1,50,0,0
170781,-66.6666666666667,4,2,1,50,0,0

[Colours]
Combo1 : 159,0,0
Combo2 : 192,192,192
Combo3 : 128,128,128
Combo4 : 255,0,0

[HitObjects]
79,280,2459,6,0,P|83:252|81:217,11,55.0000020980836,0|0|0|0|0|0|2|2|2|2|2|2,0:0|0:0|0:0|0:0|0:0|0:0|0:0|0:0|0:0|0:0|0:0|0:0,0:0:0:0:
79,280,3264,22,0,B|76:209|27:142|27:142|62:137|96:149,1,220,4|0,1:0|0:0,0:0:0:0:
225,291,3667,22,0,P|271:328|343:314,1,123.750004720688
390,376,4070,2,0,P|375:294|378:212,1,165
289,233,4473,1,2,0:0:0:0:
293,250,4674,1,2,0:0:0:0:
459,314,4875,6,0,L|515:325,2,55,2|0|0,0:0|0:0|0:0,0:0:0:0:
378,212,5479,1,0,0:0:0:0:
459,314,5681,37,2,0:0:0:0:
463,331,5882,1,2,0:0:0:0:
390,376,6083,1,2,0:0:0:0:
225,291,6285,1,2,0:0:0:0:
187,57,6486,22,0,B|164:-3|78:-18|30:72|55:199|156:288|276:288|368:188|320:83|225:41|73:82|-3:252|-3:252|-14:214|13:179,1,825,4|0,1:2|0:0,0:0:0:0:
0,203,8097,22,0,B|-7:249|23:295|6:269|37:316|27:371,1,165,2|0,0:0|0:0,0:0:0:0:
28,363,9707,6,0,B|-3:335|15:296|15:296|71:266|136:300|125:383,1,220,12|0,3:0|0:0,0:0:0:0:
125,349,10110,37,8,3:2:0:0:
108,345,10311,1,2,0:0:0:0:
172,257,10513,2,0,P|186:205|177:127,1,110,10|0,0:0|0:0,0:0:0:0:
257,122,10815,2,0,P|290:165|309:216,1,110,8|0,0:0|0:0,0:0:0:0:
331,309,11117,2,0,P|295:296|239:288,1,82.5000031471254,8|0,0:0|1:0,0:0:0:0:
103,175,11318,6,0,L|89:93,1,82.5000031471254,4|0,3:0|0:0,0:0:0:0:
90,94,11721,37,8,3:2:0:0:
73,90,11922,1,2,0:0:0:0:
211,3,12124,2,0,P|264:11|303:49,1,110,10|0,0:0|0:0,0:0:0:0:
452,134,12426,2,0,P|486:91|488:37,1,110,8|0,0:0|0:0,0:0:0:0:
412,19,12728,2,0,P|387:51|383:92,1,82.5000031471254,8|0,0:0|1:0,0:0:0:0:
257,122,12929,6,0,L|271:204,1,82.5000031471254,4|0,3:0|0:0,0:0:0:0:
270,203,13332,37,8,3:2:0:0:
277,223,13533,1,2,0:0:0:0:
374,323,13734,2,0,P|428:328|478:351,1,110,10|0,0:0|0:0,0:0:0:0:
507,257,14036,2,0,P|452:251|402:228,1,110,8|0,0:0|0:0,0:0:0:0:
299,314,14338,2,0,P|308:362|334:387,1,82.5000031471254,8|0,0:0|1:0,0:0:0:0:
507,257,14540,6,0,B|498:207|453:187|476:212|400:185|405:129,1,165,4|0,3:0|0:0,0:0:0:0:
410,142,14942,2,0,L|419:103,1,27.5,2|2,3:2|0:0,0:0:0:0:
486,76,15144,2,0,L|495:37,1,27.5,2|2,0:0|0:0,0:0:0:0:
332,0,15345,38,0,B|311:36|311:36|331:101,1,110,10|0,0:0|0:0,0:0:0:0:
246,156,15647,1,0,0:0:0:0:
246,156,15748,2,0,B|258:132|258:132|247:94,1,55,2|0,1:2|0:0,0:0:0:0:
250,104,15949,1,0,1:0:0:0:
1,74,16150,6,0,P|122:188|94:23,1,440,12|8,3:0|0:0,0:0:0:0:
40,164,17257,1,8,0:0:0:0:
40,164,17358,1,0,0:0:0:0:
115,139,17559,1,8,0:0:0:0:
206,352,17761,2,0,P|185:58|15:300,1,770,4|8,3:0|0:0,0:0:0:0:
19,295,19372,38,0,L|30:356,1,55,12|2,3:0|0:0,0:0:0:0:
117,270,19775,2,0,L|106:331,1,55,2|2,3:2|0:0,0:0:0:0:
321,379,20177,2,0,L|407:361,2,82.5,10|2|8,0:0|0:0|0:0,0:0:0:0:
9,308,20983,6,0,L|20:369,1,55,12|2,3:0|0:0,0:0:0:0:
125,277,21386,2,0,L|114:338,1,55,2|2,3:2|0:0,0:0:0:0:
312,370,21788,2,0,L|386:354,1,55,10|2,0:0|0:0,0:0:0:0:
444,384,22090,1,2,0:0:0:0:
443,384,22191,2,0,P|465:336|456:277,1,110,10|8,0:0|0:0,0:0:0:0:
490,120,22593,38,0,P|474:247|428:60,1,660,12|10,3:0|0:0,0:0:0:0:
486,117,24003,1,8,0:0:0:0:
463,202,24204,2,0,P|306:144|127:123,1,330.000012588501,12|10,3:0|0:0,0:0:0:0:
310,111,25311,1,2,0:0:0:0:
310,111,25412,1,10,0:0:0:0:
359,204,25613,1,8,0:0:0:0:
320,274,25815,6,0,L|251:261,1,55,12|2,3:0|0:0,0:0:0:0:
185,359,26217,2,0,L|239:348,1,55,2|2,3:2|0:0,0:0:0:0:
95,208,26620,2,0,L|79:297,2,82.5,10|2|8,0:0|0:0|0:0,0:0:0:0:
313,282,27426,38,0,L|244:269,1,55,12|2,3:0|0:0,0:0:0:0:
178,367,27828,2,0,L|232:356,1,55,2|2,3:2|0:0,0:0:0:0:
101,218,28231,2,0,L|88:289,1,55,10|2,0:0|0:0,0:0:0:0:
26,317,28533,1,2,0:0:0:0:
26,317,28634,2,0,P|7:285|6:212,1,110,10|8,0:0|0:0,0:0:0:0:
7,84,29036,6,0,P|119:256|318:203,1,440,12|10,3:0|0:0,0:0:0:0:
201,155,30144,1,2,0:0:0:0:
201,155,30244,1,10,0:0:0:0:
180,78,30446,1,8,0:0:0:0:
348,19,30647,38,0,P|355:310|179:78,1,770,12|8,3:0|0:0,0:0:0:0:
362,149,32258,6,0,L|348:214,1,55,12|2,3:0|0:0,0:0:0:0:
260,70,32660,2,0,L|271:123,1,55,2|2,3:2|0:0,0:0:0:0:
506,32,33063,2,0,L|425:16,2,82.5,10|2|8,0:0|0:0|0:0,0:0:0:0:
371,161,33868,38,0,L|357:226,1,55,12|2,3:0|0:0,0:0:0:0:
269,82,34270,2,0,L|280:135,1,55,2|2,3:2|0:0,0:0:0:0:
512,44,34674,2,0,L|446:31,1,55,10|2,0:0|0:0,0:0:0:0:
390,1,34976,1,2,0:0:0:0:
390,0,35077,2,0,P|370:49|378:106,1,110,10|8,0:0|0:0,0:0:0:0:
511,255,35479,6,0,P|270:302|468:160,1,660,12|10,3:0|0:0,0:0:0:0:
122,250,36989,1,0,1:0:0:0:
122,250,37090,2,0,P|418:273|210:60,1,770,12|8,3:0|0:0,0:0:0:0:
39,223,38701,38,0,P|157:269|103:149,1,330,12|2,3:0|0:0,0:0:0:0:
255,246,39506,6,0,P|352:217|277:149,1,247.500009441376,10|8,0:0|0:0,0:0:0:0:
419,118,40311,38,0,P|411:91|410:64,3,55,12|2|2|2,3:0|0:0|3:2|0:0,0:0:0:0:
510,115,41117,2,0,P|488:174|488:240,1,110,10|10,0:0|0:0,0:0:0:0:
464,248,41620,2,0,L|478:288,2,27.5,0|8|0,0:0|0:0|1:0,0:0:0:0:
419,118,41922,6,0,P|338:116|278:169,1,165,4|0,1:0|0:0,0:0:0:0:
213,210,42325,2,0,P|254:243|309:239,1,110,2|2,3:2|0:0,0:0:0:0:
213,210,42728,2,0,P|233:156|220:19,1,165,2|8,1:2|0:2,0:0:0:0:
153,66,43130,2,0,P|136:115|143:179,1,110,2|0,1:2|1:0,0:0:0:0:
1,279,43533,38,0,P|147:335|47:190,1,440,4|10,3:0|0:0,0:0:0:0:
164,360,44640,1,8,0:0:0:0:
164,360,44741,1,0,1:0:0:0:
90,271,44942,1,0,1:0:0:0:
245,340,45144,6,0,P|322:366|404:366,1,165,4|0,3:0|0:0,0:0:0:0:
463,312,45546,2,0,P|401:286|340:320,1,137.5,2|0,1:2|0:0,0:0:0:0:
245,340,45949,2,0,P|270:255|255:165,1,165,10|8,0:2|0:0,0:0:0:0:
273,99,46352,38,0,P|337:22|437:26,1,206.25,2|2,1:2|1:2,0:0:0:0:
437,26,46754,2,0,P|467:124|471:227,1,206.25,4|0,3:0|0:0,0:0:0:0:
447,304,47157,2,0,P|418:213|365:135,1,165,2|0,3:2|0:0,0:0:0:0:
373,232,47560,2,0,P|362:275|342:316,2,90.7500027694703,10|8|0,0:0|0:0|1:0,0:0:0:0:
437,26,48365,6,0,P|313:133|497:120,1,440,4|8,3:0|0:0,0:0:0:0:
298,25,49473,1,8,0:0:0:0:
298,25,49573,1,0,1:0:0:0:
273,99,49775,1,0,1:0:0:0:
108,161,49976,38,0,P|47:44|176:72,1,330,4|0,3:0|0:0,0:0:0:0:
191,149,50781,2,0,P|181:207|183:243,2,82.5,8|8|0,0:0|0:0|1:0,0:0:0:0:
108,161,51587,6,0,P|200:186|281:233,1,165,4|0,3:0|0:0,0:0:0:0:
311,279,51989,2,0,P|233:291|182:232,1,165,2|0,3:2|0:0,0:0:0:0:
108,161,52392,38,0,P|55:224|60:353,1,206.25,10|8,0:0|0:0,0:0:0:0:
125,364,52795,2,0,P|127:322|29:276,1,137.5,2|0,1:2|1:0,0:0:0:0:
68,52,53197,6,0,P|180:197|1:155,1,481.25,4|0,3:0|0:0,0:0:0:0:
0,152,54003,38,0,P|82:150|157:181,1,165.000006294251,10|0,0:0|0:0,0:0:0:0:
157,181,54305,1,8,0:0:0:0:
157,181,54405,1,2,1:2:0:0:
282,26,54607,1,2,1:2:0:0:
466,110,54808,6,0,P|449:226|337:262,1,247.500009441376,4|0,1:0|0:0,0:0:0:0:
396,140,55211,2,0,P|441:183|517:166,1,137.5,2|2,3:2|0:0,0:0:0:0:
336,261,55613,2,0,P|292:172|341:83,1,206.25,2|8,1:2|0:2,0:0:0:0:
396,140,56016,2,0,P|417:77|355:7,1,137.5,2|0,1:2|1:0,0:0:0:0:
218,124,56419,38,0,P|150:208|311:162,1,440,4|10,3:0|0:0,0:0:0:0:
157,296,57526,1,8,0:0:0:0:
157,296,57627,1,0,1:0:0:0:
132,219,57828,1,0,1:0:0:0:
11,50,58030,6,0,P|70:55|140:139,1,165,4|0,3:0|0:0,0:0:0:0:
102,202,58432,2,0,P|50:214|9:264,1,110,2|0,1:2|0:0,0:0:0:0:
212,370,58835,2,0,P|236:291|236:209,1,165,10|8,0:2|0:0,0:0:0:0:
237,210,59238,38,0,P|341:200|427:259,1,206.25,2|2,1:2|1:2,0:0:0:0:
456,375,59640,2,0,P|425:278|343:220,1,206.25,4|0,3:0|0:0,0:0:0:0:
289,280,60043,2,0,P|314:334|310:406,1,110,2|0,3:2|0:0,0:0:0:0:
493,299,60446,2,0,P|509:251|504:198,2,82.5,10|8|0,0:0|0:0|1:0,0:0:0:0:
490,141,61251,6,0,P|384:256|235:208,1,330,4|0,3:0|0:0,0:0:0:0:
10,132,62056,38,0,P|84:271|427:191,1,550,8|4,0:0|3:0,0:0:0:0:
328,72,63063,1,0,0:0:0:0:
224,30,63264,1,2,3:2:0:0:
140,76,63466,1,0,0:0:0:0:
129,158,63667,5,8,0:0:0:0:
27,190,63969,1,8,0:0:0:0:
27,190,64070,1,2,1:2:0:0:
59,32,64271,1,0,1:0:0:0:
57,114,64473,38,0,P|120:124|220:181,1,165,4|0,3:0|0:0,0:0:0:0:
278,132,64875,2,0,P|286:181|247:239,1,110,2|0,3:2|0:0,0:0:0:0:
27,190,65278,2,0,P|98:231|178:247,1,165,10|8,0:0|0:0,0:0:0:0:
257,231,65681,2,0,P|314:287|220:303,1,206.25,2|0,1:2|1:0,0:0:0:0:
227,313,66083,5,4,3:0:0:0:
342,303,66284,1,2,0:0:0:0:
430,333,66485,1,2,3:2:0:0:
492,380,66687,1,2,0:0:0:0:
438,291,66889,38,0,P|424:253|427:195,2,82.5,2|8|0,1:2|0:2|1:0,0:0:0:0:
347,160,67694,6,0,P|336:32|433:118,1,330,4|0,3:0|0:0,0:0:0:0:
219,24,68499,38,0,P|159:128|365:54,1,550,10|4,0:0|3:0,0:0:0:0:
195,112,69506,1,0,0:0:0:0:
152,221,69707,1,2,1:2:0:0:
188,309,69909,1,0,0:0:0:0:
226,191,70110,5,10,0:2:0:0:
126,66,70412,1,8,0:0:0:0:
126,66,70513,1,2,1:2:0:0:
50,43,70714,1,2,1:2:0:0:
107,145,70915,38,0,P|114:227|86:307,1,165,4|0,3:0|0:0,0:0:0:0:
151,352,71318,2,0,P|105:381|50:373,1,110,2|0,3:2|0:0,0:0:0:0:
31,169,71721,2,0,P|85:221|167:197,1,165,10|8,0:0|0:0,0:0:0:0:
212,135,72124,2,0,P|302:87|404:78,1,206.25,2|0,1:2|1:0,0:0:0:0:
404,78,72526,6,0,P|396:148|403:224,1,137.5,4|0,3:0|0:0,0:0:0:0:
292,121,72929,1,2,0:0:0:0:
329,49,73130,1,0,0:0:0:0:
475,184,73332,38,0,P|479:224|464:268,2,82.5,8|8|0,0:0|0:0|1:0,0:0:0:0:
492,341,74137,6,0,P|267:225|2:278,1,528,4|4,1:0|3:0,0:0:0:0:
6,275,79775,38,0,P|59:287|104:317,1,110,8|2,1:2|1:2,0:0:0:0:
164,172,80077,2,0,P|194:203|214:242,1,88,2|0,1:2|0:0,0:0:0:0:
311,193,80379,2,0,P|307:214|299:235,1,44,0|0,1:0|1:0,0:0:0:0:
354,331,80580,6,0,P|407:336|524:376,1,165,4|0,1:0|0:0,0:0:0:0:
299,235,81385,2,0,P|347:212|443:134,1,165,8|8,0:0|0:0,0:0:0:0:
207,351,82191,2,0,P|247:362|290:382,1,82.5,4|0,3:0|0:0,0:0:0:0:
164,263,82593,2,0,P|197:252|227:232,1,55,0|0,3:0|0:0,0:0:0:0:
23,303,82996,38,0,P|62:310|108:328,2,82.5,8|8|8,0:0|0:0|0:0,0:0:0:0:
0,124,83801,6,0,P|80:142|162:151,1,165,4|0,3:0|0:0,0:0:0:0:
23,303,84607,2,0,P|141:245|269:211,1,264,8|8,0:0|0:0,0:0:0:0:
205,60,85412,2,0,P|257:103|359:152,1,165,4|2,3:0|0:0,0:0:0:0:
369,275,86217,38,0,P|388:235|424:191,2,82.5,10|8|8,0:0|0:0|3:0,0:0:0:0:
481,162,87023,6,0,P|462:81|454:0,1,165,12|0,3:0|0:0,0:0:0:0:
265,157,87828,2,0,P|321:96|368:29,1,165,8|8,0:0|0:0,0:0:0:0:
179,61,88634,2,0,P|214:47|269:39,1,82.5,4|0,3:0|0:0,0:0:0:0:
123,132,89036,2,0,P|155:138|188:156,1,55,2|2,3:2|0:0,0:0:0:0:
4,11,89439,38,0,P|41:47|69:87,2,82.5,10|2|8,0:0|0:0|0:0,0:0:0:0:
123,132,90244,6,0,P|130:209|124:295,1,165,12|2,3:0|0:0,0:0:0:0:
283,249,91050,2,0,P|228:303|176:373,1,165,10|8,0:0|0:0,0:0:0:0:
354,139,91855,38,0,P|306:151|273:168,2,82.5,12|0|2,3:0|0:0|0:0,0:0:0:0:
412,195,92660,5,10,0:0:0:0:
203,122,92962,1,2,0:0:0:0:
34,265,93264,1,8,0:0:0:0:
34,265,93365,1,0,1:0:0:0:
34,265,93466,38,0,P|91:304|152:390,1,165,12|2,3:0|0:0,0:0:0:0:
356,262,94271,2,0,P|279:265|187:310,1,165,10|8,0:0|0:0,0:0:0:0:
122,131,95077,2,0,P|138:175|139:224,1,82.5,12|0,3:0|0:0,0:0:0:0:
262,152,95479,2,0,P|235:171|222:194,1,55,2|2,3:2|0:0,0:0:0:0:
223,4,95882,6,0,P|204:44|195:95,2,82.5,10|2|8,0:0|0:0|0:0,0:0:0:0:
270,123,96687,38,0,P|343:84|424:70,1,165,12|2,3:0|0:0,0:0:0:0:
439,239,97493,2,0,P|467:202|512:82,1,165,10|8,0:0|0:0,0:0:0:0:
333,289,98298,2,0,P|334:241|361:164,1,110,12|2,3:0|3:2,0:0:0:0:
352,181,98902,1,2,0:0:0:0:
434,325,99103,6,0,P|403:343|365:380,2,82.5,10|2|8,0:0|0:0|0:0,0:0:0:0:
266,384,99909,38,0,P|276:328|333:225,1,165,12|0,3:0|0:0,0:0:0:0:
108,306,100714,2,0,P|120:345|144:380,2,82.5,8|8|8,0:0|0:0|0:0,0:0:0:0:
68,171,101519,6,0,P|139:211|196:270,1,165,4|2,3:0|0:0,0:0:0:0:
24,263,102325,2,0,P|19:304|25:345,2,82.5,10|8|8,0:0|0:0|0:0,0:0:0:0:
149,80,103130,38,0,P|82:126|2:131,1,165,12|0,3:0|0:0,0:0:0:0:
272,58,103936,2,0,P|228:28|184:13,2,82.5,8|8|8,0:0|0:0|0:0,0:0:0:0:
422,255,104741,6,0,P|479:224|339:195,1,352,4|10,3:0|0:0,0:0:0:0:
256,293,105848,1,2,0:0:0:0:
256,293,105949,1,10,0:0:0:0:
153,345,106150,2,0,P|117:342|98:333,1,44,8|8,0:0|0:0,0:0:0:0:
77,323,106352,5,4,1:0:0:0:
37,257,106553,1,2,0:0:0:0:
66,151,106754,1,2,3:2:0:0:
183,118,106956,1,2,0:0:0:0:
72,143,107157,54,0,P|65:104|85:48,2,82.5,10|2|8,0:0|0:0|0:0,0:0:0:0:
152,48,107962,53,12,3:0:0:0:
183,118,108163,1,2,0:0:0:0:
286,155,108364,1,2,3:2:0:0:
380,78,108566,1,2,0:0:0:0:
294,149,108768,54,0,P|287:189|297:228,2,82.5,10|2|8,0:0|0:0|0:0,0:0:0:0:
306,62,109573,53,12,3:0:0:0:
380,78,109774,1,2,0:0:0:0:
434,173,109975,1,2,3:2:0:0:
375,279,110177,1,2,0:0:0:0:
430,180,110379,54,0,P|470:173|509:183,2,82.5,10|2|8,0:0|0:0|0:0,0:0:0:0:
411,346,111184,53,12,3:0:0:0:
375,279,111385,1,2,0:0:0:0:
269,253,111586,1,2,3:2:0:0:
183,339,111788,1,2,0:0:0:0:
263,249,111989,53,10,0:0:0:0:
298,104,112291,1,2,0:0:0:0:
298,104,112392,1,10,0:0:0:0:
280,4,112593,2,0,P|302:8|324:21,1,44,8|0,0:0|1:0,0:0:0:0:
346,45,112795,53,12,3:0:0:0:
298,104,112996,1,2,0:0:0:0:
190,111,113197,1,2,3:2:0:0:
120,12,113399,1,2,0:0:0:0:
185,116,113600,54,0,P|145:109|106:119,2,82.5,10|2|8,0:0|0:0|0:0,0:0:0:0:
120,12,114405,53,12,3:0:0:0:
57,54,114606,1,2,0:0:0:0:
40,161,114807,1,2,3:2:0:0:
133,240,115009,1,2,0:0:0:0:
10,350,115211,54,0,P|52:342|113:357,2,82.5,10|2|8,0:0|0:0|0:0,0:0:0:0:
162,384,116016,53,14,3:0:0:0:
88,337,116217,1,2,0:0:0:0:
50,187,116418,1,2,3:2:0:0:
141,36,116620,1,2,0:0:0:0:
43,182,116821,54,0,P|50:222|45:263,2,82.5,10|2|8,0:0|0:0|0:0,0:0:0:0:
65,10,117627,53,14,3:0:0:0:
95,103,117828,1,2,0:0:0:0:
234,156,118029,1,2,3:2:0:0:
374,67,118231,1,2,0:0:0:0:
239,146,118432,53,10,0:0:0:0:
204,267,118734,1,2,0:0:0:0:
204,267,118835,1,10,0:0:0:0:
241,377,119036,2,0,P|251:347|263:329,1,44,8|0,0:0|1:0,0:0:0:0:
292,258,119238,53,4,1:2:0:0:
358,218,119439,1,2,0:0:0:0:
464,247,119640,1,2,3:2:0:0:
497,364,119842,1,2,0:0:0:0:
484,224,120043,54,0,P|475:159|487:95,2,132,10|2|8,0:0|0:0|0:0,0:0:0:0:
292,258,120848,53,12,3:0:0:0:
332,192,121049,1,2,0:0:0:0:
303,86,121250,1,2,3:2:0:0:
186,45,121452,1,2,0:0:0:0:
62,158,121654,54,0,P|125:143|189:159,2,132,10|2|8,0:0|0:0|0:0,0:0:0:0:
27,229,122459,53,12,3:0:0:0:
62,158,122660,1,2,0:0:0:0:
167,124,122861,1,2,3:2:0:0:
258,204,123063,1,2,0:0:0:0:
225,368,123265,54,0,P|241:305|223:233,2,132,10|2|8,0:0|0:0|0:0,0:0:0:0:
245,126,124070,53,12,3:0:0:0:
179,172,124271,1,2,0:0:0:0:
145,277,124472,1,2,3:2:0:0:
225,368,124674,1,2,0:0:0:0:
297,197,124875,53,10,0:0:0:0:
399,104,125177,1,2,0:0:0:0:
399,104,125278,1,10,0:0:0:0:
485,68,125479,2,0,P|501:90|508:114,1,44,8|0,0:0|1:0,0:0:0:0:
512,143,125681,53,12,3:0:0:0:
503,221,125882,1,2,0:0:0:0:
416,289,126083,1,2,3:2:0:0:
303,245,126285,1,2,0:0:0:0:
128,323,126487,54,0,P|191:307|262:325,2,132,10|2|8,0:0|0:0|0:0,0:0:0:0:
128,323,127191,1,0,1:0:0:0:
128,323,127291,53,12,3:0:0:0:
176,261,127492,1,2,0:0:0:0:
163,151,127693,1,2,3:2:0:0:
24,98,127895,1,2,0:0:0:0:
206,37,128097,54,0,P|270:49|334:36,2,132,10|2|8,0:0|0:0|0:0,0:0:0:0:
273,79,128902,53,12,3:0:0:0:
206,37,129103,1,2,0:0:0:0:
98,59,129304,1,2,3:2:0:0:
59,174,129506,1,2,0:0:0:0:
125,317,129707,54,0,P|133:276|125:227,1,88,10|2,0:0|0:0,0:0:0:0:
206,37,130110,2,0,P|198:78|206:127,1,88,10|8,0:0|0:0,0:0:0:0:
312,372,130513,54,0,P|316:344|312:317,3,55,14|2|2|2,3:0|0:0|3:2|0:0,0:0:0:0:
426,275,131318,2,0,P|418:233|432:155,1,110,10|10,0:0|0:0,0:0:0:0:
444,138,131821,2,0,L|469:127,2,27.5,0|8|0,0:0|0:0|1:0,0:0:0:0:
282,183,132124,6,0,B|312:228|382:249|474:167|388:-25|270:3,1,385,4|0,1:0|0:0,0:0:0:0:
353,51,132929,38,0,B|321:-4|233:-13|175:34|147:155|273:211|315:128|284:86,1,352,2|4,1:2|3:0,0:0:0:0:
132,6,134137,2,0,B|103:79|67:62|61:126,1,132,2|0,0:0|0:0,0:0:0:0:
62,115,134540,6,0,P|50:94|34:76,1,44,10|0,0:0|0:0,0:0:0:0:
143,180,134741,2,0,P|143:155|138:132,1,44,2|8,0:0|0:0,0:0:0:0:
17,236,134942,2,0,B|20:212|25:213|28:189,1,44,0|0,1:0|0:0,0:0:0:0:
83,284,135144,2,0,B|96:265|101:270|115:253,1,44,0|0,1:0|0:0,0:0:0:0:
8,350,135345,38,0,B|124:333|57:300|155:266|221:275|221:275|211:338|161:360|161:360|201:364|212:334,1,385,4|0,3:0|0:0,0:0:0:0:
115,254,136150,6,0,B|229:292|178:357|297:387,1,220,10|4,0:2|3:0,0:0:0:0:
414,315,137358,2,0,B|432:331|433:361|433:361|433:310|396:277,1,132,2|0,3:2|0:0,0:0:0:0:
406,287,137761,38,0,B|414:265|423:273|430:246,1,44,10|0,0:0|0:0,0:0:0:0:
353,368,137962,2,0,B|334:382|332:370|312:382,1,44,2|8,0:0|0:0,0:0:0:0:
341,224,138164,2,0,P|323:236|310:254,1,44,2|0,1:2|0:0,0:0:0:0:
196,296,138365,2,0,P|217:290|236:279,1,44,0|0,1:0|1:0,0:0:0:0:
249,196,138566,6,0,B|271:153|273:114|242:73|242:73|220:60|247:60|247:60|308:35|384:86|356:163|449:161,1,385,4|0,3:0|0:0,0:0:0:0:
410,144,139372,38,0,B|427:222|489:173|514:309,1,192.5,8|0,0:0|1:0,0:0:0:0:
512,299,140177,2,0,P|460:281|373:280,1,132,4|0,3:0|0:0,0:0:0:0:
375,280,140580,2,0,P|294:315|236:377,1,165,2|0,3:2|0:0,0:0:0:0:
236,377,140983,6,0,P|242:350|241:322,1,55,8|0,0:0|0:0,0:0:0:0:
234,326,141184,2,0,P|253:344|277:358,1,55,2|8,0:0|0:0,0:0:0:0:
303,264,141385,2,0,P|289:241|282:215,1,55,2|0,1:2|0:0,0:0:0:0:
399,136,141587,2,0,P|392:162|393:190,1,55,0|0,1:0|1:0,0:0:0:0:
489,243,141788,38,0,B|522:212|501:171|501:171|462:200|481:268,1,176,4|2,3:0|3:2,0:0:0:0:
368,54,142593,2,0,B|405:102|360:153|360:153|291:137|295:73,1,220,10|2,0:0|1:2,0:0:0:0:
134,16,143197,1,0,1:0:0:0:
139,32,143298,1,0,1:0:0:0:
143,47,143399,6,0,B|153:40|170:47|170:47|130:74|114:107|123:164|123:164|95:132|101:107,1,220,4|8,3:0|1:2,0:0:0:0:
100,114,144204,38,0,B|99:59|69:29|69:29|77:90|127:155|247:125|247:125|189:120|138:142|133:239,1,481.25,10|2,0:0|1:2,0:0:0:0:
160,283,145009,6,0,P|161:196|75:332,1,481.25,4|0,1:0|0:0,0:0:0:0:
72,331,145815,38,0,B|92:352|74:383|74:383|98:226|132:310|156:159|156:159|135:199|132:231,1,352,2|4,1:2|3:0,0:0:0:0:
239,299,147023,2,0,B|307:356|332:306|375:361,1,132,2|0,0:0|0:0,0:0:0:0:
360,346,147426,6,0,P|367:325|370:303,1,44,10|0,0:0|0:0,0:0:0:0:
450,299,147627,2,0,B|455:291|455:291|445:268|440:234,1,44,2|8,0:0|0:0,0:0:0:0:
345,190,147828,2,0,B|349:198|349:198|374:201|406:213,1,44,0|0,1:0|0:0,0:0:0:0:
491,153,148030,2,0,B|481:152|481:152|466:172|439:194,1,44,0|0,1:0|0:0,0:0:0:0:
345,190,148231,38,0,B|263:159|297:217|348:232|348:232|304:149|350:73|388:52|388:52|359:54|338:82,1,385,4|0,3:0|0:0,0:0:0:0:
316,153,149036,6,0,B|254:138|278:86|216:69,1,132,10|8,0:2|0:0,0:0:0:0:
152,25,149439,2,0,B|70:49|112:120|13:132,1,165,2|2,1:2|1:2,0:0:0:0:
12,110,149842,38,0,P|34:173|35:298,1,165,4|0,3:0|0:0,0:0:0:0:
38,281,150244,2,0,B|33:334|0:375|0:375|-1:345|6:323,1,132,2|0,3:2|0:0,0:0:0:0:
12,328,150647,6,0,P|18:354|31:382,1,44,10|0,0:0|0:0,0:0:0:0:
122,296,150848,2,0,P|125:274|132:253,1,44,2|8,0:0|0:0,0:0:0:0:
252,254,151050,2,0,P|235:268|221:285,1,44,2|0,1:2|0:0,0:0:0:0:
317,312,151251,2,0,P|337:304|359:299,1,44,0|0,1:0|1:0,0:0:0:0:
359,382,151452,38,0,B|354:319|384:265|444:248|444:248|413:228|412:192|412:192|459:161|501:198,1,308,4|0,3:0|0:0,0:0:0:0:
484,185,152258,6,0,P|486:254|502:330,1,132,8|8,0:0|0:0,0:0:0:0:
502,325,152660,2,0,P|435:288|328:257,1,165,0|0,1:0|1:0,0:0:0:0:
273,274,153063,38,0,P|245:290|227:304,1,55,4|0,3:0|0:0,0:0:0:0:
183,205,153264,2,0,P|155:204|128:208,1,55
238,275,153466,2,0,P|215:297|201:316,1,55,2|0,3:2|0:0,0:0:0:0:
77,277,153667,2,0,P|53:290|31:307,1,55
32,320,153868,6,0,P|37:272|30:201,1,110,8|2,0:0|0:0,0:0:0:0:
31,210,154170,1,8,0:0:0:0:
31,210,154271,2,0,P|77:190|95:133,1,110,2|0,1:2|1:0,0:0:0:0:
211,2,154674,38,0,P|189:65|185:144,1,132,4|0,3:0|1:0,0:0:0:0:
193,133,155077,2,0,P|214:70|220:5,1,132,2|0,3:2|0:0,0:0:0:0:
211,2,155479,6,0,B|101:4|118:64|42:60,1,165,10|8,0:0|0:0,0:0:0:0:
183,129,155882,2,0,B|290:150|263:206|339:215,1,165,2|0,1:2|1:0,0:0:0:0:
382,161,156285,38,0,B|391:151|391:151|390:127|400:111,1,55,4|0,3:0|0:0,0:0:0:0:
313,74,156486,2,0,B|325:69|325:69|336:48|354:40,1,55,2|0,0:0|0:0,0:0:0:0:
483,152,156687,2,0,B|481:171|494:191|494:191|492:205,1,55,2|0,3:2|0:0,0:0:0:0:
389,165,156888,2,0,B|398:154|398:154|397:130|407:115,1,55,2|0,0:0|0:0,0:0:0:0:
487,62,157090,6,0,P|469:40|452:29,1,44,2|0,1:2|0:0,0:0:0:0:
449,28,157291,2,0,P|477:23|495:14,1,44,0|8,0:2|0:2,0:0:0:0:
497,12,157493,2,0,P|486:38|485:58,1,44,2|0,1:2|0:0,0:0:0:0:
487,62,157694,2,0,P|469:40|452:29,1,44,0|0,1:0|1:0,0:0:0:0:
414,105,157895,38,0,B|430:180|480:136|500:269,1,165,4|0,3:0|0:0,0:0:0:0:
495,243,158298,2,0,P|434:219|315:206,1,165,2|0,0:0|0:0,0:0:0:0:
260,233,158701,6,0,B|320:201|314:104|261:92|261:170,1,165,10|8,0:0|0:0,0:0:0:0:
142,215,159103,2,0,B|187:225|225:297|190:354|93:336|120:259,1,206.25,0|0,1:0|0:0,0:0:0:0:
116,284,159506,38,0,B|80:305|127:323|91:344,1,68.75,4|0,3:0|0:0,0:0:0:0:
0,249,159707,2,0,B|17:270|-3:274|17:299,1,55
136,184,159909,2,0,B|119:187|127:199|82:211,1,44,2|0,1:2|0:0,0:0:0:0:
68,96,160110,2,0,B|70:113|56:108|57:155,1,44
136,43,160311,6,0,P|131:24|127:-5,1,44,10|0,0:2|0:0,0:0:0:0:
142,33,160513,2,0,P|161:28|190:24,1,44,2|8,0:0|0:0,0:0:0:0:
152,39,160714,2,0,P|157:58|161:87,1,44,2|0,1:2|0:0,0:0:0:0:
146,49,160915,2,0,P|127:54|98:58,1,44,2|2,1:2|1:2,0:0:0:0:
219,0,161117,38,0,B|307:8|272:58|334:76,1,132,4|0,3:0|0:0,0:0:0:0:
371,136,161519,2,0,B|471:110|434:51|497:39,1,165,2|0,3:2|0:0,0:0:0:0:
469,27,161922,6,0,B|441:106|498:170|498:170|511:220,1,206.25,10|8,0:0|0:0,0:0:0:0:
501,299,162325,2,0,P|419:326|435:242,1,206.25,2|0,1:2|1:0,0:0:0:0:
511,220,162728,38,0,B|524:204|519:181|519:181|505:197|510:215,1,68.75,4|0,3:0|0:0,0:0:0:0:
435,242,162929,2,0,P|446:268|451:299,1,55
306,336,163130,2,0,P|315:310|318:282,1,55,2|0,0:0|0:0,0:0:0:0:
187,208,163332,2,0,P|170:229|149:247,1,55
75,126,163533,6,0,B|58:74|58:74|81:93,1,82.5000031471254,8|0,0:0|0:0,0:0:0:0:
54,73,163734,2,0,B|97:105|97:105|66:102,1,82.5000031471254,0|8,0:0|0:0,0:0:0:0:
102,103,163936,2,0,B|47:102|47:102|74:86,1,82.5000031471254,0|0,1:0|0:0,0:0:0:0:
46,107,164137,2,0,B|89:75|89:75|78:104,1,82.5000031471254,0|0,1:0|1:0,0:0:0:0:
88,71,164338,38,0,P|301:136|486:368,1,528,4|4,1:0|3:0,0:0:0:0:
486,368,169976,6,0,P|433:351|379:348,1,110,8|2,1:2|1:2,0:0:0:0:
330,256,170278,2,0,P|281:270|245:299,1,88,2|0,1:2|0:0,0:0:0:0:
186,245,170580,2,0,P|175:269|173:299,1,44,0|0,1:0|1:0,0:0:0:0:
65,346,170781,21,6,1:0:0:0:
