osu file format v14

[General]
AudioFilename: audio.mp3
AudioLeadIn: 0
PreviewTime: 77801
Countdown: 1
SampleSet: Soft
StackLeniency: 0
Mode: 0
LetterboxInBreaks: 0
WidescreenStoryboard: 0

[Editor]
Bookmarks: 23307,59763,77990,132674,150902,169130,205585,223813,278497
DistanceSpacing: 1.8
BeatDivisor: 4
GridSize: 4
TimelineZoom: 1.4

[Metadata]
Title:Bipolar Nightmare
TitleUnicode:双極ノ悪夢
Artist:Hoashi Keigo
ArtistUnicode:帆足圭吾
Creator:Parachute
Version:Extra
Source:NieR: Automata
Tags:SQEX-10591 (MONACA) Square Enix Sony Playstation Original Soundtrack OST HACKING TRACKS Game Videogame Orchestra
BeatmapID:1991499
BeatmapSetID:953821

[Difficulty]
HPDrainRate:6.2
CircleSize:5.2
OverallDifficulty:8.2
ApproachRate:8.2
SliderMultiplier:2
SliderTickRate:2

[Events]
//Background and Video events
0,0,"Nier-Automata-Best-Wallpaper.png",0,0
//Break Periods
//Storyboard Layer 0 (Background)
//Storyboard Layer 1 (Fail)
//Storyboard Layer 2 (Pass)
//Storyboard Layer 3 (Foreground)
//Storyboard Layer 4 (Overlay)
//Storyboard Sound Samples

[TimingPoints]
2801,379.746835443038,6,2,0,62,1,0
2801,-100,6,2,0,42,0,0
5079,-100,6,2,0,62,0,0
77990,379.746835443038,4,2,0,62,1,0
77990,-100,4,2,0,62,0,1
78369,-100,4,2,0,62,0,0
81027,-100,4,2,0,62,0,1
81407,-100,4,2,0,62,0,0
132673,379.746835443038,6,2,0,62,1,0
169128,-250,6,2,0,62,0,0
205584,-100,6,2,0,62,0,0
223812,379.746835443038,4,2,0,62,1,0
223812,-100,4,2,0,62,0,1
278495,-289.017341040462,4,2,0,62,0,1
278685,-200,4,2,0,32,0,1
282672,-200,4,2,0,47,0,1
283052,-100,4,2,0,62,0,0

[Colours]
Combo1 : 255,223,43
Combo2 : 232,232,232
Combo3 : 255,128,255
Combo4 : 11,133,255
Combo5 : 255,101,43
Combo6 : 74,74,74
Combo7 : 255,191,239
Combo8 : 159,159,159

[HitObjects]
256,192,2801,12,0,4699,0:0:0:0:
256,72,5079,6,0,P|82:68|36:131,1,200,4|0,1:0|0:0,0:0:0:0:
256,72,5649,2,0,P|348:40|439:76,1,200,2|0,1:2|0:0,0:0:0:0:
388,268,6218,2,0,B|408:308|372:328|412:368,1,100,2|0,1:2|0:0,0:0:0:0:
256,224,6598,2,0,L|256:328,1,100,2|0,1:2|0:0,0:0:0:0:
124,268,6978,2,0,B|104:308|140:328|100:368,1,100,2|2,1:2|1:2,0:0:0:0:
200,152,7357,6,0,P|144:72|32:20,1,200,2|0,1:2|0:0,0:0:0:0:
312,152,7927,2,0,P|368:72|480:20,1,200,2|0,1:2|0:0,0:0:0:0:
256,24,8497,1,2,1:2:0:0:
136,264,8876,1,2,1:2:0:0:
376,264,9256,1,2,1:2:0:0:
376,264,9446,1,0,1:0:0:0:
256,312,9636,5,2,1:2:0:0:
256,312,9826,1,0,0:0:0:0:
256,312,10016,1,0,0:0:0:0:
144,232,10206,1,2,1:2:0:0:
144,232,10395,1,0,0:0:0:0:
144,232,10585,1,0,0:0:0:0:
184,96,10775,1,2,1:2:0:0:
184,96,10965,1,0,0:0:0:0:
328,96,11155,1,2,1:2:0:0:
328,96,11344,1,0,0:0:0:0:
368,232,11535,1,2,1:2:0:0:
368,232,11725,1,2,0:0:0:0:
400,140,11914,5,2,1:2:0:0:
328,168,12104,1,2,0:0:0:0:
256,192,12294,1,2,0:0:0:0:
112,140,12484,1,2,1:2:0:0:
184,168,12674,1,2,0:0:0:0:
256,192,12864,1,2,0:0:0:0:
296,96,13054,1,2,1:2:0:0:
256,192,13244,1,0,0:0:0:0:
216,96,13433,1,2,1:2:0:0:
256,192,13623,1,0,1:0:0:0:
296,288,13813,1,2,1:2:0:0:
216,288,14003,1,2,1:2:0:0:
216,96,14193,6,0,P|104:92|28:168,1,200,2|0,1:2|0:0,0:0:0:0:
296,95,14763,2,0,P|393:87|472:145,1,200,2|0,1:2|0:0,0:0:0:0:
432,328,15332,2,0,P|376:264|376:220,1,100,2|0,1:2|0:0,0:0:0:0:
256,376,15712,2,0,B|236:324|272:320|256:276,1,100,2|0,1:2|0:0,0:0:0:0:
80,328,16092,2,0,P|136:264|136:220,1,100,2|2,1:2|1:2,0:0:0:0:
56,28,16471,6,0,B|128:120|164:48|220:136,1,200,2|0,1:2|0:0,0:0:0:0:
456,28,17041,2,0,B|384:120|348:48|293:133,1,200,2|0,1:2|0:0,0:0:0:0:
256,24,17611,1,2,1:2:0:0:
376,264,17990,1,2,1:2:0:0:
136,264,18370,1,2,1:2:0:0:
136,264,18560,1,2,1:2:0:0:
316,316,18750,5,2,1:2:0:0:
272,260,18940,1,2,0:0:0:0:
256,192,19130,1,2,0:2:0:0:
196,68,19319,1,2,1:2:0:0:
240,124,19509,1,2,0:0:0:0:
256,192,19699,1,2,0:0:0:0:
196,316,19889,1,2,1:2:0:0:
256,192,20079,1,0,0:0:0:0:
256,360,20269,1,2,1:2:0:0:
300,248,20459,1,0,0:0:0:0:
316,316,20649,1,2,1:2:0:0:
212,248,20838,1,2,1:2:0:0:
368,160,21028,5,2,1:2:0:0:
320,112,21218,1,0,0:2:0:0:
256,88,21408,1,2,0:2:0:0:
144,160,21598,1,2,1:2:0:0:
192,112,21788,1,0,0:2:0:0:
256,88,21978,1,2,0:2:0:0:
188,240,22168,1,2,1:2:0:0:
128,256,22357,1,0,0:0:0:0:
384,256,22547,1,2,1:2:0:0:
324,240,22736,1,0,0:0:0:0:
256,328,22927,1,2,1:2:0:0:
256,248,23117,1,2,1:2:0:0:
72,192,23307,6,0,P|56:104|124:4,1,200,4|0,1:0|0:0,0:0:0:0:
401,12,23876,2,0,P|454:95|440:192,1,200,0|0,1:0|0:0,0:0:0:0:
428,376,24446,1,0,1:0:0:0:
360,300,24636,1,0,0:0:0:0:
152,300,24826,1,0,1:0:0:0:
256,324,25016,1,0,0:0:0:0:
84,376,25206,1,0,1:0:0:0:
256,324,25395,1,0,1:0:0:0:
172,128,25585,6,0,P|81:161|56:253,1,200,0|0,1:0|0:0,0:0:0:0:
340,127,26155,2,0,P|430:161|455:253,1,200,0|0,1:0|0:0,0:0:0:0:
296,84,26725,1,0,1:0:0:0:
256,192,26914,1,0,0:0:0:0:
216,300,27104,1,0,1:0:0:0:
256,192,27294,1,0,0:0:0:0:
216,84,27484,1,0,1:0:0:0:
296,300,27674,1,0,1:0:0:0:
80,192,27864,6,0,P|68:320|152:364,1,200,0|0,1:0|0:0,0:0:0:0:
397,357,28433,2,0,P|459:283|432:192,1,200,0|0,1:0|0:0,0:0:0:0:
156,260,29003,1,0,1:0:0:0:
256,192,29193,1,0,0:0:0:0:
356,260,29383,1,0,1:0:0:0:
256,192,29573,1,0,0:0:0:0:
256,32,29763,1,0,1:0:0:0:
256,32,29952,1,0,1:0:0:0:
100,192,30142,6,0,P|49:135|123:150,1,200,0|0,1:0|0:0,0:0:0:0:
388,150,30712,2,0,P|462:135|412:192,1,200,0|0,1:0|0:0,0:0:0:0:
328,348,31282,1,0,1:1:0:0:
352,264,31471,1,0,0:0:0:0:
184,348,31661,1,0,1:0:0:0:
160,264,31851,1,0,0:0:0:0:
256,376,32041,1,0,1:0:0:0:
256,248,32231,1,0,1:0:0:0:
256,28,32421,6,0,P|160:108|40:128,1,200,0|0,1:0|0:0,0:0:0:0:
422,127,32990,2,0,P|328:95|256:28,1,200,0|0,1:0|0:0,0:0:0:0:
384,280,33560,1,0,1:0:0:0:
300,264,33750,1,0,0:0:0:0:
256,192,33940,1,0,1:0:0:0:
212,264,34130,1,0,0:0:0:0:
128,280,34319,1,0,1:0:0:0:
256,332,34509,1,0,1:0:0:0:
116,176,34699,6,0,P|50:249|64:348,1,200,0|0,1:0|0:0,0:0:0:0:
450,344,35269,2,0,P|460:248|396:176,1,200,0|0,1:0|0:0,0:0:0:0:
212,116,35838,1,0,1:0:0:0:
300,116,36028,1,0,0:0:0:0:
256,192,36218,1,0,1:0:0:0:
256,40,36408,1,0,0:0:0:0:
168,192,36598,1,0,1:0:0:0:
340,192,36788,1,0,1:0:0:0:
212,352,36978,6,0,P|88:320|-8:324,1,200,0|0,1:0|0:0,0:0:0:0:
300,352,37547,2,0,P|424:320|520:324,1,200,0|0,1:0|0:0,0:0:0:0:
256,240,38117,1,0,1:0:0:0:
256,144,38307,1,0,0:0:0:0:
188,192,38497,1,0,1:0:0:0:
324,192,38687,1,0,0:0:0:0:
256,364,38876,1,0,1:0:0:0:
256,364,39066,1,0,1:0:0:0:
188,192,39256,6,0,B|176:112|108:112|115:10,1,200,0|0,1:0|0:0,0:0:0:0:
397,11,39826,2,0,B|404:112|336:112|324:192,1,200,0|0,1:0|0:0,0:0:0:0:
216,24,40395,1,0,1:0:0:0:
296,24,40585,1,0,0:0:0:0:
172,88,40775,1,0,1:0:0:0:
340,88,40965,1,0,0:0:0:0:
128,152,41155,1,0,1:0:0:0:
384,152,41345,1,0,1:0:0:0:
256,368,41535,6,0,B|168:332|128:376|56:336,1,200,4|0,1:0|0:0,0:0:0:0:
256,368,42104,2,0,B|344:332|384:376|456:336,1,200,0|0,1:0|0:0,0:0:0:0:
256,192,42674,1,0,1:0:0:0:
360,216,42864,1,0,0:0:0:0:
152,216,43054,1,0,1:0:0:0:
256,192,43244,1,0,0:0:0:0:
256,20,43434,1,0,1:0:0:0:
256,20,43623,1,0,1:0:0:0:
416,149,43813,6,0,P|408:53|328:0,1,200,0|0,1:0|0:0,0:0:0:0:
95,149,44383,2,0,P|103:53|183:0,1,200,0|0,1:0|0:0,0:0:0:0:
140,244,44952,1,0,1:0:0:0:
256,192,45141,1,0,0:0:0:0:
372,140,45331,1,0,1:0:0:0:
256,192,45521,1,0,0:0:0:0:
140,140,45711,1,0,1:0:0:0:
372,244,45901,1,0,1:0:0:0:
96,192,46092,6,0,P|82:279|177:301,1,200,0|0,1:0|0:0,0:0:0:0:
416,192,46661,2,0,P|430:279|335:301,1,200,0|0,1:0|0:0,0:0:0:0:
120,120,47231,1,0,1:0:0:0:
256,192,47421,1,0,0:0:0:0:
392,120,47611,1,0,1:0:0:0:
256,192,47801,1,0,0:0:0:0:
256,376,47991,1,0,1:0:0:0:
256,376,48180,1,0,1:0:0:0:
29,231,48370,6,0,B|112:256|96:312|178:359,1,200,0|0,1:0|0:0,0:0:0:0:
482,231,48940,2,0,B|400:256|416:312|332:360,1,200,0|0,1:0|0:0,0:0:0:0:
392,192,49509,1,0,1:1:0:0:
300,108,49698,1,0,0:0:0:0:
120,192,49888,1,0,1:0:0:0:
212,108,50079,1,0,0:0:0:0:
256,280,50268,1,0,1:0:0:0:
256,280,50458,1,0,1:0:0:0:
300,108,50649,6,0,P|264:128|212:108,2,100,0|0|0,1:0|0:0|0:0,0:0:0:0:
164,292,51218,2,0,P|254:326|348:292,1,200,0|0,1:0|0:0,0:0:0:0:
256,192,51788,1,0,1:0:0:0:
112,248,51978,1,0,0:0:0:0:
256,192,52168,1,0,1:0:0:0:
400,248,52358,1,0,0:0:0:0:
256,112,52547,1,0,1:0:0:0:
256,112,52737,1,0,1:0:0:0:
206,284,52927,6,0,B|306:284,2,100,0|0|0,1:0|0:0|0:0,0:0:0:0:
356,96,53497,2,0,L|156:96,1,200,0|0,1:0|0:0,0:0:0:0:
256,192,54066,1,0,1:0:0:0:
320,304,54256,1,0,0:0:0:0:
192,304,54446,1,0,1:0:0:0:
328,224,54636,1,0,0:0:0:0:
256,352,54826,1,0,1:0:0:0:
184,224,55016,1,0,1:0:0:0:
348,124,55206,6,0,P|412:64|448:60,2,100,0|0|0,1:0|0:0|0:0,0:0:0:0:
164,124,55775,2,0,P|100:64|64:60,2,100,0|0|0,1:0|0:0|0:0,0:0:0:0:
320,216,56345,1,0,1:0:0:0:
192,344,56535,1,0,0:0:0:0:
320,344,56725,1,0,1:0:0:0:
192,216,56915,1,0,0:0:0:0:
360,280,57104,1,0,1:0:0:0:
152,280,57294,1,0,1:0:0:0:
184,88,57484,6,0,P|120:136|80:140,2,100,0|0|0,1:0|0:0|0:0,0:0:0:0:
410,139,58054,2,0,P|364:123|328:88,2,100,0|0|0,1:0|0:0|0:0,0:0:0:0:
336,192,58623,1,0,1:0:0:0:
176,192,58813,1,0,0:0:0:0:
380,272,59003,1,0,1:0:0:0:
132,272,59193,1,0,0:0:0:0:
412,360,59383,1,0,1:0:0:0:
100,358,59573,1,0,1:0:0:0:
100,358,59668,1,0,1:0:0:0:
100,358,59763,6,0,P|144:264|236:200,1,200,4|0,1:0|0:0,0:0:0:0:
411,25,60332,2,0,P|368:120|276:184,1,200,2|0,1:2|0:0,0:0:0:0:
456,240,60902,2,0,B|420:276|448:292|411:327,1,100,2|0,1:2|0:0,0:0:0:0:
256,384,61282,2,0,L|256:284,1,100,2|0,1:2|0:0,0:0:0:0:
56,240,61661,2,0,B|92:276|64:292|100:327,1,100,2|0,1:2|1:0,0:0:0:0:
32,84,62041,6,0,P|112:28|248:16,1,200,2|0,1:2|0:0,0:0:0:0:
479,83,62611,2,0,P|398:27|300:10,1,200,2|0,1:2|0:0,0:0:0:0:
256,192,63181,1,2,1:2:0:0:
144,384,63560,1,2,1:2:0:0:
368,384,63940,1,2,1:2:0:0:
368,384,64130,1,0,1:0:0:0:
256,356,64320,5,2,1:2:0:0:
256,356,64510,1,0,0:0:0:0:
256,356,64700,1,0,0:0:0:0:
368,276,64890,1,2,1:2:0:0:
368,276,65079,1,0,0:0:0:0:
368,276,65269,1,0,0:0:0:0:
328,140,65459,1,2,1:2:0:0:
328,140,65649,1,0,0:0:0:0:
184,140,65839,1,2,1:2:0:0:
184,140,66028,1,0,0:0:0:0:
144,276,66219,1,2,1:2:0:0:
144,276,66409,1,2,0:0:0:0:
256,356,66598,5,2,1:2:0:0:
212,300,66788,1,2,0:0:0:0:
216,228,66978,1,2,0:0:0:0:
256,28,67168,1,2,1:2:0:0:
300,84,67358,1,2,0:0:0:0:
296,156,67548,1,2,0:0:0:0:
256,288,67738,1,2,1:2:0:0:
256,216,67927,1,0,0:0:0:0:
256,96,68117,1,2,1:2:0:0:
352,192,68307,1,0,1:0:0:0:
160,192,68497,1,2,1:2:0:0:
256,288,68687,1,2,1:2:0:0:
204,40,68877,6,0,P|96:37|64:116,1,200,2|0,1:2|0:0,0:0:0:0:
308,40,69446,2,0,P|416:37|448:116,1,200,2|0,1:2|0:0,0:0:0:0:
424,288,70016,2,0,P|400:344|372:328,1,100,2|0,1:2|0:0,0:0:0:0:
256,192,70396,2,0,B|236:244|272:248|256:292,1,100,2|0,1:2|0:0,0:0:0:0:
88,288,70775,2,0,P|112:344|140:328,1,100,2|0,1:2|1:0,0:0:0:0:
28,72,71155,6,0,B|96:160|124:112|184:192,1,200,2|0,1:2|0:0,0:0:0:0:
484,72,71725,2,0,B|416:160|388:112|328:192,1,200,2|0,1:2|0:0,0:0:0:0:
252,32,72295,1,2,1:2:0:0:
380,260,72674,1,2,1:2:0:0:
132,260,73054,1,2,1:2:0:0:
132,260,73244,1,2,1:2:0:0:
256,236,73434,5,2,1:2:0:0:
312,280,73624,1,2,0:0:0:0:
380,260,73814,1,2,0:2:0:0:
132,260,74003,1,2,1:2:0:0:
200,280,74193,1,2,0:0:0:0:
256,236,74383,1,2,0:0:0:0:
200,104,74573,1,2,1:2:0:0:
256,236,74763,1,0,0:0:0:0:
312,104,74953,1,2,1:2:0:0:
256,236,75143,1,0,0:0:0:0:
136,160,75333,1,2,1:2:0:0:
376,160,75522,1,2,1:2:0:0:
256,236,75712,5,2,1:2:0:0:
312,192,75902,1,0,0:2:0:0:
320,260,76092,1,2,0:2:0:0:
192,124,76282,1,2,1:2:0:0:
200,192,76472,1,0,0:2:0:0:
256,148,76662,1,2,0:2:0:0:
192,260,76852,1,2,1:2:0:0:
256,148,77041,1,0,0:0:0:0:
320,260,77231,1,2,1:2:0:0:
192,260,77420,1,0,0:0:0:0:
320,260,77611,1,2,1:2:0:0:
256,148,77801,1,2,1:2:0:0:
196,348,77990,5,4,1:0:0:0:
66,218,78179,1,0,0:0:0:0:
131,374,78369,1,2,0:0:0:0:
131,191,78559,1,2,0:0:0:0:
66,348,78749,1,0,0:0:0:0:
196,218,78939,1,0,0:0:0:0:
39,283,79129,1,2,1:2:0:0:
222,283,79319,1,0,1:0:0:0:
381,191,79508,1,0,1:0:0:0:
381,374,79698,1,0,0:0:0:0:
446,218,79888,1,2,0:0:0:0:
316,348,80077,1,2,0:0:0:0:
446,348,80267,1,0,0:0:0:0:
316,218,80457,1,0,0:0:0:0:
473,283,80647,1,2,1:2:0:0:
290,283,80838,1,0,1:0:0:0:
290,283,80933,1,0,1:0:0:0:
224,316,81027,5,4,1:0:0:0:
256,192,81218,1,0,0:0:0:0:
380,224,81408,1,2,0:0:0:0:
256,192,81598,1,2,0:0:0:0:
288,68,81787,1,0,0:0:0:0:
256,192,81978,1,0,0:0:0:0:
132,160,82168,1,2,1:2:0:0:
256,192,82357,1,0,1:0:0:0:
380,160,82546,1,0,1:0:0:0:
256,192,82736,1,0,0:0:0:0:
224,68,82927,1,2,0:2:0:0:
256,192,83116,1,2,0:0:0:0:
132,224,83306,1,0,0:0:0:0:
256,192,83496,1,0,0:0:0:0:
288,316,83686,1,2,1:2:0:0:
256,192,83876,1,0,1:0:0:0:
256,192,83971,1,0,1:0:0:0:
320,192,84066,5,4,1:0:0:0:
388,296,84256,1,0,0:0:0:0:
256,256,84446,1,2,0:0:0:0:
124,296,84636,1,2,0:0:0:0:
192,192,84825,1,0,0:0:0:0:
160,80,85015,1,0,0:0:0:0:
256,12,85205,1,2,1:2:0:0:
352,80,85395,1,0,0:0:0:0:
320,192,85584,5,0,1:0:0:0:
188,260,85774,1,0,0:0:0:0:
348,328,85965,1,2,0:0:0:0:
164,328,86155,1,2,0:0:0:0:
324,260,86345,1,0,0:0:0:0:
192,192,86535,1,0,0:0:0:0:
360,104,86725,1,2,1:2:0:0:
152,104,86914,1,0,1:0:0:0:
152,104,87008,1,0,1:0:0:0:
104,60,87103,5,4,1:0:0:0:
12,128,87292,1,0,0:0:0:0:
12,256,87482,1,2,0:0:0:0:
104,324,87672,1,2,0:0:0:0:
76,192,87862,1,0,0:0:0:0:
192,180,88051,1,0,0:0:0:0:
320,204,88242,1,2,1:2:0:0:
436,192,88432,1,0,1:2:0:0:
408,60,88621,1,0,1:0:0:0:
500,128,88810,1,0,0:0:0:0:
500,256,89001,1,2,0:0:0:0:
408,324,89190,1,2,0:0:0:0:
360,172,89380,1,0,0:0:0:0:
288,280,89569,1,0,0:0:0:0:
224,104,89761,1,2,1:2:0:0:
152,212,89950,1,0,1:0:0:0:
152,212,90046,1,0,1:0:0:0:
176,192,90140,5,4,1:0:0:0:
256,112,90331,1,0,0:0:0:0:
336,192,90521,1,2,0:0:0:0:
256,272,90711,1,2,0:0:0:0:
136,192,90900,1,0,0:0:0:0:
256,312,91091,1,0,0:0:0:0:
376,192,91281,1,2,1:2:0:0:
256,72,91470,1,0,1:0:0:0:
332,116,91659,5,0,1:0:0:0:
180,116,91849,1,0,0:0:0:0:
180,268,92040,1,2,0:2:0:0:
332,268,92229,1,2,0:0:0:0:
160,288,92419,1,0,0:0:0:0:
160,96,92610,1,0,0:0:0:0:
352,96,92799,1,2,1:2:0:0:
352,288,92989,1,0,1:0:0:0:
352,288,93084,1,0,1:0:0:0:
408,320,93179,5,4,1:0:0:0:
316,384,93369,1,0,0:0:0:0:
196,384,93559,1,2,0:0:0:0:
104,320,93749,1,2,0:0:0:0:
184,192,93938,1,0,0:0:0:0:
184,64,94129,1,0,0:0:0:0:
328,192,94318,1,2,1:2:0:0:
328,64,94508,1,0,0:0:0:0:
256,240,94697,5,0,1:0:0:0:
176,316,94887,1,0,0:0:0:0:
336,316,95078,1,2,0:0:0:0:
140,240,95268,1,2,0:0:0:0:
372,240,95458,1,0,0:0:0:0:
132,156,95648,1,0,0:0:0:0:
380,156,95838,1,2,1:2:0:0:
256,192,96027,1,0,1:0:0:0:
256,192,96121,1,0,1:0:0:0:
256,252,96217,5,4,1:0:0:0:
144,304,96406,1,0,0:0:0:0:
88,192,96596,1,2,0:0:0:0:
144,80,96786,1,2,0:0:0:0:
256,132,96976,1,0,0:0:0:0:
368,80,97165,1,0,0:0:0:0:
424,192,97356,1,2,1:2:0:0:
368,304,97546,1,0,1:2:0:0:
144,304,97735,1,0,1:0:0:0:
256,252,97924,1,0,0:0:0:0:
368,304,98115,1,2,0:0:0:0:
256,192,98304,1,2,0:0:0:0:
368,80,98494,1,0,0:0:0:0:
256,252,98683,1,0,0:0:0:0:
144,80,98875,1,2,1:2:0:0:
256,192,99064,1,0,1:0:0:0:
256,192,99160,1,0,1:0:0:0:
320,232,99254,5,4,1:0:0:0:
192,152,99445,1,0,0:0:0:0:
320,152,99635,1,2,0:0:0:0:
192,232,99825,1,2,0:0:0:0:
256,124,100014,1,0,0:0:0:0:
256,260,100205,1,0,0:0:0:0:
140,192,100395,1,2,1:2:0:0:
372,192,100584,1,0,1:0:0:0:
136,348,100773,5,4,1:0:0:0:
256,192,100963,1,0,0:0:0:0:
376,348,101154,1,2,0:2:0:0:
256,192,101343,1,2,0:0:0:0:
256,0,101533,1,0,0:0:0:0:
132,96,101724,1,0,0:0:0:0:
380,96,101914,1,2,1:2:0:0:
256,192,102103,1,0,1:0:0:0:
256,192,102198,1,0,1:0:0:0:
332,192,102293,5,4,1:0:0:0:
256,268,102483,1,0,0:0:0:0:
180,192,102673,1,2,0:0:0:0:
256,116,102863,1,2,0:0:0:0:
256,192,103052,1,0,0:0:0:0:
164,96,103242,1,0,0:0:0:0:
256,0,103432,1,2,1:2:0:0:
348,96,103622,1,0,0:0:0:0:
180,192,103812,5,4,1:0:0:0:
136,296,104001,1,0,0:0:0:0:
200,384,104192,1,2,0:0:0:0:
312,384,104382,1,2,0:0:0:0:
376,296,104572,1,0,0:0:0:0:
332,192,104762,1,0,0:0:0:0:
192,80,104952,1,2,1:2:0:0:
320,80,105141,1,0,1:0:0:0:
320,80,105235,1,0,1:0:0:0:
256,104,105331,5,4,1:0:0:0:
340,160,105520,1,0,0:0:0:0:
308,256,105710,1,2,0:0:0:0:
204,256,105900,1,2,0:0:0:0:
172,160,106090,1,0,0:0:0:0:
256,192,106279,1,0,0:0:0:0:
340,160,106470,1,2,1:2:0:0:
256,104,106660,1,0,1:2:0:0:
172,160,106849,1,4,1:0:0:0:
124,248,107038,1,0,0:0:0:0:
156,344,107229,1,2,0:0:0:0:
256,380,107418,1,2,0:0:0:0:
356,344,107608,1,0,0:0:0:0:
388,248,107797,1,0,0:0:0:0:
340,160,107989,1,2,1:2:0:0:
256,248,108178,1,0,1:0:0:0:
256,248,108274,1,0,1:0:0:0:
192,288,108368,5,4,1:0:0:0:
256,368,108559,1,0,0:0:0:0:
320,288,108749,1,2,0:0:0:0:
196,192,108939,1,2,0:0:0:0:
256,104,109128,1,0,0:0:0:0:
316,192,109319,1,0,0:0:0:0:
192,288,109508,1,2,1:2:0:0:
320,288,109698,1,0,1:0:0:0:
152,192,109887,5,4,1:0:0:0:
256,324,110077,1,0,0:0:0:0:
360,192,110268,1,2,0:2:0:0:
256,324,110457,1,2,0:0:0:0:
256,120,110647,1,0,0:0:0:0:
152,288,110838,1,0,0:0:0:0:
360,288,111027,1,2,1:2:0:0:
256,236,111217,1,0,1:0:0:0:
256,236,111312,1,0,1:0:0:0:
256,324,111407,5,4,1:0:0:0:
356,216,111597,1,0,0:0:0:0:
312,112,111787,1,2,0:0:0:0:
200,112,111977,1,2,0:0:0:0:
156,216,112166,1,0,0:0:0:0:
136,84,112356,1,0,0:0:0:0:
256,24,112546,1,2,1:2:0:0:
376,84,112736,1,0,0:0:0:0:
256,192,112925,5,4,1:0:0:0:
336,336,113115,1,0,0:0:0:0:
176,336,113306,1,2,0:0:0:0:
380,268,113496,1,2,0:0:0:0:
132,268,113686,1,0,0:0:0:0:
408,192,113876,1,0,0:0:0:0:
256,88,114066,1,2,1:2:0:0:
104,192,114255,1,0,1:0:0:0:
104,192,114349,1,0,1:0:0:0:
168,192,114445,5,4,1:0:0:0:
256,88,114634,1,0,0:0:0:0:
344,192,114825,1,2,0:0:0:0:
256,24,115014,1,2,0:0:0:0:
256,192,115204,1,0,0:0:0:0:
176,56,115393,1,0,0:0:0:0:
336,56,115584,1,2,1:2:0:0:
256,192,115774,1,0,1:2:0:0:
408,192,115963,5,4,1:0:0:0:
336,128,116152,1,0,0:0:0:0:
336,256,116343,1,2,0:0:0:0:
256,100,116532,1,2,0:0:0:0:
256,284,116722,1,0,0:0:0:0:
176,128,116911,1,0,0:0:0:0:
176,256,117103,1,2,1:2:0:0:
104,192,117292,1,0,1:0:0:0:
104,192,117388,1,0,1:0:0:0:
100,120,117482,5,4,1:0:0:0:
164,48,117673,1,0,0:0:0:0:
256,20,117863,1,2,0:0:0:0:
348,48,118053,1,2,0:0:0:0:
412,120,118242,1,0,0:0:0:0:
308,108,118433,1,0,0:0:0:0:
204,108,118623,1,2,1:2:0:0:
100,120,118812,1,0,1:0:0:0:
256,192,119002,5,4,1:0:0:0:
156,192,119192,1,0,0:0:0:0:
256,296,119382,1,2,0:2:0:0:
356,192,119571,1,2,0:0:0:0:
156,192,119761,1,0,0:0:0:0:
256,88,119952,1,0,0:0:0:0:
352,192,120141,1,2,1:2:0:0:
256,192,120331,1,0,1:0:0:0:
256,192,120426,1,0,1:0:0:0:
256,296,120521,5,4,1:0:0:0:
160,340,120711,1,0,0:0:0:0:
184,256,120901,1,2,0:0:0:0:
80,232,121091,1,2,0:0:0:0:
184,128,121280,1,0,0:0:0:0:
80,152,121470,1,0,0:0:0:0:
160,44,121660,1,2,1:2:0:0:
256,192,121850,1,0,0:0:0:0:
256,88,122040,5,4,1:0:0:0:
348,44,122229,1,0,0:0:0:0:
328,128,122420,1,2,0:0:0:0:
432,152,122610,1,2,0:0:0:0:
328,256,122800,1,0,0:0:0:0:
348,340,122990,1,0,0:0:0:0:
432,232,123180,1,2,1:2:0:0:
256,296,123369,1,0,1:0:0:0:
256,296,123463,1,0,1:0:0:0:
256,380,123559,5,4,1:0:0:0:
208,228,123748,1,0,0:0:0:0:
336,316,123938,1,2,0:0:0:0:
176,316,124128,1,2,0:0:0:0:
304,228,124319,1,0,0:0:0:0:
176,68,124507,1,0,0:0:0:0:
336,68,124698,1,2,1:2:0:0:
208,156,124888,1,0,1:2:0:0:
256,4,125077,1,0,1:0:0:0:
336,68,125266,1,0,0:0:0:0:
304,156,125458,1,2,0:0:0:0:
208,156,125646,1,2,0:0:0:0:
176,68,125836,1,0,0:0:0:0:
256,96,126025,1,0,0:0:0:0:
336,68,126217,1,2,1:2:0:0:
256,192,126406,1,0,1:0:0:0:
256,192,126502,1,0,1:0:0:0:
168,192,126596,5,4,1:0:0:0:
232,256,126787,1,0,0:0:0:0:
104,128,126977,1,2,0:0:0:0:
168,280,127167,1,2,0:0:0:0:
168,104,127357,1,0,0:0:0:0:
104,256,127546,1,0,0:0:0:0:
232,128,127736,1,2,1:2:0:0:
80,192,127926,1,0,1:0:0:0:
256,192,128116,5,0,1:0:0:0:
344,104,128307,1,0,0:0:0:0:
344,280,128496,1,2,0:0:0:0:
280,128,128686,1,2,0:0:0:0:
408,256,128876,1,0,0:0:0:0:
280,256,129066,1,0,0:0:0:0:
408,128,129255,1,2,1:2:0:0:
344,192,129446,1,0,1:0:0:0:
344,192,129540,1,0,1:0:0:0:
256,120,129635,5,4,1:0:0:0:
312,8,129825,1,0,0:0:0:0:
200,8,130015,1,2,0:0:0:0:
132,88,130205,1,2,0:0:0:0:
176,192,130394,1,0,0:0:0:0:
132,296,130584,1,0,0:0:0:0:
200,376,130774,1,2,1:2:0:0:
256,272,130964,1,0,0:0:0:0:
312,376,131154,1,0,1:0:0:0:
380,296,131343,1,0,0:0:0:0:
336,192,131534,1,2,0:0:0:0:
256,272,131724,1,2,0:0:0:0:
168,84,131914,1,0,0:0:0:0:
344,84,132104,1,0,0:0:0:0:
256,272,132294,1,2,1:2:0:0:
440,192,132483,1,2,1:2:0:0:
440,192,132577,1,2,1:2:0:0:
440,192,132673,6,0,L|440:332,1,100,4|0,1:0|0:0,0:0:0:0:
344,84,133052,1,0,0:0:0:0:
256,192,133242,2,0,L|256:292,1,100,0|0,1:0|0:0,0:0:0:0:
168,84,133622,1,0,0:0:0:0:
72,292,133812,2,0,L|72:192,1,100,0|0,1:0|0:0,0:0:0:0:
256,92,134191,2,0,L|256:192,1,100,0|0,1:0|0:0,0:0:0:0:
440,292,134571,1,0,1:0:0:0:
440,92,134761,1,0,1:0:0:0:
440,92,134856,1,0,1:0:0:0:
440,92,134951,6,0,P|416:148|356:160,1,100,0|0,1:0|0:0,0:0:0:0:
256,92,135331,1,0,0:0:0:0:
71,92,135521,2,0,P|86:138|129:162,1,100,0|0,1:0|0:0,0:0:0:0:
256,92,135900,1,0,0:0:0:0:
388,240,136090,2,0,P|398:302|350:358,1,100,0|0,1:0|0:0,0:0:0:0:
129,333,136470,2,0,P|111:287|124:240,1,100,0|0,1:0|0:0,0:0:0:0:
256,380,136850,1,0,1:0:0:0:
256,192,137040,1,0,1:0:0:0:
256,192,137135,1,0,1:0:0:0:
256,192,137229,6,0,B|224:148|208:184|172:128,1,100,0|0,1:0|0:0,0:0:0:0:
256,0,137609,1,0,0:0:0:0:
335,135,137799,2,0,B|304:184|288:148|256:192,1,100,0|0,1:0|0:0,0:0:0:0:
256,344,138179,1,0,0:0:0:0:
336,236,138369,2,0,B|380:220|380:252|436:228,1,100,0|0,1:0|0:0,0:0:0:0:
176,236,138748,2,0,B|132:220|132:252|76:228,1,100,0|0,1:0|0:0,0:0:0:0:
352,100,139128,1,0,1:0:0:0:
160,100,139318,1,0,1:0:0:0:
160,100,139413,1,0,1:0:0:0:
160,100,139508,6,0,P|128:108|152:72,1,100,0|0,1:0|0:0,0:0:0:0:
256,240,139888,1,0,0:0:0:0:
352,100,140078,2,0,P|391:98|363:70,1,100,0|0,1:0|0:0,0:0:0:0:
256,240,140457,1,0,0:0:0:0:
152,384,140647,2,0,P|150:344|122:372,1,100,0|0,1:0|0:0,0:0:0:0:
390,372,141027,2,0,P|362:343|360:383,1,100,0|0,1:0|0:0,0:0:0:0:
152,240,141407,1,0,1:0:0:0:
360,240,141597,1,0,1:0:0:0:
360,240,141691,1,0,1:0:0:0:
360,240,141786,6,0,L|400:128,1,100,4|0,1:0|0:0,0:0:0:0:
256,32,142166,1,0,0:0:0:0:
118,145,142356,2,0,L|152:240,1,100,0|0,1:0|0:0,0:0:0:0:
256,352,142736,1,0,0:0:0:0:
360,240,142926,2,0,L|392:352,1,100,0|0,1:0|0:0,0:0:0:0:
152,240,143305,2,0,L|120:352,1,100,0|0,1:0|0:0,0:0:0:0:
256,192,143685,1,0,1:1:0:0:
256,32,143875,1,0,1:1:0:0:
256,32,143970,1,0,1:1:0:0:
256,32,144065,6,0,P|176:80|116:76,1,100,0|0,1:0|0:0,0:0:0:0:
256,192,144445,1,0,0:0:0:0:
340,80,144635,2,0,P|293:64|256:32,1,100,0|0,1:0|0:0,0:0:0:0:
256,192,145014,1,0,0:0:0:0:
168,304,145204,2,0,P|116:352|116:396,1,100,0|0,1:0|0:0,0:0:0:0:
344,304,145584,2,0,P|396:352|396:396,1,100,0|0,1:0|0:0,0:0:0:0:
256,324,145964,1,0,1:0:0:0:
200,168,146154,1,0,1:0:0:0:
200,168,146248,1,0,1:0:0:0:
200,168,146343,6,0,B|156:184|144:160|100:184,1,100,0|0,1:0|0:0,0:0:0:0:
256,324,146723,1,0,0:0:0:0:
312,168,146913,2,0,B|356:184|368:160|412:184,1,100,0|0,1:0|0:0,0:0:0:0:
256,324,147293,1,0,0:0:0:0:
139,92,147483,2,0,B|192:116|156:152|200:168,1,100,0|0,1:0|0:0,0:0:0:0:
372,92,147862,2,0,B|320:116|356:152|312:168,1,100,0|0,1:0|0:0,0:0:0:0:
184,280,148242,1,0,1:0:0:0:
328,280,148432,1,0,1:0:0:0:
328,280,148527,1,0,1:0:0:0:
328,280,148622,6,0,P|360:344|392:360,1,100,0|0,1:0|0:0,0:0:0:0:
256,192,149002,1,0,0:0:0:0:
129,356,149191,2,0,P|168:326|184:280,1,100,0|0,1:0|0:0,0:0:0:0:
256,112,149571,1,0,0:0:0:0:
152,20,149761,2,0,P|148:100|192:128,1,100,0|0,1:0|0:0,0:0:0:0:
354,110,150141,2,0,P|375:66|360:20,1,100,0|0,1:0|0:0,0:0:0:0:
256,192,150521,1,0,1:0:0:0:
308,316,150710,1,0,1:0:0:0:
308,316,150805,1,0,1:0:0:0:
308,316,150900,6,0,L|528:316,1,200,4|0,1:0|0:0,0:0:0:0:
204,316,151470,2,0,L|4:316,1,200,0|0,1:0|0:0,0:0:0:0:
328,248,152040,2,0,L|436:248,1,100,0|0,1:0|0:0,0:0:0:0:
256,92,152419,2,0,L|256:192,1,100,0|0,1:0|0:0,0:0:0:0:
84,248,152799,2,0,L|184:248,1,100,0|0,1:0|1:0,0:0:0:0:
385,25,153179,6,0,P|428:107|360:171,1,200,0|0,1:0|0:0,0:0:0:0:
126,25,153748,2,0,P|83:108|151:171,1,200,0|0,1:0|0:0,0:0:0:0:
332,296,154318,2,0,P|396:332|412:368,1,100,0|0,1:0|0:0,0:0:0:0:
180,296,154698,2,0,P|116:332|100:368,1,100,0|0,1:0|0:0,0:0:0:0:
256,352,155078,1,0,1:0:0:0:
256,352,155267,1,0,1:0:0:0:
256,192,155457,6,0,L|256:76,1,100,0|0,1:0|0:0,0:0:0:0:
256,192,155837,1,0,0:0:0:0:
256,292,156027,2,0,L|256:192,1,100,0|0,1:0|0:0,0:0:0:0:
256,292,156407,1,0,0:0:0:0:
256,192,156597,2,0,L|144:192,1,100,0|0,1:0|0:0,0:0:0:0:
356,192,156976,2,0,L|256:192,1,100,0|0,1:0|0:0,0:0:0:0:
432,192,157356,1,0,1:0:0:0:
432,192,157546,1,0,1:0:0:0:
256,108,157736,6,0,L|132:108,2,100,0|0|0,1:0|0:0|0:0,0:0:0:0:
256,276,158305,2,0,L|380:276,2,100,0|0|0,1:0|0:0|0:0,0:0:0:0:
156,276,158875,1,0,1:0:0:0:
256,192,159065,1,0,0:0:0:0:
156,192,159255,1,0,1:0:0:0:
356,192,159445,1,0,0:0:0:0:
156,276,159634,1,0,1:0:0:0:
256,108,159824,1,0,0:0:0:0:
48,264,160014,6,0,P|72:344|204:372,1,200,4|0,1:0|0:0,0:0:0:0:
464,264,160584,2,0,P|440:344|308:372,1,200,0|0,1:0|0:0,0:0:0:0:
394,247,161154,2,0,P|421:205|468:192,1,100,0|0,1:0|0:0,0:0:0:0:
304,128,161533,2,0,P|255:117|208:128,1,100,0|0,1:0|0:0,0:0:0:0:
117,247,161913,2,0,P|90:205|43:192,1,100,0|0,1:0|1:0,0:0:0:0:
320,284,162293,6,0,P|404:328|512:344,1,200,0|0,1:0|0:0,0:0:0:0:
192,284,162862,2,0,P|108:328|0:344,1,200,0|0,1:0|0:0,0:0:0:0:
72,192,163432,2,0,L|180:192,1,100,0|0,1:0|0:0,0:0:0:0:
340,192,163812,2,0,L|440:192,1,100,0|0,1:0|0:0,0:0:0:0:
256,92,164191,1,0,1:0:0:0:
256,92,164381,1,0,1:0:0:0:
256,292,164571,6,0,L|256:192,1,100,0|0,1:0|0:0,0:0:0:0:
256,376,164951,1,0,0:0:0:0:
256,192,165141,2,0,L|256:92,1,100,0|0,1:0|0:0,0:0:0:0:
256,276,165521,1,0,0:0:0:0:
72,192,165710,2,0,L|172:192,1,100,0|0,1:0|0:0,0:0:0:0:
440,192,166090,2,0,L|340:192,1,100,0|0,1:0|0:0,0:0:0:0:
192,68,166470,1,0,1:0:0:0:
320,68,166660,1,0,1:0:0:0:
256,276,166850,6,0,B|276:328|228:320|256:380,2,100,4|0|0,1:0|0:0|0:0,0:0:0:0:
256,108,167419,2,0,B|236:56|284:64|256:4,2,100,0|0|0,1:0|0:0|0:0,0:0:0:0:
176,236,167989,1,0,1:0:0:0:
256,276,168179,1,0,0:0:0:0:
256,108,168369,1,4,1:0:0:0:
176,148,168559,1,0,0:0:0:0:
336,236,168748,1,0,1:0:0:0:
336,148,168938,1,0,0:0:0:0:
400,344,169128,6,0,L|312:300,1,80,4|0,1:0|0:0,0:0:0:0:
112,344,169698,2,0,L|200:300,1,80,0|0,1:0|0:0,0:0:0:0:
56,112,170267,2,0,L|56:48,1,40,0|0,1:0|0:0,0:0:0:0:
256,0,170647,2,0,L|256:60,1,40,0|0,1:0|0:0,0:0:0:0:
456,112,171027,2,0,L|456:72,1,40,0|0,1:0|1:0,0:0:0:0:
448,180,171312,1,0,1:0:0:0:
459,193,171407,6,0,L|363:193,1,80,0|0,1:0|0:0,0:0:0:0:
53,193,171976,2,0,L|149:193,1,80,0|0,1:0|0:0,0:0:0:0:
424,272,172546,2,0,P|432:300|428:324,1,40,0|0,1:0|0:0,0:0:0:0:
256,380,172926,2,0,B|256:336,1,40,0|0,1:0|0:0,0:0:0:0:
87,272,173305,2,0,P|81:290|80:310,1,40,0|0,1:0|0:0,0:0:0:0:
148,200,173590,1,0,1:0:0:0:
133,193,173685,6,0,P|128:156|96:116,1,80,0|0,1:0|0:0,0:0:0:0:
408,121,174255,2,0,P|384:153|379:193,1,80,0|0,1:0|0:0,0:0:0:0:
408,0,174824,2,0,L|368:24,1,40,0|0,1:0|0:0,0:0:0:0:
256,192,175204,2,0,L|256:152,1,40,0|0,1:0|0:0,0:0:0:0:
104,0,175584,2,0,L|138:20,1,40,0|0,1:0|1:0,0:0:0:0:
104,160,175869,1,0,1:0:0:0:
120,152,175964,6,0,L|120:236,1,80,0|0,1:0|0:0,0:0:0:0:
392,232,176533,2,0,L|392:152,1,80,0|0,1:0|0:0,0:0:0:0:
504,368,177103,2,0,L|464:368,1,40,0|0,1:0|0:0,0:0:0:0:
276,256,177483,2,0,L|232:256,1,40,0|0,1:0|0:0,0:0:0:0:
48,368,177862,2,0,L|8:368,1,40,0|0,1:0|1:0,0:0:0:0:
160,300,178147,1,0,1:0:0:0:
144,300,178242,6,0,P|132:256|148:212,1,80,0|0,1:0|0:0,0:0:0:0:
371,223,178812,2,0,P|379:262|368:300,1,80,0|0,1:0|0:0,0:0:0:0:
392,112,179381,2,0,P|376:92|364:100,1,40,0|0,1:0|0:0,0:0:0:0:
145,96,179761,2,0,P|126:94|120:112,1,40,0|0,1:0|0:0,0:0:0:0:
256,280,180141,2,0,L|256:320,1,40,0|0,1:0|1:0,0:0:0:0:
328,176,180426,1,0,1:0:0:0:
344,176,180521,6,0,L|400:100,1,80,0|0,1:0|0:0,0:0:0:0:
120,111,181090,2,0,L|168:176,1,80,0|0,1:0|0:0,0:0:0:0:
112,344,181660,2,0,P|108:380|104:392,1,40,0|0,1:0|0:0,0:0:0:0:
256,192,182040,2,0,L|256:236,1,40,0|0,1:0|0:0,0:0:0:0:
400,344,182419,2,0,P|404:380|408:392,1,40,0|0,1:0|1:0,0:0:0:0:
412,208,182704,1,0,1:0:0:0:
392,192,182799,6,0,B|388:160|364:164|356:120,1,80,0|0,1:0|0:0,0:0:0:0:
155,121,183369,2,0,B|148:164|124:160|120:192,1,80,0|0,1:0|0:0,0:0:0:0:
32,360,183938,2,0,L|68:328,1,40,0|0,1:0|0:0,0:0:0:0:
240,360,184318,2,0,L|276:328,1,40,0|0,1:0|0:0,0:0:0:0:
452,360,184698,2,0,L|481:333,1,40,0|0,1:0|1:0,0:0:0:0:
404,192,184983,1,0,1:0:0:0:
420,176,185078,6,0,B|376:140|376:140|356:112,1,80,0|0,1:0|0:0,0:0:0:0:
149,121,185647,2,0,B|136:140|136:140|92:176,1,80,0|0,1:0|0:0,0:0:0:0:
256,96,186217,2,0,L|256:44,1,40,0|0,1:0|0:0,0:0:0:0:
360,264,186597,2,0,L|405:290,1,40,0|0,1:0|0:0,0:0:0:0:
152,264,186976,2,0,L|106:290,1,40,0|0,1:0|1:0,0:0:0:0:
256,376,187261,1,0,1:0:0:0:
276,352,187356,6,0,P|272:316|236:268,1,80,0|0,1:0|0:0,0:0:0:0:
235,32,187926,2,0,P|241:71|262:104,1,80,0|0,1:0|0:0,0:0:0:0:
508,124,188495,2,0,L|464:140,1,40,0|0,1:0|0:0,0:0:0:0:
274,184,188875,2,0,L|238:200,1,40,0|0,1:0|0:0,0:0:0:0:
41,246,189255,2,0,L|4:260,1,40,0|0,1:0|1:0,0:0:0:0:
52,152,189540,1,0,1:0:0:0:
40,128,189635,6,0,L|128:140,1,80,0|0,1:0|0:0,0:0:0:0:
472,128,190204,2,0,L|384:140,1,80,0|0,1:0|0:0,0:0:0:0:
512,300,190774,2,0,P|492:320|468:328,1,40,0|0,1:0|0:0,0:0:0:0:
272,376,191154,2,0,P|256:384|236:376,1,40,0|0,1:0|0:0,0:0:0:0:
30,324,191533,2,0,P|13:315|0:300,1,40,0|0,1:0|1:0,0:0:0:0:
72,164,191818,1,0,1:0:0:0:
92,164,191913,6,0,P|100:192|153:229,1,80,0|0,1:0|0:0,0:0:0:0:
420,164,192483,2,0,P|407:193|359:229,1,80,0|0,1:0|0:0,0:0:0:0:
392,16,193052,2,0,L|392:72,1,40,0|0,1:0|0:0,0:0:0:0:
256,188,193432,2,0,L|256:144,1,40,0|0,1:0|0:0,0:0:0:0:
120,16,193812,2,0,L|120:72,1,40,0|0,1:0|1:0,0:0:0:0:
76,180,194097,1,0,1:0:0:0:
80,204,194191,6,0,P|120:224|128:260,1,80,0|0,1:0|0:0,0:0:0:0:
383,255,194761,2,0,P|396:218|432:204,1,80,0|0,1:0|0:0,0:0:0:0:
480,376,195331,2,0,L|440:376,1,40,0|0,1:0|0:0,0:0:0:0:
256,344,195710,2,0,L|256:388,1,40,0|0,1:0|0:0,0:0:0:0:
32,376,196090,2,0,L|72:376,1,40,0|0,1:0|1:0,0:0:0:0:
184,232,196375,1,0,1:0:0:0:
144,212,196470,6,0,P|120:172|124:124,1,80,0|0,1:0|0:0,0:0:0:0:
392,139,197040,2,0,P|389:179|368:212,1,80,0|0,1:0|0:0,0:0:0:0:
396,0,197609,2,0,L|352:0,1,40,0|0,1:0|0:0,0:0:0:0:
116,0,197989,2,0,L|160:0,1,40,0|0,1:0|0:0,0:0:0:0:
344,88,198369,1,0,1:0:0:0:
168,88,198559,1,0,1:0:0:0:
196,88,198654,1,0,1:0:0:0:
256,88,198748,6,0,P|252:64|206:30,1,80,0|0,1:0|0:0,0:0:0:0:
256,296,199318,2,0,P|260:320|306:354,1,80,0|0,1:0|0:0,0:0:0:0:
144,192,199888,2,0,L|144:232,1,40,0|0,1:0|0:0,0:0:0:0:
368,232,200267,2,0,L|368:192,1,40,0|0,1:0|0:0,0:0:0:0:
256,296,200647,1,0,1:0:0:0:
256,192,200837,1,0,1:0:0:0:
256,144,200932,1,0,1:0:0:0:
220,88,201027,6,0,P|256:73|292:88,1,80,0|0,1:0|0:0,0:0:0:0:
292,296,201597,2,0,P|256:311|220:296,1,80,0|0,1:0|0:0,0:0:0:0:
391,223,202166,2,0,P|381:206|368:192,1,40,0|0,1:0|0:0,0:0:0:0:
144,191,202546,2,0,P|130:206|120:223,1,40,0|0,1:0|0:0,0:0:0:0:
168,68,202926,1,0,1:0:0:0:
344,68,203116,1,0,1:0:0:0:
364,104,203210,1,0,1:0:0:0:
368,191,203305,6,0,L|316:191,2,40,0|0|0,1:0|0:0|0:0,0:0:0:0:
144,191,203875,2,0,L|196:191,2,40,0|0|0,1:0|0:0|0:0,0:0:0:0:
204,312,204445,1,0,1:0:0:0:
124,364,204635,1,0,0:0:0:0:
310,313,204824,1,0,1:0:0:0:
388,364,205014,1,0,0:0:0:0:
256,240,205204,1,0,1:0:0:0:
256,144,205394,1,0,0:0:0:0:
204,312,205584,6,0,B|154:239|98:319|28:238,1,200,4|0,1:0|0:0,0:0:0:0:
308,312,206154,2,0,B|358:239|414:319|484:238,1,200,0|0,1:2|0:0,0:0:0:0:
421,161,206724,2,0,L|493:249,1,100,0|0,1:0|0:0,0:0:0:0:
256,0,207103,2,0,L|256:100,1,100,0|0,1:0|0:0,0:0:0:0:
91,161,207483,2,0,L|19:249,1,100,0|0,1:0|1:0,0:0:0:0:
356,368,207862,6,0,P|367:281|291:181,1,200,0|0,1:0|0:0,0:0:0:0:
156,16,208432,2,0,P|145:103|221:203,1,200,0|0,1:0|0:0,0:0:0:0:
156,368,209002,2,0,P|172:324|220:292,1,100,0|0,1:0|0:0,0:0:0:0:
298,90,209381,2,0,P|338:62|356:16,1,100,0|0,1:0|0:0,0:0:0:0:
256,192,209762,1,0,1:0:0:0:
256,192,209951,1,0,1:0:0:0:
440,242,210141,6,0,L|440:126,1,100,0|0,1:0|0:0,0:0:0:0:
344,304,210521,1,0,0:0:0:0:
256,192,210711,2,0,L|256:92,1,100,0|0,1:0|0:0,0:0:0:0:
168,304,211091,1,0,0:0:0:0:
72,242,211281,2,0,L|72:130,1,100,0|0,1:0|0:0,0:0:0:0:
256,292,211660,2,0,L|256:192,1,100,0|0,1:0|0:0,0:0:0:0:
440,242,212040,1,0,1:0:0:0:
440,142,212230,1,0,1:0:0:0:
306,356,212420,6,0,L|182:356,2,100,0|0|0,1:0|0:0|0:0,0:0:0:0:
206,192,212989,2,0,L|330:192,2,100,0|0|0,1:0|0:0|0:0,0:0:0:0:
306,28,213559,1,0,1:0:0:0:
256,192,213749,1,0,0:0:0:0:
206,28,213939,1,0,1:0:0:0:
256,252,214129,1,0,0:0:0:0:
368,120,214318,1,0,1:0:0:0:
144,120,214508,1,0,0:0:0:0:
380,192,214698,6,0,P|384:308|304:368,1,200,4|0,1:0|0:0,0:0:0:0:
132,192,215267,2,0,P|128:308|208:368,1,200,0|0,1:0|0:0,0:0:0:0:
48,164,215838,2,0,P|75:122|122:109,1,100,0|0,1:0|0:0,0:0:0:0:
304,28,216217,2,0,P|255:16|207:28,1,100,0|0,1:0|0:0,0:0:0:0:
390,108,216597,2,0,P|437:122|464:164,1,100,0|0,1:0|1:0,0:0:0:0:
352,280,216977,6,0,P|324:308|416:324,1,200,0|0,1:0|0:0,0:0:0:0:
96,331,217546,2,0,P|173:361|160:280,1,200,0|0,1:0|0:0,0:0:0:0:
88,120,218116,2,0,P|112:100|128:152,1,100,0|0,1:0|0:0,0:0:0:0:
377,146,218495,2,0,P|383:103|424:120,1,100,0|0,1:0|0:0,0:0:0:0:
256,8,218875,1,0,1:0:0:0:
256,8,219065,1,0,1:0:0:0:
332,276,219255,6,0,P|356:240|324:252,1,100,0|0,1:0|0:0,0:0:0:0:
256,376,219635,1,0,0:0:0:0:
184,244,219824,2,0,P|145:255|180:276,1,100,0|0,1:0|0:0,0:0:0:0:
256,376,220205,1,0,0:0:0:0:
88,192,220394,2,0,P|128:168|184:164,1,100,0|0,1:0|0:0,0:0:0:0:
424,192,220774,2,0,P|384:168|328:164,1,100,0|0,1:0|0:0,0:0:0:0:
216,336,221154,1,0,1:0:0:0:
296,336,221344,1,0,1:0:0:0:
144,264,221534,6,0,B|92:244|100:292|40:264,2,100,4|0|0,1:0|0:0|0:0,0:0:0:0:
368,264,222103,2,0,B|420:244|412:292|472:264,2,100,0|0|0,1:0|0:0|0:0,0:0:0:0:
184,192,222673,1,0,1:0:0:0:
256,264,222863,1,0,0:0:0:0:
328,192,223053,1,4,1:0:0:0:
256,120,223243,1,0,0:0:0:0:
92,192,223432,1,0,1:0:0:0:
420,192,223622,1,0,0:0:0:0:
256,384,223812,6,0,P|152:372|56:280,1,200,4|0,1:0|0:0,0:0:0:0:
256,120,224381,1,0,0:0:0:0:
433,315,224571,2,0,P|354:374|256:384,1,200,0|0,0:0|1:0,0:0:0:0:
256,192,225141,1,0,1:0:0:0:
256,0,225330,2,0,P|152:12|56:104,1,200,0|0,1:2|0:0,0:0:0:0:
256,264,225900,1,0,0:0:0:0:
433,68,226090,2,0,P|354:9|256:0,1,200,0|0,0:0|1:0,0:0:0:0:
24,192,226660,1,0,1:0:0:0:
24,192,226755,1,0,1:0:0:0:
24,192,226849,6,0,P|60:96|124:148,1,200,0|0,1:0|0:0,0:0:0:0:
256,384,227419,1,0,0:0:0:0:
392,130,227609,2,0,P|476:104|488:192,1,200,0|0,0:0|1:0,0:0:0:0:
256,0,228179,1,0,1:0:0:0:
24,192,228368,2,0,P|60:288|124:236,1,200,0|0,1:0|0:0,0:0:0:0:
256,0,228938,1,0,0:0:0:0:
392,253,229128,2,0,P|476:279|488:192,1,200,0|0,0:0|1:0,0:0:0:0:
256,384,229698,1,0,1:0:0:0:
256,384,229793,1,0,1:0:0:0:
256,384,229887,6,0,B|228:304|116:356|72:256,1,200,0|0,1:0|0:0,0:0:0:0:
256,104,230457,1,0,0:0:0:0:
420,289,230647,2,0,B|394:360|282:308|256:384,1,200,0|0,0:0|1:0,0:0:0:0:
256,192,231217,1,0,1:0:0:0:
91,94,231406,2,0,B|117:23|229:75|256:0,1,200,0|0,1:0|0:0,0:0:0:0:
256,280,231976,1,0,0:0:0:0:
420,94,232166,2,0,B|394:23|282:75|256:0,1,200,0|0,0:0|1:0,0:0:0:0:
488,192,232736,1,0,1:0:0:0:
488,192,232830,1,0,1:0:0:0:
488,192,232925,6,0,P|428:272|328:328,1,200,0|0,1:0|0:0,0:0:0:0:
256,136,233495,1,0,0:0:0:0:
24,192,233685,2,0,P|84:272|184:328,1,200,0|0,0:0|1:0,0:0:0:0:
256,64,234255,1,0,1:0:0:0:
488,192,234444,2,0,P|428:112|328:56,1,200,0|0,1:0|0:0,0:0:0:0:
256,308,235014,1,0,0:0:0:0:
24,192,235204,2,0,P|84:112|184:56,1,200,0|0,0:0|1:0,0:0:0:0:
256,382,235774,1,0,1:0:0:0:
256,382,235868,1,0,1:0:0:0:
256,382,235963,6,0,B|156:340|128:380|44:312,1,200,0|0,1:0|0:0,0:0:0:0:
256,192,236533,1,0,0:0:0:0:
256,382,236723,2,0,B|176:304|228:256|116:192,1,200,0|0,0:0|1:0,0:0:0:0:
256,0,237293,1,0,1:0:0:0:
256,382,237482,2,0,B|336:304|284:256|396:192,1,200,0|0,1:0|0:0,0:0:0:0:
256,96,238052,1,0,0:0:0:0:
257,381,238242,2,0,B|356:340|384:380|446:327,1,200,0|0,0:0|1:0,0:0:0:0:
256,0,238812,1,0,1:0:0:0:
256,0,238906,1,0,1:0:0:0:
256,0,239001,6,0,P|160:28|92:136,1,200,0|0,1:0|0:0,0:0:0:0:
256,276,239571,1,0,0:0:0:0:
256,0,239761,2,0,P|184:96|224:196,1,200,0|0,0:0|1:0,0:0:0:0:
256,382,240330,1,0,1:0:0:0:
256,0,240520,2,0,P|328:96|288:196,1,200,0|0,1:0|0:0,0:0:0:0:
256,276,241090,1,0,0:0:0:0:
256,0,241280,2,0,P|350:27|411:104,1,200,0|0,0:0|1:0,0:0:0:0:
256,382,241849,1,0,1:0:0:0:
256,382,241944,1,0,1:0:0:0:
256,382,242039,6,0,P|145:366|48:344,1,200,0|0,1:0|0:0,0:0:0:0:
256,192,242609,1,0,0:0:0:0:
452,346,242799,2,0,P|355:368|256:382,1,200,0|0,0:0|1:0,0:0:0:0:
488,192,243368,1,0,1:0:0:0:
138,221,243558,2,0,P|191:305|256:382,1,200,0|0,1:0|0:0,0:0:0:0:
256,80,244128,1,0,0:0:0:0:
373,221,244318,2,0,P|320:305|256:382,1,200,0|0,0:0|1:0,0:0:0:0:
24,192,244887,1,0,1:0:0:0:
24,192,244982,1,0,1:0:0:0:
24,192,245077,6,0,P|112:156|132:40,1,200,0|0,1:0|0:0,0:0:0:0:
256,272,245647,1,0,0:0:0:0:
373,61,245837,2,0,P|398:154|488:192,1,200,0|0,0:0|1:0,0:0:0:0:
256,272,246406,1,0,1:0:0:0:
138,60,246596,2,0,P|49:98|24:192,1,200,0|0,1:0|0:0,0:0:0:0:
256,382,247166,1,0,0:0:0:0:
488,191,247356,2,0,P|462:98|373:60,1,200,0|0,0:0|1:0,0:0:0:0:
200,364,247925,1,0,1:0:0:0:
200,364,248020,1,0,1:0:0:0:
200,364,248115,6,0,B|180:284|68:336|32:248,1,200,4|0,1:0|0:0,0:0:0:0:
256,128,248685,1,0,0:0:0:0:
472,262,248875,2,0,B|444:336|332:284|312:364,1,200,0|0,0:0|1:0,0:0:0:0:
256,192,249444,1,0,1:0:0:0:
312,22,249634,2,0,B|332:100|444:48|472:121,1,200,0|0,1:0|0:0,0:0:0:0:
256,256,250204,1,0,0:0:0:0:
39,121,250394,2,0,B|68:48|180:100|200:20,1,200,0|0,0:0|1:0,0:0:0:0:
40,260,250963,1,0,1:0:0:0:
40,260,251058,1,0,1:0:0:0:
40,260,251153,6,0,P|72:232|12:252,1,200,0|0,1:0|0:0,0:0:0:0:
256,332,251723,1,0,0:0:0:0:
504,247,251913,2,0,P|463:187|472:260,1,200,0|0,0:0|1:0,0:0:0:0:
256,192,252482,1,0,1:0:0:0:
40,124,252672,2,0,P|72:152|12:132,1,200,0|0,1:0|0:0,0:0:0:0:
256,52,253242,1,0,0:0:0:0:
471,124,253432,2,0,P|463:196|504:136,1,200,0|0,0:0|1:0,0:0:0:0:
200,364,254001,1,0,1:0:0:0:
200,364,254096,1,0,1:0:0:0:
200,364,254191,6,0,L|99:192,1,200,0|0,1:2|0:0,0:0:0:0:
256,256,254761,1,0,0:0:0:0:
312,20,254951,2,0,L|413:192,1,200,0|0,0:0|1:0,0:0:0:0:
256,52,255520,1,0,1:0:0:0:
312,364,255710,2,0,L|413:192,1,200,0|0,1:0|0:0,0:0:0:0:
256,256,256280,1,0,0:0:0:0:
200,20,256470,2,0,L|99:192,1,200,0|0,0:0|1:0,0:0:0:0:
472,124,257039,1,0,1:0:0:0:
472,124,257134,1,0,1:0:0:0:
472,124,257229,6,0,B|392:124|396:20|312:20,1,200,0|0,1:0|0:0,0:0:0:0:
256,256,257799,1,0,0:0:0:0:
40,124,257989,2,0,B|120:124|116:20|200:20,1,200,0|0,0:0|1:0,0:0:0:0:
256,192,258558,1,0,1:0:0:0:
472,260,258748,2,0,B|392:260|396:364|312:364,1,200,0|0,1:0|0:0,0:0:0:0:
256,128,259318,1,0,0:0:0:0:
40,260,259508,2,0,B|120:260|116:364|200:364,1,200,0|0,0:0|1:0,0:0:0:0:
200,20,260077,1,0,1:0:0:0:
200,20,260172,1,0,1:0:0:0:
200,20,260267,6,0,P|112:108|40:124,1,200,0|0,1:0|0:0,0:0:0:0:
256,256,260837,1,0,0:0:0:0:
312,20,261027,2,0,P|400:108|472:124,1,200,0|0,0:0|1:0,0:0:0:0:
256,192,261596,1,0,1:0:0:0:
200,364,261786,2,0,P|112:276|40:260,1,200,0|0,1:0|0:0,0:0:0:0:
256,128,262356,1,0,0:0:0:0:
312,364,262546,2,0,P|400:276|472:260,1,200,0|0,0:0|1:0,0:0:0:0:
312,20,263115,1,0,1:0:0:0:
312,20,263210,1,0,1:0:0:0:
312,20,263305,6,0,P|292:72|384:40,1,200,0|0,1:0|0:0,0:0:0:0:
256,256,263875,1,0,0:0:0:0:
200,20,264065,2,0,P|220:72|128:40,1,200,0|0,0:0|1:0,0:0:0:0:
256,192,264634,1,0,1:0:0:0:
312,364,264824,2,0,P|292:312|384:344,1,200,0|0,1:0|0:0,0:0:0:0:
256,128,265394,1,0,0:0:0:0:
200,364,265584,2,0,P|220:312|128:344,1,200,0|0,0:0|1:0,0:0:0:0:
488,316,266153,1,0,1:1:0:0:
488,316,266248,1,0,1:1:0:0:
488,316,266343,6,0,B|392:364|392:268|296:316,1,200,0|0,1:0|0:0,0:0:0:0:
256,192,266913,1,0,0:0:0:0:
24,316,267103,2,0,B|120:364|120:268|216:316,1,200,0|0,0:0|1:0,0:0:0:0:
256,192,267672,1,0,1:0:0:0:
24,68,267862,2,0,B|120:20|120:116|216:68,1,200,0|0,1:0|0:0,0:0:0:0:
256,192,268432,1,0,0:0:0:0:
488,68,268622,2,0,B|392:20|392:116|296:68,1,200,0|0,0:0|1:0,0:0:0:0:
256,192,269191,1,0,1:0:0:0:
256,192,269286,1,0,1:0:0:0:
256,192,269381,6,0,P|180:228|176:364,1,200,0|0,1:0|0:0,0:0:0:0:
64,192,269951,1,0,0:0:0:0:
256,192,270141,2,0,P|292:268|428:272,1,200,0|0,0:0|1:0,0:0:0:0:
256,384,270710,1,0,1:0:0:0:
256,192,270900,2,0,P|332:156|336:20,1,200,0|0,1:0|0:0,0:0:0:0:
448,192,271470,1,0,0:0:0:0:
256,192,271660,2,0,P|220:116|84:112,1,200,0|0,0:0|1:0,0:0:0:0:
256,0,272229,1,0,1:0:0:0:
256,0,272324,1,0,1:0:0:0:
256,0,272419,6,0,P|366:24|398:96,1,200,0|0,1:0|0:0,0:0:0:0:
256,192,272989,1,0,0:0:0:0:
398,95,273179,2,0,P|302:84|256:0,1,200,0|0,0:0|1:0,0:0:0:0:
256,332,273748,1,0,1:0:0:0:
256,0,273938,2,0,P|146:24|114:96,1,200,0|0,1:0|0:0,0:0:0:0:
256,256,274508,1,0,0:0:0:0:
113,95,274698,2,0,P|209:84|256:0,1,200,0|0,0:0|1:0,0:0:0:0:
255,384,275267,1,0,1:0:0:0:
255,384,275362,1,0,1:0:0:0:
255,384,275457,6,0,B|167:332|80:360|52:368,1,200,0|0,1:0|0:0,0:0:0:0:
256,192,276027,1,0,0:0:0:0:
255,384,276217,2,0,B|223:280|132:260|132:260|96:252,1,200,0|0,0:0|1:0,0:0:0:0:
256,128,276786,1,0,1:0:0:0:
257,384,276976,2,0,B|289:280|380:260|380:260|416:252,1,200,0|0,1:0|0:0,0:0:0:0:
256,64,277546,1,0,0:0:0:0:
257,384,277736,2,0,B|345:332|432:360|432:360|460:368,1,200,0|0,0:0|1:0,0:0:0:0:
256,0,278305,1,0,1:0:0:0:
212,320,278495,6,4,B|192:312|180:304|180:304|156:284|156:284|136:256|136:256|124:224|124:224|120:192|120:192|124:160|124:160|136:128|136:128|156:100|156:100|180:80|180:80|212:64|212:64|256:56|256:56|300:64|300:64|332:80|332:80|356:100|356:100|376:128|376:128|388:160|388:160|392:192|392:192|388:224|388:224|376:256|376:256|356:284|356:284|332:304|332:304|320:312|300:320,1,761.200018583985,4|4,1:0|1:1,0:0:0:0:
256,192,283052,5,2,0:0:0:0:
