osu file format v14

[General]
AudioFilename: audio.mp3
AudioLeadIn: 0
PreviewTime: 122349
Countdown: 0
SampleSet: Soft
StackLeniency: 0.5
Mode: 0
LetterboxInBreaks: 1
WidescreenStoryboard: 0

[Editor]
Bookmarks: 28600
DistanceSpacing: 1.2
BeatDivisor: 8
GridSize: 4
TimelineZoom: 3.600004

[Metadata]
Title:I Miss U
TitleUnicode:I Miss U
Artist:Hoaprox
ArtistUnicode:Hoaprox
Creator:Shortthu
Version:LOV3
Source:
Tags:LOV3 Diversity Tech Beat Records Vietnamese Progressive House Shamwow
BeatmapID:1020050
BeatmapSetID:477495

[Difficulty]
HPDrainRate:6
CircleSize:3.5
OverallDifficulty:6
ApproachRate:8
SliderMultiplier:1.79999990463257
SliderTickRate:1

[Events]
//Background and Video events
0,0,"54261005_p0.jpg",0,0
//Break Periods
2,47550,61600
//Storyboard Layer 0 (Background)
//Storyboard Layer 1 (Fail)
//Storyboard Layer 2 (Pass)
//Storyboard Layer 3 (Foreground)
//Storyboard Sound Samples

[TimingPoints]
475,468.75,4,3,1,100,1,0
13599,-100,4,1,1,50,0,0
14303,-100,4,2,1,50,0,0
14537,-100,4,1,1,50,0,0
15240,-100,4,2,1,50,0,0
15475,-100,4,1,1,50,0,0
16177,-100,4,2,1,50,0,0
16411,-100,4,1,1,50,0,0
17114,-100,4,3,1,100,0,0
17349,-100,4,1,1,50,0,0
18053,-100,4,2,1,50,0,0
18287,-100,4,1,1,50,0,0
18990,-100,4,2,1,50,0,0
19225,-100,4,1,1,50,0,0
19928,-100,4,2,1,50,0,0
20162,-100,4,1,1,50,0,0
20864,-100,4,3,1,100,0,0
21099,-100,4,1,1,50,0,0
21803,-100,4,2,1,50,0,0
22037,-100,4,1,1,50,0,0
22740,-100,4,2,1,50,0,0
22975,-100,4,1,1,50,0,0
23678,-100,4,2,1,50,0,0
23912,-100,4,1,1,50,0,0
24614,-100,4,3,1,100,0,0
24849,-100,4,1,1,50,0,0
25553,-100,4,2,1,50,0,0
25787,-100,4,1,1,50,0,0
28130,-100,4,3,1,100,0,0
28599,-100,4,2,1,50,0,0
43130,-100,4,3,1,100,0,0
43364,-100,4,2,1,50,0,0
47350,-200,4,2,1,50,0,0
62349,-100,4,2,1,25,0,0
63258,468.75,4,2,1,25,1,0
66099,468.75,4,2,1,25,1,0
77349,-100,4,1,1,25,0,0
96099,-66.6666666666667,4,2,1,50,0,0
111099,-66.6666666666667,4,3,1,50,0,0
118481,-100,4,2,1,50,0,0
126099,-66.6666666666667,4,1,1,50,0,1
127388,-66.6666666666667,4,1,1,5,0,1
127505,-66.6666666666667,4,1,1,50,0,1
128325,-66.6666666666667,4,1,1,5,0,1
128442,-66.6666666666667,4,1,1,50,0,1
131138,-66.6666666666667,4,1,1,5,0,1
131255,-66.6666666666667,4,1,1,50,0,1
132075,-66.6666666666667,4,1,1,5,0,1
132192,-66.6666666666667,4,1,1,50,0,1
134888,-66.6666666666667,4,1,1,5,0,1
135005,-66.6666666666667,4,1,1,50,0,1
135825,-66.6666666666667,4,1,1,5,0,1
135942,-66.6666666666667,4,1,1,50,0,1
138638,-66.6666666666667,4,1,1,5,0,1
138755,-66.6666666666667,4,1,1,50,0,1
139575,-66.6666666666667,4,1,1,5,0,1
139692,-66.6666666666667,4,1,1,50,0,1
140513,-66.6666666666667,4,1,1,5,0,1
140630,-100,4,3,1,100,0,0
141099,-66.6666666666667,4,1,1,50,0,1
142388,-66.6666666666667,4,1,1,5,0,1
142505,-66.6666666666667,4,1,1,50,0,1
143325,-66.6666666666667,4,1,1,5,0,1
143442,-66.6666666666667,4,1,1,50,0,1
146138,-66.6666666666667,4,1,1,5,0,1
146255,-66.6666666666667,4,1,1,50,0,1
147075,-66.6666666666667,4,1,1,5,0,1
147192,-66.6666666666667,4,1,1,50,0,1
149888,-66.6666666666667,4,1,1,5,0,1
150005,-66.6666666666667,4,1,1,50,0,1
150825,-66.6666666666667,4,1,1,5,0,1
150942,-66.6666666666667,4,1,1,50,0,1
152349,-100,4,1,1,50,0,1
155630,-100,4,3,1,100,0,0
156099,-66.6666666666667,4,1,1,50,0,1
158794,-66.6666666666667,4,1,1,5,0,1
158911,-66.6666666666667,4,1,1,50,0,1
161138,-66.6666666666667,4,1,1,5,0,1
161255,-66.6666666666667,4,1,1,50,0,1
164888,-66.6666666666667,4,1,1,5,0,1
165005,-66.6666666666667,4,1,1,50,0,1
166294,-66.6666666666667,4,1,1,5,0,1
166411,-66.6666666666667,4,1,1,50,0,1
169224,-66.6666666666667,4,1,1,50,0,1
170630,-100,4,1,1,100,0,1
171099,-100,4,2,1,25,0,0
174849,-200,4,2,1,25,0,0
189790,476.190476190476,4,2,1,25,1,0
193599,468.75,4,2,1,25,1,0
204849,-100,4,1,1,25,0,0
223599,-66.6666666666667,4,2,1,50,0,0
230630,-100,4,2,1,50,0,0
231099,-66.6666666666667,4,2,1,50,0,0
238599,-66.6666666666667,4,3,1,50,0,0
245981,-100,4,2,1,50,0,0
253599,-66.6666666666667,4,1,1,50,0,1
268130,-100,4,3,1,100,0,0
268599,-66.6666666666667,4,1,1,50,0,1
283130,-100,4,3,1,100,0,0
283599,-66.6666666666667,4,1,1,50,0,1
298130,-66.6666666666667,4,3,1,100,0,1
298599,-100,4,2,1,50,0,0

[HitObjects]
256,192,10787,12,0,13131,0:0:0:0:
132,108,13600,5,0,0:0:0:0:
216,44,13834,1,0,0:0:0:0:
296,116,14068,2,0,L|392:192,1,89.9999952316285
480,276,14537,1,0,0:0:0:0:
380,240,14771,1,0,0:0:0:0:
292,304,15006,2,0,P|228:332|184:320,1,89.9999952316285
120,204,15475,5,0,0:0:0:0:
224,228,15709,1,0,0:0:0:0:
216,120,15943,2,0,P|216:60|240:20,1,89.9999952316285
368,100,16412,1,0,0:0:0:0:
464,36,16646,1,0,0:0:0:0:
500,148,16881,1,0,0:0:0:0:
444,252,17115,1,0,0:0:0:0:
292,232,17350,6,0,P|284:184|260:144,1,89.9999952316285
172,92,17818,2,0,L|72:92,1,89.9999952316285
88,244,18287,1,0,0:0:0:0:
180,296,18521,1,0,0:0:0:0:
276,244,18756,2,0,P|348:228|392:248,1,89.9999952316285
444,100,19225,6,0,P|400:48|356:40,1,89.9999952316285
272,40,19693,2,0,L|152:40,1,89.9999952316285
104,116,20162,1,0,0:0:0:0:
152,212,20396,1,0,0:0:0:0:
260,204,20631,1,0,0:0:0:0:
284,100,20865,1,0,0:0:0:0:
404,52,21100,6,0,P|460:72|484:116,1,89.9999952316285
480,204,21568,2,0,P|444:230|429:272,1,89.9999952316285
328,240,22037,1,0,0:0:0:0:
348,348,22271,1,0,0:0:0:0:
240,348,22506,2,0,P|172:312|132:320,1,89.9999952316285
84,180,22975,5,0,0:0:0:0:
120,80,23209,1,0,0:0:0:0:
200,156,23443,2,0,L|260:224,1,89.9999952316285
364,256,23912,2,0,P|424:224|432:188,1,89.9999952316285
416,100,24381,1,0,0:0:0:0:
324,40,24615,1,0,0:0:0:0:
172,64,24850,5,0,0:0:0:0:
232,152,25084,1,0,0:0:0:0:
164,236,25318,2,0,P|136:292|144:332,1,89.9999952316285
284,360,25787,1,0,0:0:0:0:
376,304,26021,1,0,0:0:0:0:
280,256,26256,1,0,0:0:0:0:
236,160,26490,6,0,P|244:104|356:48,1,179.999990463257
452,60,27193,1,0,0:0:0:0:
256,192,27310,12,0,28131,0:0:0:0:
132,96,28600,5,0,0:0:0:0:
148,248,28834,1,0,0:0:0:0:
272,156,29068,1,0,0:0:0:0:
120,176,29303,1,0,0:0:0:0:
232,72,29537,2,0,P|288:44|328:40,1,89.9999952316285
464,68,30006,1,0,0:0:0:0:
472,220,30240,2,0,L|472:316,1,89.9999952316285
300,248,30709,5,0,0:0:0:0:
164,316,30943,1,0,0:0:0:0:
144,180,31178,2,0,P|176:136|208:120,1,89.9999952316285
248,268,31646,1,0,0:0:0:0:
360,164,31881,1,0,0:0:0:0:
432,300,32115,2,0,L|448:332,1,22.4999988079071
260,352,32350,6,0,P|208:328|180:272,1,89.9999952316285
140,160,32818,1,0,0:0:0:0:
196,16,33053,1,0,0:0:0:0:
320,103,33287,2,0,P|334:145|369:173,1,89.9999952316285
481,68,33755,1,0,0:0:0:0:
432,212,33990,2,0,L|344:288,1,89.9999952316285
220,160,34459,5,0,0:0:0:0:
148,296,34693,2,0,P|96:224|96:184,1,89.9999952316285
196,108,35162,1,0,0:0:0:0:
80,8,35396,1,0,0:0:0:0:
232,28,35631,1,0,0:0:0:0:
248,180,35865,2,0,L|252:216,1,22.4999988079071
404,272,36100,5,0,0:0:0:0:
272,348,36334,1,0,0:0:0:0:
260,324,36568,1,0,0:0:0:0:
108,336,36803,1,0,0:0:0:0:
124,316,37037,1,0,0:0:0:0:
68,176,37271,1,0,0:0:0:0:
96,180,37506,1,0,0:0:0:0:
168,44,37740,2,0,L|272:44,1,89.9999952316285
408,144,38209,5,0,0:0:0:0:
256,156,38443,1,0,0:0:0:0:
388,80,38678,2,0,P|344:12|320:4,1,89.9999952316285
208,88,39146,1,0,0:0:0:0:
344,160,39381,1,0,0:0:0:0:
200,204,39615,2,0,L|164:216,1,22.4999988079071
344,312,39850,6,0,L|254:312,1,89.9999952316285
212,228,40318,2,0,L|302:228,1,89.9999952316285
368,140,40787,2,0,L|278:140,1,89.9999952316285
168,140,41256,1,0,0:0:0:0:
56,36,41490,2,0,P|32:112|36:156,1,89.9999952316285
40,300,41959,5,0,0:0:0:0:
188,340,42193,1,0,0:0:0:0:
264,208,42427,1,0,0:0:0:0:
112,204,42661,1,0,0:0:0:0:
188,72,42896,1,0,0:0:0:0:
264,208,43131,1,0,0:0:0:0:
112,204,43365,2,0,L|124:236,1,22.4999988079071
256,192,43482,12,0,47350,0:0:0:0:
104,112,62350,5,0,0:0:0:0:
104,112,62584,1,0,0:0:0:0:
104,112,62818,1,0,0:0:0:0:
292,328,63258,2,0,P|360:312|376:284,1,89.9999952316285
416,200,63726,1,0,0:0:0:0:
404,92,63961,2,0,L|388:64,1,22.4999988079071
124,64,64429,5,0,0:0:0:0:
84,212,64664,1,0,0:0:0:0:
232,176,64898,1,0,0:0:0:0:
84,212,65133,1,0,0:0:0:0:
240,300,65367,2,0,P|304:284|336:308,1,89.9999952316285
448,204,65836,1,0,0:0:0:0:
328,44,66099,5,0,0:0:0:0:
220,32,66333,2,0,P|168:52|152:84,1,89.9999952316285
328,332,67036,2,0,L|228:308,1,89.9999952316285
136,288,67505,1,0,0:0:0:0:
68,204,67739,2,0,L|48:168,1,22.4999988079071
