osu file format v14

[General]
AudioFilename: audio.mp3
AudioLeadIn: 0
PreviewTime: 46430
Countdown: 0
SampleSet: Normal
StackLeniency: 0.7
Mode: 1
LetterboxInBreaks: 0
WidescreenStoryboard: 0

[Editor]
DistanceSpacing: 0.8
BeatDivisor: 16
GridSize: 32
TimelineZoom: 4.299998

[Metadata]
Title:See Tinh (Sped Up & Cut Ver.)
TitleUnicode:See Tình (Sped Up & Cut Ver.)
Artist:Hoang Thuy Linh
ArtistUnicode:Hoàng Thùy Linh
Creator:Boaz
Version:Sway
Source:
Tags:vietnamese pop v-pop vpop v tiktok tik tok lovesick nightcore
BeatmapID:4168854
BeatmapSetID:2004615

[Difficulty]
HPDrainRate:7
CircleSize:5
OverallDifficulty:6
ApproachRate:5
SliderMultiplier:1.4
SliderTickRate:1

[Events]
//Background and Video events
0,0,"caf0e366ad1bab85ebc51161ce8397e6.jpg",0,70
Video,103,"output.mp4"
//Break Periods
//Storyboard Layer 0 (Background)
//Storyboard Layer 1 (Fail)
//Storyboard Layer 2 (Pass)
//Storyboard Layer 3 (Foreground)
//Storyboard Layer 4 (Overlay)
//Storyboard Sound Samples

[TimingPoints]
8227,479.041916167665,4,1,0,70,1,0
8227,-100,4,1,0,70,0,0
23076,-100,4,1,0,70,0,0
23196,-101.293304,4,1,0,70,0,0
23315,-102.59234,4,1,0,70,0,0
23435,-103.919174,4,1,0,70,0,0
23555,-105.26316,4,1,0,70,0,0
24992,-105.26316,4,1,0,70,0,0
25351,-101.293304,4,1,0,70,0,0
25471,-100,4,1,0,70,0,0
37447,-100,4,1,0,70,0,0
37687,-103.79714,4,1,0,70,0,0
37806,-105.733025,4,1,0,70,0,0
38046,-109.747856,4,1,0,70,0,0
38166,-111.81208,4,1,0,70,0,0
38405,-116.03973,4,1,0,70,0,0
38525,-118.2223,4,1,0,70,0,0
38645,-120.44592,4,1,0,70,0,0
38764,-122.69231,4,1,0,70,0,0
38884,-125.00001,4,1,0,55,0,0
46549,-125.00001,4,1,0,70,0,0
46788,-123.84559,4,1,0,70,0,0
47028,-122.69708,4,1,0,70,0,0
47267,-121.56393,4,1,0,70,0,0
47507,-120.43658,4,1,0,70,0,0
47986,-118.217705,4,1,0,70,0,0
48465,-116.03973,4,1,0,70,0,0
48705,-114.9636,4,1,0,70,0,0
48944,-113.90186,4,1,0,70,0,0
49184,-112.84557,4,1,0,70,0,0
49423,-111.803406,4,1,0,70,0,0
49902,-109.74361,4,1,0,70,0,0
50142,-108.72586,4,1,0,70,0,0
50381,-107.72175,4,1,0,70,0,0
50621,-106.72276,4,1,0,70,0,0
50860,-105.73712,4,1,0,70,0,0
51100,-104.756546,4,1,0,70,0,0
51339,-103.789085,4,1,0,70,0,0
51818,-101.87693,4,1,0,70,0,0
52058,-100.932144,4,1,0,70,0,0
52297,-100.00001,4,1,0,70,0,0
53016,-100.000015,4,1,0,70,0,0
53096,-99.36556,4,1,0,70,0,0
53176,-98.73515,4,1,0,70,0,0
53255,-98.11654,4,1,0,70,0,0
53406,-96.8755,4,1,0,70,0,0
53655,-95.04332,4,1,0,70,0,0
53734,-94.447845,4,1,0,70,0,0
53894,-93.25322,4,1,0,70,0,0
53974,-92.661575,4,1,0,70,0,0
54215,-90.90909,4,1,0,75,0,1
67628,-90.90909,4,1,0,70,0,0
67866,-91.99635,4,1,0,70,0,0
68106,-93.10124,4,1,0,70,0,0
68345,-94.21473,4,1,0,70,0,0
68465,-94.7788,4,1,0,70,0,0
68585,-95.34626,4,1,0,70,0,0
68824,-96.486595,4,1,0,70,0,0
69064,-97.64541,4,1,0,70,0,0
69543,-100,4,1,0,45,0,0

[HitObjects]
263,169,8227,5,12,0:0:0:0:
263,169,8466,1,0,0:0:0:0:
263,169,8706,1,8,0:0:0:0:
263,169,8945,1,8,0:0:0:0:
263,169,9185,1,0,0:0:0:0:
263,169,9664,1,0,0:0:0:0:
263,169,9783,1,0,0:0:0:0:
263,169,9903,1,8,0:0:0:0:
263,169,10143,1,0,0:0:0:0:
263,169,10382,1,0,0:0:0:0:
263,169,10502,1,0,0:0:0:0:
263,169,10622,1,8,0:0:0:0:
263,169,10741,1,0,0:0:0:0:
263,169,10861,1,8,0:0:0:0:
263,169,11101,1,0,0:0:0:0:
263,169,11580,1,8,0:0:0:0:
257,141,11819,1,0,0:0:0:0:
263,169,12059,1,0,0:0:0:0:
263,169,12298,1,0,0:0:0:0:
263,169,12538,1,8,0:0:0:0:
263,169,12777,1,0,0:0:0:0:
263,169,13017,1,8,0:0:0:0:
263,169,13496,1,8,0:0:0:0:
263,169,13616,1,8,0:0:0:0:
263,169,13735,1,0,0:0:0:0:
263,169,13975,1,0,0:0:0:0:
263,169,14215,1,8,0:0:0:0:
263,169,14334,1,0,0:0:0:0:
263,169,14454,1,8,0:0:0:0:
263,169,14694,1,0,0:0:0:0:
263,169,14813,1,8,0:0:0:0:
270,158,14933,1,8,0:0:0:0:
269,172,15053,1,0,0:0:0:0:
306,216,15173,1,8,0:0:0:0:
263,169,15412,1,8,0:0:0:0:
263,169,15532,1,8,0:0:0:0:
263,169,15652,1,8,0:0:0:0:
263,169,15771,1,8,0:0:0:0:
263,169,15891,1,0,0:0:0:0:
269,173,16131,1,0,0:0:0:0:
269,173,16370,1,8,0:0:0:0:
269,173,16610,1,8,0:0:0:0:
269,173,16849,1,0,0:0:0:0:
269,173,17328,1,8,0:0:0:0:
269,173,17448,1,0,0:0:0:0:
269,173,17568,1,8,0:0:0:0:
269,173,17807,1,0,0:0:0:0:
269,173,18047,1,0,0:0:0:0:
269,173,18167,1,0,0:0:0:0:
269,173,18286,1,8,0:0:0:0:
269,173,18526,1,8,0:0:0:0:
269,173,18765,1,0,0:0:0:0:
269,173,19005,1,0,0:0:0:0:
269,173,19244,1,8,0:0:0:0:
269,173,19724,1,0,0:0:0:0:
269,173,19963,1,0,0:0:0:0:
269,173,20203,1,8,0:0:0:0:
269,173,20442,1,0,0:0:0:0:
269,173,20682,1,8,0:0:0:0:
269,173,21161,1,8,0:0:0:0:
269,173,21280,1,0,0:0:0:0:
269,173,21400,1,8,0:0:0:0:
269,173,21640,1,0,0:0:0:0:
264,173,21879,1,0,0:0:0:0:
264,173,21999,1,0,0:0:0:0:
264,173,22119,1,8,0:0:0:0:
264,173,22358,1,0,0:0:0:0:
269,173,22478,1,8,0:0:0:0:
264,173,22598,1,0,0:0:0:0:
264,173,22718,1,0,0:0:0:0:
264,173,22837,1,8,0:0:0:0:
264,173,23077,1,8,0:0:0:0:
264,173,23197,1,0,0:0:0:0:
264,173,23316,1,8,0:0:0:0:
264,173,23436,1,8,0:0:0:0:
269,173,23556,1,0,0:0:0:0:
265,174,24993,1,0,0:0:0:0:
265,174,25352,1,8,0:0:0:0:
265,174,25472,1,0,0:0:0:0:
265,174,25712,1,0,0:0:0:0:
265,174,25951,1,8,0:0:0:0:
265,174,26191,1,8,0:0:0:0:
265,174,26310,1,8,0:0:0:0:
265,174,26430,1,0,0:0:0:0:
265,174,26670,1,8,0:0:0:0:
265,174,26909,1,8,0:0:0:0:
265,174,27029,1,0,0:0:0:0:
265,174,27149,1,8,0:0:0:0:
265,174,27268,1,8,0:0:0:0:
265,174,27388,1,0,0:0:0:0:
265,174,27628,1,0,0:0:0:0:
265,174,27867,1,8,0:0:0:0:
265,174,28107,1,8,0:0:0:0:
265,174,28346,1,0,0:0:0:0:
265,174,28586,1,0,0:0:0:0:
265,174,28825,1,8,0:0:0:0:
265,174,29185,1,8,0:0:0:0:
265,174,29304,1,0,0:0:0:0:
265,174,29544,1,0,0:0:0:0:
265,174,29783,1,8,0:0:0:0:
265,174,30023,1,0,0:0:0:0:
265,174,30143,1,0,0:0:0:0:
265,174,30262,1,8,0:0:0:0:
265,174,30382,1,0,0:0:0:0:
265,174,30502,1,8,0:0:0:0:
265,174,30741,1,8,0:0:0:0:
265,174,30861,1,8,0:0:0:0:
265,174,30981,1,8,0:0:0:0:
265,174,31101,1,8,0:0:0:0:
265,174,31221,1,0,0:0:0:0:
265,174,31460,1,0,0:0:0:0:
265,174,31700,1,8,0:0:0:0:
265,174,31939,1,0,0:0:0:0:
265,174,32179,1,0,0:0:0:0:
265,174,32418,1,0,0:0:0:0:
265,174,32658,1,8,0:0:0:0:
265,174,33017,1,8,0:0:0:0:
265,174,33137,1,0,0:0:0:0:
265,174,33376,1,0,0:0:0:0:
265,174,33616,1,8,0:0:0:0:
265,174,33855,1,8,0:0:0:0:
265,174,33975,1,8,0:0:0:0:
265,174,34095,1,0,0:0:0:0:
265,174,34334,1,0,0:0:0:0:
265,174,34574,1,8,0:0:0:0:
265,174,34694,1,8,0:0:0:0:
250,168,34813,1,8,0:0:0:0:
265,174,34933,1,8,0:0:0:0:
265,174,35053,1,0,0:0:0:0:
250,168,35292,1,8,0:0:0:0:
250,168,35532,1,8,0:0:0:0:
250,168,35652,1,0,0:0:0:0:
250,168,35771,1,8,0:0:0:0:
250,168,35891,1,8,0:0:0:0:
250,168,36011,1,0,0:0:0:0:
250,168,36250,1,8,0:0:0:0:
250,168,36490,1,0,0:0:0:0:
250,168,36610,1,0,0:0:0:0:
250,168,36729,1,8,0:0:0:0:
250,168,36849,1,8,0:0:0:0:
250,168,36969,1,0,0:0:0:0:
250,168,37209,1,0,0:0:0:0:
250,168,37448,1,8,0:0:0:0:
250,168,37688,1,8,0:0:0:0:
250,168,37807,1,0,0:0:0:0:
250,168,38047,1,0,0:0:0:0:
250,168,38167,1,8,0:0:0:0:
250,168,38406,1,8,0:0:0:0:
250,168,38526,1,8,0:0:0:0:
250,168,38646,1,0,0:0:0:0:
250,168,38765,1,8,0:0:0:0:
250,168,38885,1,0,0:0:0:0:
250,168,39364,1,8,0:0:0:0:
250,168,40322,1,8,0:0:0:0:
250,168,41280,1,8,0:0:0:0:
250,168,42238,1,8,0:0:0:0:
250,168,43197,1,8,0:0:0:0:
250,168,44155,1,8,0:0:0:0:
250,168,45113,1,8,0:0:0:0:
250,168,46071,1,8,0:0:0:0:
250,168,46550,1,0,0:0:0:0:
250,168,46789,1,0,0:0:0:0:
250,168,47029,1,8,0:0:0:0:
250,168,47268,1,8,0:0:0:0:
250,168,47508,1,0,0:0:0:0:
250,168,47987,1,8,0:0:0:0:
250,168,48466,1,8,0:0:0:0:
250,168,48706,1,0,0:0:0:0:
250,168,48945,1,8,0:0:0:0:
250,168,49185,1,8,0:0:0:0:
250,168,49424,1,0,0:0:0:0:
250,168,49903,1,8,0:0:0:0:
250,168,50143,1,0,0:0:0:0:
250,168,50382,1,0,0:0:0:0:
250,168,50622,1,0,0:0:0:0:
250,168,50861,1,8,0:0:0:0:
250,168,51101,1,8,0:0:0:0:
250,168,51340,1,0,0:0:0:0:
250,168,51819,1,8,0:0:0:0:
250,168,52059,1,8,0:0:0:0:
250,168,52298,1,0,0:0:0:0:
250,168,53017,1,8,0:0:0:0:
250,168,53097,1,0,0:0:0:0:
250,168,53177,1,0,0:0:0:0:
250,168,53256,1,8,0:0:0:0:
274,138,53406,1,0,0:0:0:0:
274,138,53656,1,0,0:0:0:0:
274,138,53735,1,8,0:0:0:0:
274,138,53895,1,8,0:0:0:0:
274,138,53975,1,0,0:0:0:0:
274,138,54215,1,8,0:0:0:0:
253,139,54334,1,0,0:0:0:0:
253,139,54454,1,8,0:0:0:0:
253,139,54574,1,8,0:0:0:0:
253,139,54694,1,0,0:0:0:0:
253,139,54813,1,0,0:0:0:0:
253,139,54933,1,8,0:0:0:0:
253,139,55053,1,8,0:0:0:0:
252,139,55173,1,0,0:0:0:0:
253,139,55412,1,0,0:0:0:0:
253,139,55652,1,8,0:0:0:0:
252,139,56131,1,0,0:0:0:0:
253,139,56250,1,0,0:0:0:0:
253,139,56370,1,8,0:0:0:0:
253,139,56490,1,0,0:0:0:0:
253,139,56610,1,8,0:0:0:0:
253,139,56729,1,8,0:0:0:0:
252,139,56849,1,0,0:0:0:0:
252,139,56969,1,8,0:0:0:0:
252,139,57089,1,0,0:0:0:0:
253,139,57328,1,8,0:0:0:0:
253,139,57568,1,8,0:0:0:0:
253,139,57688,1,8,0:0:0:0:
252,139,57807,1,0,0:0:0:0:
252,139,58047,1,8,0:0:0:0:
254,123,58167,1,8,0:0:0:0:
254,123,58286,1,0,0:0:0:0:
253,123,58406,1,8,0:0:0:0:
253,123,58526,1,0,0:0:0:0:
253,123,58646,1,0,0:0:0:0:
253,123,58765,1,8,0:0:0:0:
253,123,58885,1,0,0:0:0:0:
253,123,59005,1,8,0:0:0:0:
254,123,59244,1,0,0:0:0:0:
253,123,59484,1,8,0:0:0:0:
253,123,59963,1,0,0:0:0:0:
254,123,60203,1,0,0:0:0:0:
253,123,60442,1,8,0:0:0:0:
253,123,60682,1,8,0:0:0:0:
253,123,60801,1,8,0:0:0:0:
253,123,60921,1,0,0:0:0:0:
237,149,61041,1,8,0:0:0:0:
254,123,61161,1,0,0:0:0:0:
253,123,61400,1,8,0:0:0:0:
253,123,61520,1,0,0:0:0:0:
262,109,61640,1,8,0:0:0:0:
262,109,61879,1,0,0:0:0:0:
262,109,61999,1,0,0:0:0:0:
262,109,62119,1,8,0:0:0:0:
266,104,62238,1,0,0:0:0:0:
266,104,62358,1,8,0:0:0:0:
266,104,62478,1,8,0:0:0:0:
266,104,62598,1,0,0:0:0:0:
266,104,62718,1,8,0:0:0:0:
266,104,62837,1,0,0:0:0:0:
266,104,63077,1,0,0:0:0:0:
257,123,63316,1,8,0:0:0:0:
257,123,63795,1,8,0:0:0:0:
257,123,63915,1,0,0:0:0:0:
257,123,64035,1,8,0:0:0:0:
257,123,64155,1,8,0:0:0:0:
257,123,64274,1,0,0:0:0:0:
257,123,64394,1,0,0:0:0:0:
257,123,64514,1,8,0:0:0:0:
257,123,64634,1,8,0:0:0:0:
257,123,64753,1,0,0:0:0:0:
257,123,64993,1,8,0:0:0:0:
257,123,65232,1,8,0:0:0:0:
257,123,65352,1,8,0:0:0:0:
257,123,65472,1,0,0:0:0:0:
257,123,65712,1,8,0:0:0:0:
257,123,65831,1,8,0:0:0:0:
257,123,65951,1,0,0:0:0:0:
257,123,66071,1,8,0:0:0:0:
257,123,66191,1,0,0:0:0:0:
257,123,66310,1,0,0:0:0:0:
257,123,66430,1,8,0:0:0:0:
257,123,66550,1,8,0:0:0:0:
257,123,66670,1,0,0:0:0:0:
257,123,66909,1,0,0:0:0:0:
257,123,67149,1,8,0:0:0:0:
257,123,67268,1,0,0:0:0:0:
257,123,67388,1,8,0:0:0:0:
257,123,67508,1,8,0:0:0:0:
257,123,67628,1,0,0:0:0:0:
257,123,67867,1,0,0:0:0:0:
257,123,68107,1,8,0:0:0:0:
257,123,68346,1,8,0:0:0:0:
257,123,68466,1,8,0:0:0:0:
257,123,68586,1,0,0:0:0:0:
257,123,68825,1,0,0:0:0:0:
257,123,69065,1,8,0:0:0:0:
256,192,69544,12,0,73376,0:0:0:0:
