osu file format v14

[General]
AudioFilename: audio.mp3
AudioLeadIn: 0
PreviewTime: 46430
Countdown: 0
SampleSet: Normal
StackLeniency: 0.7
Mode: 1
LetterboxInBreaks: 0
WidescreenStoryboard: 1

[Editor]
DistanceSpacing: 0.8
BeatDivisor: 4
GridSize: 32
TimelineZoom: 3

[Metadata]
Title:See Tinh (Sped Up & Cut Ver.)
TitleUnicode:See Tình (Sped Up & Cut Ver.)
Artist:Hoang Thuy Linh
ArtistUnicode:Hoàng Thùy Linh
Creator:Boaz
Version:Kantan
Source:
Tags:vietnamese pop v-pop vpop v tiktok tik tok lovesick nightcore
BeatmapID:4168883
BeatmapSetID:2004615

[Difficulty]
HPDrainRate:10
CircleSize:5
OverallDifficulty:3
ApproachRate:5
SliderMultiplier:1.4
SliderTickRate:1

[Events]
//Background and Video events
0,0,"caf0e366ad1bab85ebc51161ce8397e6.jpg",0,70
Video,103,"output.mp4"
//Break Periods
2,39085,45350
//Storyboard Layer 0 (Background)
//Storyboard Layer 1 (Fail)
//Storyboard Layer 2 (Pass)
//Storyboard Layer 3 (Foreground)
//Storyboard Layer 4 (Overlay)
//Storyboard Sound Samples

[TimingPoints]
8227,479.041916167665,4,1,0,70,1,0
8227,-100,4,1,0,70,0,0
23076,-100,4,1,0,70,0,0
23196,-100,4,1,0,70,0,0
23315,-100,4,1,0,70,0,0
23435,-100,4,1,0,70,0,0
23555,-100,4,1,0,70,0,0
24992,-100,4,1,0,70,0,0
25351,-100,4,1,0,70,0,0
25471,-100,4,1,0,70,0,0
37447,-100,4,1,0,70,0,0
37687,-100,4,1,0,70,0,0
37806,-100,4,1,0,70,0,0
38046,-100,4,1,0,70,0,0
38166,-100,4,1,0,70,0,0
38405,-100,4,1,0,70,0,0
38525,-100,4,1,0,70,0,0
38645,-100,4,1,0,70,0,0
38764,-100,4,1,0,70,0,0
38884,-100,4,1,0,55,0,0
46549,-100,4,1,0,70,0,0
46788,-100,4,1,0,70,0,0
47028,-100,4,1,0,70,0,0
47267,-100,4,1,0,70,0,0
47507,-100,4,1,0,70,0,0
47986,-100,4,1,0,70,0,0
48465,-100,4,1,0,70,0,0
48705,-100,4,1,0,70,0,0
48944,-100,4,1,0,70,0,0
49184,-100,4,1,0,70,0,0
49423,-100,4,1,0,70,0,0
49902,-100,4,1,0,70,0,0
50142,-100,4,1,0,70,0,0
50381,-100,4,1,0,70,0,0
50621,-100,4,1,0,70,0,0
50860,-100,4,1,0,70,0,0
51100,-100,4,1,0,70,0,0
51339,-100,4,1,0,70,0,0
51818,-100,4,1,0,70,0,0
52058,-100,4,1,0,70,0,0
52297,-100,4,1,0,70,0,0
53016,-100,4,1,0,70,0,0
53096,-100,4,1,0,70,0,0
53176,-100,4,1,0,70,0,0
53255,-100,4,1,0,70,0,0
53415,-100,4,1,0,70,0,0
53655,-100,4,1,0,70,0,0
53734,-100,4,1,0,70,0,0
53894,-100,4,1,0,70,0,0
53974,-100,4,1,0,70,0,0
54215,-100,4,1,0,75,0,1
67628,-100,4,1,0,70,0,0
67866,-100,4,1,0,70,0,0
68106,-100,4,1,0,70,0,0
68345,-100,4,1,0,70,0,0
68465,-100,4,1,0,70,0,0
68585,-100,4,1,0,70,0,0
68824,-100,4,1,0,70,0,0
69064,-100,4,1,0,70,0,0
69543,-100,4,1,0,45,0,0

[HitObjects]
263,169,8227,5,12,0:0:0:0:
263,169,8706,1,8,0:0:0:0:
263,169,9185,1,0,0:0:0:0:
263,169,10143,1,0,0:0:0:0:
263,169,10622,1,8,0:0:0:0:
263,169,11101,1,0,0:0:0:0:
263,169,12059,1,8,0:0:0:0:
263,169,12538,1,8,0:0:0:0:
263,169,13017,1,0,0:0:0:0:
263,169,13975,1,0,0:0:0:0:
263,169,14454,1,8,0:0:0:0:
270,158,14933,1,0,0:0:0:0:
263,169,15891,1,0,0:0:0:0:
269,173,16370,1,8,0:0:0:0:
269,173,16849,1,0,0:0:0:0:
269,173,17807,1,8,0:0:0:0:
269,173,18286,1,8,0:0:0:0:
269,173,18765,1,0,0:0:0:0:
269,173,19724,1,0,0:0:0:0:
269,173,20203,1,8,0:0:0:0:
269,173,20682,1,8,0:0:0:0:
269,173,21640,1,8,0:0:0:0:
235,160,22119,1,8,0:0:0:0:
264,173,22598,1,8,0:0:0:0:
269,173,23556,1,0,0:0:0:0:
265,174,24993,1,0,0:0:0:0:
265,174,25472,1,8,0:0:0:0:
265,174,26430,1,8,0:0:0:0:
265,174,26909,1,8,0:0:0:0:
265,174,27388,1,0,0:0:0:0:
265,174,28346,1,0,0:0:0:0:
265,174,28825,1,8,0:0:0:0:
265,174,29304,1,0,0:0:0:0:
265,174,30262,1,0,0:0:0:0:
265,174,30741,1,0,0:0:0:0:
265,174,31221,1,0,0:0:0:0:
265,174,32179,1,0,0:0:0:0:
265,174,32658,1,8,0:0:0:0:
265,174,33137,1,0,0:0:0:0:
265,174,34574,1,8,0:0:0:0:
265,174,35053,1,0,0:0:0:0:
250,168,36011,1,8,0:0:0:0:
250,168,36969,1,0,0:0:0:0:
250,168,37448,1,8,0:0:0:0:
250,168,38406,1,8,0:0:0:0:
250,168,38885,1,0,0:0:0:0:
250,168,46550,5,0,0:0:0:0:
250,168,47029,1,8,0:0:0:0:
250,168,47508,1,0,0:0:0:0:
250,168,48466,1,8,0:0:0:0:
171,151,48945,1,0,0:0:0:0:
250,168,49424,1,0,0:0:0:0:
250,168,50382,1,0,0:0:0:0:
250,168,50861,1,8,0:0:0:0:
250,168,51340,1,0,0:0:0:0:
250,168,52298,1,0,0:0:0:0:
274,138,54215,1,8,0:0:0:0:
249,147,54694,1,8,0:0:0:0:
252,139,55173,1,0,0:0:0:0:
252,139,56131,1,8,0:0:0:0:
250,134,56610,1,0,0:0:0:0:
252,139,57089,1,0,0:0:0:0:
211,128,57568,1,8,0:0:0:0:
252,139,58047,1,8,0:0:0:0:
211,128,58526,1,0,0:0:0:0:
253,123,59005,1,0,0:0:0:0:
253,123,59963,1,8,0:0:0:0:
237,121,60442,1,0,0:0:0:0:
253,123,60921,1,8,0:0:0:0:
253,123,61400,1,0,0:0:0:0:
262,109,61879,1,0,0:0:0:0:
264,114,62358,1,8,0:0:0:0:
266,104,62837,1,0,0:0:0:0:
257,123,63795,1,8,0:0:0:0:
231,116,64274,1,8,0:0:0:0:
257,123,64753,1,0,0:0:0:0:
257,123,65232,1,8,0:0:0:0:
257,123,65712,1,8,0:0:0:0:
231,116,66191,1,8,0:0:0:0:
257,123,66670,1,0,0:0:0:0:
257,123,67628,1,0,0:0:0:0:
242,134,68107,1,8,0:0:0:0:
257,123,68586,1,8,0:0:0:0:
257,123,69065,1,0,0:0:0:0:
256,192,69544,12,0,73376,0:0:0:0:
