osu file format v14

[General]
AudioFilename: audio.mp3
AudioLeadIn: 0
PreviewTime: 59521
Countdown: 0
SampleSet: Soft
StackLeniency: 0.7
Mode: 0
LetterboxInBreaks: 0
WidescreenStoryboard: 0

[Editor]
Bookmarks: 6631,19099,44034,59618,84553,97021,100138,121956,137540,162475,174943,187410,215462,240398,252865,265333
DistanceSpacing: 0.3
BeatDivisor: 4
GridSize: 32
TimelineZoom: 1

[Metadata]
Title:Pure Pure Heart
TitleUnicode:ぴゅあぴゅあはーと
Artist:HO-KAGO TEA TIME
ArtistUnicode:放課後ティータイム
Creator:Seto Kousuke
Version:Insane
Source:K-ON!!
Tags:Pray for Kyoani HTT Season 2 Hikasa Yoko 日笠 陽子 Mio Akiyama Shirahane Suou Bossandy japanese anime
BeatmapID:2127752
BeatmapSetID:1016626

[Difficulty]
HPDrainRate:5
CircleSize:4
OverallDifficulty:8
ApproachRate:9
SliderMultiplier:1.6
SliderTickRate:1

[Events]
//Background and Video events
0,0,"Thank you Kyoto Animation!.jpg",0,0
//Break Periods
//Storyboard Layer 0 (Background)
//Storyboard Layer 1 (Fail)
//Storyboard Layer 2 (Pass)
//Storyboard Layer 3 (Foreground)
//Storyboard Layer 4 (Overlay)
//Storyboard Sound Samples

[TimingPoints]
405,389.61038961039,4,2,1,50,1,0
6638,-83.3333333333333,4,2,1,70,0,0
19106,-100,4,2,1,60,0,0
59625,-76.9230769230769,4,2,1,80,0,1
84560,-83.3333333333333,4,2,1,70,0,0
100145,-100,4,2,1,60,0,0
109106,-71.4285714285714,4,2,1,60,0,0
109495,-100,4,2,1,60,0,0
137547,-76.9230769230769,4,2,1,80,0,1
162482,-90.9090909090909,4,2,1,70,0,0
215469,-222.222222222221,4,2,1,80,0,0
217028,-100,4,2,1,65,0,0
218586,-76.9230769230769,4,2,1,90,0,1
240405,-76.9230769230769,4,2,1,80,0,0
269236,-76.9230769230769,4,2,1,40,0,0

[Colours]
Combo1 : 164,140,78
Combo2 : 179,121,26
Combo3 : 92,140,154
Combo4 : 80,69,72

[HitObjects]
93,46,405,6,0,P|132:47|183:33,1,80,4|0,3:2|0:0,0:0:0:0:
322,121,794,2,0,P|283:122|232:108,1,80,2|0,0:0|0:0,0:0:0:0:
71,140,1184,2,0,P|110:141|161:127,1,80,2|0,0:0|0:0,0:0:0:0:
300,215,1573,2,0,P|261:216|210:202,1,80,2|0,0:0|0:0,0:0:0:0:
49,234,1964,2,0,P|88:235|139:221,1,80,2|0,0:0|0:0,0:0:0:0:
278,309,2353,2,0,P|239:310|188:296,1,80,2|0,0:0|0:0,0:0:0:0:
17,338,2742,2,0,P|56:339|107:325,1,80,2|0,0:0|0:0,0:0:0:0:
257,209,3132,1,2,0:0:0:0:
375,335,3327,1,0,0:0:0:0:
375,335,3424,1,0,0:0:0:0:
375,335,3521,6,0,P|392:297|390:245,1,80,4|0,3:2|0:0,0:0:0:0:
488,160,3911,2,0,P|473:121|434:85,1,80,2|0,0:0|0:0,0:0:0:0:
324,0,4301,2,0,P|307:38|309:90,1,80,2|0,0:0|0:0,0:0:0:0:
211,175,4691,2,0,P|225:213|264:249,1,80,2|0,0:0|0:0,0:0:0:0:
92,361,5080,5,8,3:2:0:0:
92,361,5275,2,0,P|95:306|69:266,1,80,4|0,3:0|0:0,0:0:0:0:
53,266,5567,1,8,3:2:0:0:
53,266,5664,1,8,3:2:0:0:
140,166,5859,1,8,3:2:0:0:
30,74,6054,1,8,3:2:0:0:
30,74,6151,1,8,3:2:0:0:
30,74,6249,2,0,L|35:134,1,40,8|8,3:2|3:2,0:0:0:0:
113,75,6443,2,0,L|110:36,1,40,0|0,3:0|3:0,0:0:0:0:
210,27,6638,6,0,L|222:224,1,191.999994140625,4|8,3:2|0:2,0:0:0:0:
372,306,7223,1,0,3:0:0:0:
372,306,7320,1,8,0:2:0:0:
372,306,7417,2,0,P|305:299|260:311,1,95.9999970703126,0|0,3:0|3:0,0:0:0:0:
86,319,7807,2,0,P|153:326|198:314,1,95.9999970703126,8|0,0:2|3:0,0:0:0:0:
409,218,8197,6,0,P|315:202|221:217,1,191.999994140625,0|8,3:2|0:2,0:0:0:0:
88,124,8781,1,0,3:0:0:0:
88,124,8879,1,8,0:2:0:0:
88,124,8976,2,0,P|98:80|99:9,1,95.9999970703126,0|0,3:0|3:0,0:0:0:0:
295,32,9366,2,0,P|297:79|307:126,1,95.9999970703126,8|0,0:2|3:0,0:0:0:0:
317,137,9658,1,0,3:0:0:0:
327,147,9755,6,0,B|423:179|421:123|517:151,1,191.999994140625,0|8,3:2|0:2,0:0:0:0:
462,336,10340,1,0,3:0:0:0:
462,336,10437,1,8,0:2:0:0:
462,336,10534,2,0,P|476:279|460:224,1,95.9999970703126,0|0,3:0|3:0,0:0:0:0:
301,244,10924,2,0,P|294:291|308:336,1,95.9999970703126,8|0,0:2|3:0,0:0:0:0:
383,283,11314,6,0,L|169:284,1,191.999994140625,0|8,3:2|0:2,0:0:0:0:
32,235,11898,1,0,3:0:0:0:
32,235,11995,1,8,0:2:0:0:
32,235,12093,2,0,P|58:286|56:343,1,95.9999970703126,0|0,3:0|3:0,0:0:0:0:
127,204,12482,1,8,0:2:0:0:
53,100,12677,1,0,3:0:0:0:
53,100,12775,1,0,3:0:0:0:
53,100,12872,6,0,P|106:118|241:89,1,191.999994140625,4|8,3:2|0:2,0:0:0:0:
382,19,13456,1,0,3:0:0:0:
382,19,13554,1,8,0:2:0:0:
382,19,13651,2,0,L|380:119,1,95.9999970703126,0|0,3:0|3:0,0:0:0:0:
462,285,14041,2,0,L|463:189,1,95.9999970703126,8|0,0:2|3:0,0:0:0:0:
270,115,14430,6,0,L|265:344,1,191.999994140625,0|8,3:2|0:2,0:0:0:0:
73,345,15015,1,0,3:0:0:0:
73,345,15112,1,8,0:2:0:0:
73,345,15210,2,0,P|161:346|188:354,1,95.9999970703126,0|0,3:0|3:0,0:0:0:0:
169,196,15599,2,0,P|121:200|73:193,1,95.9999970703126,8|0,0:2|3:0,0:0:0:0:
31,34,15989,6,0,P|96:23|245:42,1,191.999994140625,0|8,3:2|0:2,0:0:0:0:
319,149,16573,1,0,3:0:0:0:
319,149,16671,1,8,0:2:0:0:
319,149,16768,2,0,P|316:82|350:41,1,95.9999970703126,0|0,3:0|3:0,0:0:0:0:
460,214,17158,2,0,P|466:260|446:303,1,95.9999970703126,8|0,0:2|3:0,0:0:0:0:
436,313,17450,1,0,0:0:0:0:
424,321,17547,6,0,B|366:330|366:330|302:302|302:302|198:322,1,191.999994140625,0|8,3:2|0:2,0:0:0:0:
61,343,18132,1,0,3:0:0:0:
61,343,18229,1,8,0:2:0:0:
61,343,18327,1,0,3:0:0:0:
152,205,18521,5,0,3:0:0:0:
151,220,18619,1,0,3:0:0:0:
151,235,18716,1,8,0:2:0:0:
121,254,18813,1,8,0:2:0:0:
85,254,18910,1,0,3:0:0:0:
56,234,19008,1,0,3:0:0:0:
42,202,19106,6,0,L|64:94,1,80,4|2,3:2|0:0,0:0:0:0:
111,46,19495,2,0,P|142:73|153:113,1,80,10|0,0:2|3:0,0:0:0:0:
153,121,19788,1,10,0:2:0:0:
153,132,19885,2,0,P|193:112|255:136,1,80,2|2,3:2|3:2,0:0:0:0:
300,56,20275,1,10,0:2:0:0:
353,142,20469,1,2,3:2:0:0:
435,90,20664,6,0,L|516:79,1,80,2|0,3:2|0:0,0:0:0:0:
340,143,21054,1,10,0:2:0:0:
426,205,21249,2,0,L|525:220,1,80,2|0,3:2|3:0,0:0:0:0:
329,145,21638,1,2,3:2:0:0:
290,306,21833,1,8,0:2:0:0:
252,212,22028,1,0,3:0:0:0:
252,212,22125,1,0,3:0:0:0:
252,212,22223,6,0,P|210:203|148:217,1,80,0|2,3:2|0:2,0:0:0:0:
119,134,22612,2,0,P|92:160|86:217,1,80,10|0,0:2|3:0,0:0:0:0:
78,211,22905,1,10,0:2:0:0:
74,222,23002,2,0,L|76:303,1,80,2|2,3:2|3:2,0:0:0:0:
136,382,23392,1,10,0:2:0:0:
226,330,23586,1,2,3:2:0:0:
332,358,23781,6,0,L|438:347,1,80,2|0,3:2|0:0,0:0:0:0:
216,313,24171,1,10,0:2:0:0:
296,239,24366,2,0,L|402:228,1,80,2|0,3:2|3:0,0:0:0:0:
206,296,24755,1,2,3:2:0:0:
263,141,24950,1,8,0:2:0:0:
175,199,25145,1,0,3:0:0:0:
175,199,25242,1,0,3:0:0:0:
175,199,25340,6,0,B|93:203,1,80,0|2,3:2|0:2,0:0:0:0:
61,112,25729,2,0,B|140:108,1,80,10|0,0:2|3:0,0:0:0:0:
152,108,26021,1,10,0:2:0:0:
164,108,26119,2,0,L|211:16,1,80,2|2,3:2|3:2,0:0:0:0:
293,3,26508,1,10,0:2:0:0:
364,67,26703,1,2,3:2:0:0:
457,22,26898,6,0,P|471:59|464:98,1,80,2|0,3:2|0:0,0:0:0:0:
341,69,27288,1,10,0:2:0:0:
430,176,27482,2,0,P|465:185|516:167,1,80,2|0,3:2|3:0,0:0:0:0:
319,171,27872,1,2,3:2:0:0:
389,323,28067,1,8,0:2:0:0:
328,193,28262,1,2,3:2:0:0:
253,333,28456,6,0,B|207:354|207:354|84:347,1,160,2|10,3:2|0:2,0:0:0:0:
9,300,29041,1,0,3:0:0:0:
9,300,29138,1,8,0:2:0:0:
9,300,29236,2,0,L|42:200,1,80,0|0,3:0|3:0,0:0:0:0:
81,103,29625,1,8,0:2:0:0:
202,182,29820,6,0,L|123:192,1,80,2|0,3:2|3:2,0:0:0:0:
246,25,30210,2,0,L|258:121,1,80,2|8,0:2|0:2,0:0:0:0:
279,250,30599,1,2,3:2:0:0:
410,149,30794,2,0,L|311:166,1,80,2|2,3:2|3:2,0:0:0:0:
353,346,31184,2,0,L|431:332,1,80,10|0,0:2|3:0,0:0:0:0:
441,339,31476,1,0,3:2:0:0:
450,345,31573,6,0,L|473:230,1,80,4|2,3:2|0:2,0:0:0:0:
444,158,31963,1,10,0:2:0:0:
367,230,32158,1,0,3:0:0:0:
367,230,32255,1,10,0:2:0:0:
367,230,32353,2,0,L|284:230,1,80,2|2,3:2|3:2,0:0:0:0:
197,163,32742,2,0,L|196:243,1,80,10|2,0:2|3:2,0:0:0:0:
75,270,33132,6,0,L|73:176,1,80,2|0,3:2|0:0,0:0:0:0:
150,364,33521,1,10,0:2:0:0:
208,245,33716,2,0,L|208:165,1,80,2|0,3:2|3:0,0:0:0:0:
160,381,34106,1,2,3:2:0:0:
268,335,34301,2,0,L|359:332,1,80,8|0,0:2|3:0,0:0:0:0:
358,337,34593,1,0,3:0:0:0:
368,342,34690,6,0,L|364:240,1,80,0|2,3:2|0:2,0:0:0:0:
461,170,35080,2,0,P|425:176|369:161,1,80,10|0,0:2|3:0,0:0:0:0:
274,223,35469,2,0,P|283:185|278:145,1,80,2|2,3:2|3:2,0:0:0:0:
204,82,35859,1,10,0:2:0:0:
269,14,36054,1,2,3:2:0:0:
345,75,36249,6,0,L|444:73,1,80,2|0,3:2|0:0,0:0:0:0:
260,1,36638,1,10,0:2:0:0:
212,90,36833,1,2,3:2:0:0:
212,90,36930,1,8,0:2:0:0:
212,90,37028,2,0,L|104:94,1,80,0|2,3:0|3:2,0:0:0:0:
22,178,37417,1,8,0:2:0:0:
39,81,37612,1,0,3:0:0:0:
132,182,37807,6,0,P|136:238|123:289,1,80,0|2,3:2|0:2,0:0:0:0:
28,364,38197,2,0,L|126:361,1,80,10|0,0:2|3:0,0:0:0:0:
119,359,38489,1,10,0:2:0:0:
130,357,38586,2,0,L|222:354,1,80,2|2,3:2|3:2,0:0:0:0:
309,377,38976,1,10,0:2:0:0:
342,285,39171,1,2,3:2:0:0:
277,208,39366,6,0,P|229:199|183:214,1,80,2|0,3:2|0:0,0:0:0:0:
363,292,39755,1,10,0:2:0:0:
388,172,39950,2,0,L|382:72,1,80,2|0,3:2|3:0,0:0:0:0:
273,29,40340,2,0,L|277:108,1,80,2|8,3:2|0:2,0:0:0:0:
169,198,40729,6,0,L|158:29,1,160,2|2,3:2|0:2,0:0:0:0:
66,86,41314,2,0,L|70:165,1,80,10|0,0:2|3:0,0:0:0:0:
65,177,41606,1,8,0:2:0:0:
60,188,41703,2,0,L|64:267,1,80,0|0,3:0|3:0,0:0:0:0:
118,354,42093,1,8,0:2:0:0:
287,294,42288,6,0,L|199:292,1,80,2|0,3:2|3:2,0:0:0:0:
355,216,42677,1,2,0:2:0:0:
431,354,42872,1,8,0:2:0:0:
460,255,43067,1,2,3:2:0:0:
460,255,43164,1,8,0:2:0:0:
460,255,43262,2,0,L|456:163,1,80,2|0,3:2|3:0,0:0:0:0:
461,164,43554,1,0,3:0:0:0:
465,153,43651,2,0,L|459:90,1,40,8|8,0:2|0:2,0:0:0:0:
359,77,43846,2,0,L|362:116,1,40,0|0,3:0|3:0,0:0:0:0:
270,247,44041,6,0,B|239:263|239:263|164:251,1,80,4|0,3:2|0:0,0:0:0:0:
108,35,44430,2,0,B|131:60|131:60|135:133,1,80,4|0,3:2|0:0,0:0:0:0:
0,287,44820,2,0,B|18:257|18:257|81:235,1,80,4|0,3:2|0:0,0:0:0:0:
301,125,45210,2,0,P|345:136|378:170,1,80,4|0,3:2|3:0,0:0:0:0:
379,166,45502,1,8,0:2:0:0:
385,175,45599,6,0,L|385:280,1,80,0|2,3:2|0:2,0:0:0:0:
313,362,45989,2,0,L|204:363,1,80,8|2,0:2|0:2,0:0:0:0:
160,286,46379,1,2,3:2:0:0:
50,373,46573,1,2,3:2:0:0:
174,275,46768,2,0,P|179:234|175:183,1,80,8|0,0:2|0:0,0:0:0:0:
16,71,47158,6,0,P|92:105|172:57,1,160,2|10,3:2|0:2,0:0:0:0:
271,12,47742,1,0,3:2:0:0:
333,99,47937,2,0,L|328:194,1,80,2|2,3:2|3:2,0:0:0:0:
251,10,48327,1,10,0:2:0:0:
395,1,48521,1,0,3:0:0:0:
347,111,48716,6,0,L|342:206,1,80,2|0,3:2|0:0,0:0:0:0:
395,351,49106,1,10,0:2:0:0:
431,250,49301,1,2,3:2:0:0:
305,340,49495,2,0,P|253:344|218:342,1,80,0|0,3:2|3:2,0:0:0:0:
213,338,49788,1,0,3:2:0:0:
202,332,49885,2,0,P|191:306|191:259,1,40,8|8,0:2|0:2,0:0:0:0:
260,211,50080,2,0,P|270:236|271:284,1,40,0|0,3:2|3:2,0:0:0:0:
89,290,50275,6,0,B|76:251|76:251|97:206,1,80,4|0,3:2|0:0,0:0:0:0:
347,111,50664,2,0,B|312:133|312:133|263:124,1,80,4|0,3:2|0:0,0:0:0:0:
138,0,51054,2,0,B|165:29|165:29|165:79,1,80,4|0,3:2|0:0,0:0:0:0:
16,312,51443,2,0,P|64:288|118:304,1,80,4|0,3:2|3:0,0:0:0:0:
99,295,51736,1,8,0:2:0:0:
108,302,51833,6,0,L|138:390,1,80,0|2,3:2|0:2,0:0:0:0:
292,299,52223,2,0,L|267:375,1,80,10|2,0:2|0:2,0:0:0:0:
189,239,52612,1,2,3:2:0:0:
316,187,52807,1,2,3:2:0:0:
429,259,53002,2,0,L|403:334,1,80,8|2,0:2|3:2,0:0:0:0:
407,345,53294,1,0,3:0:0:0:
411,356,53392,6,0,L|471:179,1,160,0|10,3:2|0:2,0:0:0:0:
482,67,53976,1,2,3:2:0:0:
401,128,54171,2,0,P|360:132|306:125,1,80,2|2,3:2|3:2,0:0:0:0:
187,28,54560,1,8,0:2:0:0:
296,35,54755,1,2,0:2:0:0:
161,35,54950,6,0,P|143:83|176:215,1,160,0|10,3:2|0:2,0:0:0:0:
89,294,55534,1,2,3:2:0:0:
208,352,55729,2,0,P|255:345|287:299,1,80,2|2,3:2|3:2,0:0:0:0:
289,140,56119,2,0,P|277:181|296:243,1,80,8|0,0:2|3:2,0:0:0:0:
290,226,56411,1,0,3:2:0:0:
298,234,56508,6,0,L|403:232,1,80,12|0,3:2|3:2,0:0:0:0:
467,146,56801,1,0,3:2:0:0:
459,154,56898,2,0,L|354:152,1,80,12|0,3:2|3:2,0:0:0:0:
317,67,57190,1,0,3:2:0:0:
325,75,57287,2,0,L|430:73,1,80,12|0,3:2|3:2,0:0:0:0:
229,12,57677,1,12,3:2:0:0:
191,151,57872,1,0,3:2:0:0:
66,26,58067,5,12,3:2:0:0:
11,169,58262,1,0,3:2:0:0:
11,169,58359,1,0,3:2:0:0:
11,169,58456,2,0,L|18:274,1,80,8|0,0:2|3:2,0:0:0:0:
69,324,58749,1,0,3:2:0:0:
69,324,58846,2,0,P|93:300|107:272,1,40,8|8,0:2|0:2,0:0:0:0:
186,216,59041,2,0,P|180:249|184:280,1,40,0|0,3:2|3:2,0:0:0:0:
309,363,59236,1,0,3:2:0:0:
390,214,59430,1,8,0:2:0:0:
390,214,59528,1,8,0:2:0:0:
390,214,59625,6,0,B|286:191|290:251|180:214,1,207.999990478516,6|8,3:2|0:2,0:0:0:0:
33,110,60210,1,2,3:2:0:0:
219,36,60405,2,0,P|294:85|225:142,1,207.999990478516,2|8,3:2|0:2,0:0:0:0:
109,16,60989,1,2,3:2:0:0:
8,184,61184,2,0,B|-13:261|30:312|30:312|71:328|113:276,1,207.999990478516,2|8,3:2|0:2,0:0:0:0:
225,142,61768,5,2,3:2:0:0:
352,241,61963,2,0,P|361:285|340:349,1,103.999995239258,2|2,3:2|0:2,0:0:0:0:
209,134,62353,2,0,P|199:89|221:26,1,103.999995239258,10|2,0:2|0:2,0:0:0:0:
457,81,62742,6,0,P|425:130|290:70,1,207.999990478516,2|8,3:2|0:2,0:0:0:0:
131,8,63327,1,2,3:2:0:0:
57,184,63521,2,0,P|106:214|203:103,1,207.999990478516,2|8,3:2|0:2,0:0:0:0:
375,29,64106,1,2,3:2:0:0:
449,254,64301,1,2,3:2:0:0:
449,254,64690,5,10,0:2:0:0:
480,92,64885,1,2,0:2:0:0:
455,265,65080,5,2,3:2:0:0:
486,103,65275,1,2,3:2:0:0:
299,254,65469,1,10,0:2:0:0:
327,93,65664,1,0,3:0:0:0:
327,93,65762,1,0,3:0:0:0:
327,93,65859,6,0,P|269:58|127:115,1,207.999990478516,6|8,3:2|0:2,0:0:0:0:
50,257,66443,1,2,3:2:0:0:
230,348,66638,2,0,P|265:290|208:148,1,207.999990478516,2|8,3:2|0:2,0:0:0:0:
36,138,67223,1,2,3:2:0:0:
209,35,67417,2,0,B|242:30|272:43|272:43|334:20|334:20|375:35|419:30,1,207.999990478516,2|8,3:2|0:2,0:0:0:0:
471,214,68002,5,2,3:2:0:0:
376,130,68197,2,0,P|327:124|264:174,1,103.999995239258,2|2,3:2|0:2,0:0:0:0:
320,334,68586,2,0,P|369:340|432:290,1,103.999995239258,10|2,0:2|0:2,0:0:0:0:
221,259,68976,2,0,P|152:261|21:315,2,207.999990478516,4|8|2,3:2|0:2|3:2,0:0:0:0:
354,232,69950,1,0,0:0:0:0:
168,142,70145,2,0,P|111:145|49:168,1,103.999995239258,8|0,0:2|3:2,0:0:0:0:
314,56,70534,6,0,P|368:54|430:59,1,103.999995239258,2|0,3:2|0:0,0:0:0:0:
457,230,70924,2,0,P|403:228|341:233,1,103.999995239258,8|0,0:2|3:2,0:0:0:0:
169,356,71314,1,8,0:2:0:0:
43,227,71508,1,0,3:2:0:0:
44,239,71605,1,0,3:2:0:0:
45,252,71702,1,8,0:2:0:0:
129,143,71897,1,0,3:2:0:0:
252,294,72093,6,0,B|282:314|314:317|314:317|395:270|464:301,1,207.999990478516,6|8,3:2|0:2,0:0:0:0:
312,209,72677,1,2,3:2:0:0:
194,378,72872,2,0,P|143:304|208:194,1,207.999990478516,2|8,3:2|0:2,0:0:0:0:
350,89,73456,1,2,3:2:0:0:
152,7,73651,2,0,P|100:33|198:86,1,207.999990478516,2|8,3:2|0:2,0:0:0:0:
436,132,74236,6,0,P|362:87|313:103,1,103.999995239258,2|2,3:2|3:2,0:0:0:0:
244,227,74625,1,2,0:2:0:0:
249,33,74820,2,0,L|252:157,1,103.999995239258,10|0,0:2|0:0,0:0:0:0:
177,283,75210,6,0,P|250:216|344:248,1,207.999990478516,2|8,3:2|0:2,0:0:0:0:
340,373,75794,1,2,3:2:0:0:
497,271,75989,2,0,B|524:218|524:218|499:68,1,207.999990478516,2|8,3:2|0:2,0:0:0:0:
262,75,76573,1,2,3:2:0:0:
406,208,76768,2,0,L|383:1,1,207.999990478516,2|10,3:2|0:2,0:0:0:0:
153,67,77353,5,2,3:2:0:0:
208,181,77547,1,2,3:2:0:0:
281,86,77742,1,2,0:2:0:0:
132,61,77937,2,0,P|91:100|92:173,1,103.999995239258,8|2,0:2|0:2,0:0:0:0:
54,337,78327,6,0,P|114:351|283:318,1,207.999990478516,6|8,3:2|0:2,0:0:0:0:
358,163,78911,1,2,3:2:0:0:
460,337,79106,2,0,P|400:351|231:318,1,207.999990478516,2|8,3:2|0:2,0:0:0:0:
155,163,79690,1,2,3:2:0:0:
403,78,79885,2,0,P|461:144|407:241,1,207.999990478516,2|8,3:2|0:2,0:0:0:0:
265,76,80469,5,2,3:2:0:0:
134,162,80664,2,0,P|122:211|132:279,1,103.999995239258,2|2,3:2|0:2,0:0:0:0:
265,347,81054,2,0,P|269:295|258:245,1,103.999995239258,10|2,0:2|0:2,0:0:0:0:
412,141,81443,2,0,P|385:216|396:352,1,207.999990478516,2|8,3:2|0:2,0:0:0:0:
496,242,82028,1,0,3:2:0:0:
412,114,82223,2,0,P|337:87|201:98,1,207.999990478516,2|8,3:2|0:2,0:0:0:0:
61,251,82807,1,0,3:2:0:0:
61,251,82905,1,0,3:0:0:0:
61,251,83002,6,0,P|86:187|60:45,1,207.999990478516,2|8,3:2|0:2,0:0:0:0:
180,201,83586,1,0,3:2:0:0:
282,50,83781,1,8,0:2:0:0:
367,187,83976,1,0,3:2:0:0:
368,199,84073,1,0,3:2:0:0:
369,212,84170,1,8,0:2:0:0:
489,75,84366,1,0,3:2:0:0:
488,63,84463,1,0,3:2:0:0:
487,50,84560,6,0,P|402:38|326:61,1,143.999995605469,4|0,3:2|0:0,0:0:0:0:
303,34,84950,2,0,L|301:146,1,95.9999970703126,8|0,0:2|3:0,0:0:0:0:
295,143,85242,1,8,0:2:0:0:
289,156,85340,1,0,3:0:0:0:
198,56,85534,1,0,3:0:0:0:
95,156,85729,2,0,P|47:157|-15:148,1,95.9999970703126,8|0,0:2|3:0,0:0:0:0:
201,210,86119,6,0,P|207:267|171:362,1,143.999995605469,0|0,3:2|0:0,0:0:0:0:
164,359,86508,2,0,P|228:351|269:357,1,95.9999970703126,8|0,0:2|3:0,0:0:0:0:
271,361,86801,1,8,0:2:0:0:
283,367,86898,1,0,3:0:0:0:
352,248,87093,1,0,3:0:0:0:
425,365,87288,1,8,0:2:0:0:
491,243,87482,1,0,3:0:0:0:
491,243,87580,1,0,3:0:0:0:
491,243,87677,6,0,P|427:261|331:237,1,143.999995605469,0|0,3:2|0:0,0:0:0:0:
313,257,88067,2,0,L|316:154,1,95.9999970703126,8|0,0:2|3:0,0:0:0:0:
323,149,88359,1,8,0:2:0:0:
331,137,88456,1,0,3:0:0:0:
239,60,88651,1,0,3:0:0:0:
178,168,88846,2,0,L|177:281,1,95.9999970703126,8|0,0:2|3:0,0:0:0:0:
50,367,89236,6,0,L|51:223,1,143.999995605469,0|0,3:2|0:0,0:0:0:0:
19,200,89625,2,0,P|50:152|96:142,1,95.9999970703126,8|0,0:2|3:0,0:0:0:0:
99,145,89917,1,8,0:2:0:0:
112,151,90015,1,0,3:0:0:0:
192,37,90210,1,0,3:0:0:0:
278,158,90405,1,8,0:2:0:0:
351,32,90599,1,0,3:0:0:0:
351,32,90697,1,0,3:0:0:0:
351,32,90794,6,0,P|412:41|428:147,1,143.999995605469,4|0,3:2|0:0,0:0:0:0:
476,128,91184,2,0,L|451:239,1,95.9999970703126,8|0,0:2|3:0,0:0:0:0:
458,235,91476,1,8,0:2:0:0:
461,248,91573,1,0,3:0:0:0:
360,183,91768,1,0,3:0:0:0:
421,325,91963,2,0,P|467:337|522:314,1,95.9999970703126,8|0,0:2|3:0,0:0:0:0:
329,276,92353,6,0,P|273:264|172:286,1,143.999995605469,0|0,3:2|0:0,0:0:0:0:
156,259,92742,2,0,L|152:362,1,95.9999970703126,8|0,0:2|3:0,0:0:0:0:
161,366,93034,1,8,0:2:0:0:
170,377,93132,1,0,3:0:0:0:
57,299,93327,1,0,3:0:0:0:
173,181,93521,1,8,0:2:0:0:
58,114,93716,1,0,3:0:0:0:
58,114,93814,1,0,3:0:0:0:
58,114,93911,6,0,P|114:125|220:101,1,143.999995605469,0|0,3:2|0:0,0:0:0:0:
212,80,94301,2,0,P|267:67|306:75,1,95.9999970703126,8|0,0:2|3:0,0:0:0:0:
315,84,94593,1,8,0:2:0:0:
323,95,94690,1,0,3:0:0:0:
426,11,94885,1,0,3:0:0:0:
482,114,95080,2,0,L|476:232,1,95.9999970703126,8|0,0:2|3:0,0:0:0:0:
371,336,95469,5,0,3:2:0:0:
368,204,95664,1,8,0:2:0:0:
281,274,95859,1,8,0:2:0:0:
281,274,95956,1,8,0:2:0:0:
281,274,96054,1,0,3:0:0:0:
368,355,96249,1,0,3:0:0:0:
371,174,96443,2,0,L|374:114,1,47.9999985351563,0|0,3:0|3:0,0:0:0:0:
444,266,96638,1,8,0:2:0:0:
444,266,96736,1,8,0:2:0:0:
444,266,96833,1,0,3:0:0:0:
473,57,97028,5,4,3:2:0:0:
471,45,98586,5,8,0:2:0:0:
314,203,98781,2,0,P|249:193|213:116,2,143.999995605469,0|0|0,3:0|3:0|3:0,0:0:0:0:
134,93,99560,2,0,P|122:120|121:164,1,47.9999985351563,0|0,3:0|3:0,0:0:0:0:
300,118,99755,2,0,P|295:94|286:72,1,47.9999985351563,8|8,0:2|0:2,0:0:0:0:
197,21,99950,1,0,3:0:0:0:
197,21,100145,6,0,P|207:65|204:192,1,160,0|10,3:2|0:2,0:0:0:0:
112,290,100729,1,0,3:0:0:0:
112,290,100827,1,10,0:2:0:0:
112,290,100924,2,0,P|150:282|198:296,1,80,2|2,3:2|3:2,0:0:0:0:
274,375,101314,2,0,P|270:335|282:297,1,80,10|2,0:2|3:2,0:0:0:0:
436,345,101703,6,0,L|336:344,1,80,2|0,3:2|0:0,0:0:0:0:
311,205,102093,1,10,0:2:0:0:
468,259,102288,2,0,L|368:258,1,80,2|0,3:2|3:0,0:0:0:0:
289,191,102677,1,2,3:2:0:0:
434,134,102872,1,8,0:2:0:0:
337,91,103067,1,0,3:0:0:0:
337,91,103164,1,0,3:0:0:0:
337,91,103262,6,0,L|237:86,1,80,0|2,3:2|0:2,0:0:0:0:
173,19,103651,2,0,L|158:121,1,80,10|0,0:2|3:0,0:0:0:0:
155,108,103943,1,10,0:2:0:0:
148,118,104041,2,0,L|134:201,1,80,2|2,3:2|3:2,0:0:0:0:
56,312,104430,1,10,0:2:0:0:
41,208,104625,1,2,3:2:0:0:
163,291,104820,6,0,P|201:299|249:292,1,80,2|0,3:2|0:0,0:0:0:0:
61,216,105210,1,10,0:2:0:0:
173,153,105405,2,0,P|213:148|252:157,1,80,2|0,3:2|3:0,0:0:0:0:
342,231,105794,1,2,3:2:0:0:
418,85,105989,1,8,0:2:0:0:
489,215,106184,1,2,3:2:0:0:
387,64,106379,6,0,P|340:55|218:63,1,160,2|10,3:2|0:2,0:0:0:0:
98,16,106963,1,0,3:0:0:0:
98,16,107060,1,8,0:2:0:0:
98,16,107158,2,0,P|124:70|125:116,1,80,0|0,3:0|3:0,0:0:0:0:
117,281,107547,1,8,0:2:0:0:
0,175,107742,6,0,L|85:180,1,80,2|0,3:2|3:2,0:0:0:0:
215,324,108132,2,0,L|204:245,1,80,2|8,0:2|0:2,0:0:0:0:
376,165,108521,1,2,3:2:0:0:
376,165,108619,1,8,0:2:0:0:
376,165,108716,2,0,L|284:163,1,80,2|2,3:2|3:2,0:0:0:0:
458,56,109106,6,0,P|478:129|464:251,1,167.999994873047,10|0,0:2|0:0,0:0:0:0:
431,306,109495,5,4,3:2:0:0:
431,306,109885,2,0,P|367:285|322:301,1,80,10|0,0:2|3:0,0:0:0:0:
344,289,110177,1,10,0:2:0:0:
332,292,110275,2,0,L|337:382,1,80,2|2,3:2|3:2,0:0:0:0:
195,368,110664,2,0,L|199:288,1,80,10|2,0:2|3:2,0:0:0:0:
307,193,111054,6,0,P|249:208|205:194,1,80,2|0,3:2|0:0,0:0:0:0:
364,105,111443,1,10,0:2:0:0:
481,212,111638,2,0,P|496:270|482:314,1,80,2|0,3:2|3:0,0:0:0:0:
394,111,112028,1,2,3:2:0:0:
226,229,112223,2,0,P|265:231|302:217,1,80,8|0,0:2|3:0,0:0:0:0:
311,208,112515,1,0,3:0:0:0:
319,199,112612,6,0,L|317:103,1,80,0|2,3:2|0:2,0:0:0:0:
237,24,113002,2,0,P|167:22|143:34,1,80,10|0,0:2|3:0,0:0:0:0:
150,33,113294,1,10,0:2:0:0:
141,41,113392,2,0,L|144:134,1,80,2|2,3:2|3:2,0:0:0:0:
329,209,113781,2,0,L|327:113,1,80,10|2,0:2|3:2,0:0:0:0:
167,230,114171,6,0,P|213:220|247:232,1,80,2|0,3:2|0:0,0:0:0:0:
336,330,114560,1,10,0:2:0:0:
487,235,114755,2,0,P|441:225|407:237,1,80,2|0,3:2|3:0,0:0:0:0:
334,351,115145,1,2,3:2:0:0:
329,209,115340,2,0,L|327:113,1,80,8|0,0:2|3:0,0:0:0:0:
333,118,115632,1,0,3:0:0:0:
339,107,115729,6,0,P|264:74|238:81,1,80,0|2,3:2|0:2,0:0:0:0:
87,169,116119,2,0,P|133:178|163:169,1,80,10|0,0:2|3:0,0:0:0:0:
176,160,116411,1,10,0:2:0:0:
185,153,116508,2,0,L|182:36,1,80,2|2,3:2|3:2,0:0:0:0:
10,133,116898,1,10,0:2:0:0:
95,55,117093,1,2,3:2:0:0:
106,235,117288,6,0,L|103:324,1,80,2|0,3:2|0:0,0:0:0:0:
208,146,117677,1,10,0:2:0:0:
304,306,117872,2,0,L|301:226,1,80,2|0,3:2|3:0,0:0:0:0:
195,127,118262,1,2,3:2:0:0:
293,34,118456,1,8,0:2:0:0:
403,123,118651,1,2,3:2:0:0:
273,18,118846,6,0,B|233:10|233:10|96:36,1,160,0|10,3:2|0:2,0:0:0:0:
21,148,119430,1,0,3:0:0:0:
21,148,119528,1,8,0:2:0:0:
21,148,119625,2,0,L|39:58,1,80,0|0,3:0|3:0,0:0:0:0:
82,245,120015,1,8,0:2:0:0:
225,121,120210,6,0,L|131:133,1,80,2|0,3:2|3:2,0:0:0:0:
197,247,120599,1,2,0:2:0:0:
325,106,120794,2,0,L|404:95,1,80,8|2,0:2|3:2,0:0:0:0:
461,288,121184,1,0,3:0:0:0:
494,185,121379,1,0,3:0:0:0:
494,185,121476,1,0,3:0:0:0:
494,185,121573,2,0,L|443:203,1,40,8|8,0:2|0:2,0:0:0:0:
387,249,121768,2,0,L|336:267,1,40,0|0,3:0|3:0,0:0:0:0:
429,364,121963,6,0,B|395:344|395:344|335:358,1,80,4|0,3:2|0:0,0:0:0:0:
294,171,122353,2,0,B|265:198|265:198|263:260,1,80,4|0,3:2|0:0,0:0:0:0:
98,337,122742,2,0,B|133:353|133:353|192:334,1,80,4|0,3:2|0:0,0:0:0:0:
57,134,123132,2,0,P|29:188|40:220,1,80,4|0,3:2|3:0,0:0:0:0:
40,213,123424,1,8,0:2:0:0:
48,221,123521,6,0,L|144:220,1,80,0|2,3:2|0:2,0:0:0:0:
126,51,123911,2,0,L|46:51,1,80,8|2,0:2|0:2,0:0:0:0:
202,130,124301,1,2,3:2:0:0:
267,37,124495,1,2,3:2:0:0:
352,136,124690,2,0,L|356:245,1,80,8|2,0:2|0:2,0:0:0:0:
445,341,125080,6,0,P|394:313|281:349,1,160,0|10,3:2|0:2,0:0:0:0:
103,337,125664,1,2,3:2:0:0:
103,337,125762,1,0,3:2:0:0:
103,337,125859,2,0,P|141:343|201:326,1,80,2|2,3:2|3:2,0:0:0:0:
241,177,126249,2,0,P|246:222|236:276,1,80,8|2,0:2|0:2,0:0:0:0:
48,251,126638,6,0,P|34:186|75:87,1,160,0|10,3:2|0:2,0:0:0:0:
173,26,127223,1,2,3:2:0:0:
173,26,127320,1,8,0:2:0:0:
173,26,127417,2,0,L|273:33,1,80,0|0,3:2|3:2,0:0:0:0:
335,24,127710,1,0,3:2:0:0:
335,24,127807,2,0,L|337:79,1,40,8|8,0:2|0:2,0:0:0:0:
381,175,128002,2,0,L|379:135,1,40,0|0,3:2|3:2,0:0:0:0:
480,45,128197,6,0,B|508:72|508:72|480:124,1,80,4|0,3:2|0:0,0:0:0:0:
350,258,128586,2,0,B|384:276|384:276|418:253,1,80,4|0,3:2|0:0,0:0:0:0:
252,55,128976,2,0,B|223:82|223:82|251:134,1,80,4|0,3:2|0:0,0:0:0:0:
327,365,129366,2,0,P|289:346|231:347,1,80,4|0,3:2|3:0,0:0:0:0:
242,336,129658,1,8,0:2:0:0:
231,329,129755,6,0,L|130:340,1,80,0|2,3:2|0:2,0:0:0:0:
22,244,130145,2,0,L|101:235,1,80,10|2,0:2|0:2,0:0:0:0:
205,96,130534,1,2,3:2:0:0:
278,212,130729,1,2,3:2:0:0:
376,83,130924,2,0,L|384:181,1,80,8|2,0:2|0:2,0:0:0:0:
391,170,131216,1,0,0:0:0:0:
399,178,131314,6,0,L|384:12,1,160,0|10,3:2|0:2,0:0:0:0:
225,31,131898,1,2,3:2:0:0:
290,109,132093,2,0,L|299:188,1,80,2|2,3:2|3:2,0:0:0:0:
170,193,132482,2,0,L|160:113,1,80,8|2,0:2|0:2,0:0:0:0:
39,50,132872,6,0,L|53:209,1,160,0|10,3:2|0:2,0:0:0:0:
22,358,133456,1,2,3:2:0:0:
179,286,133651,2,0,P|143:275|100:292,1,80,2|2,3:2|3:2,0:0:0:0:
264,369,134041,1,8,0:2:0:0:
349,254,134236,1,0,3:2:0:0:
349,254,134333,1,0,3:2:0:0:
349,254,134430,6,0,L|340:158,1,80,12|0,3:2|3:2,0:0:0:0:
277,101,134723,1,0,3:2:0:0:
270,110,134820,2,0,L|262:189,1,80,12|0,3:2|3:2,0:0:0:0:
192,250,135112,1,0,3:2:0:0:
185,241,135210,2,0,L|177:161,1,80,12|0,3:2|3:2,0:0:0:0:
57,33,135599,1,12,3:2:0:0:
57,170,135794,1,0,3:2:0:0:
190,29,135989,5,12,3:2:0:0:
293,121,136184,1,0,3:2:0:0:
293,121,136281,1,0,3:2:0:0:
293,121,136379,2,0,L|364:120,1,40,8|8,0:2|0:2,0:0:0:0:
406,14,136573,2,0,L|407:85,1,40,0|0,3:2|3:2,0:0:0:0:
486,126,136768,5,8,0:2:0:0:
485,145,136865,1,8,0:2:0:0:
484,165,136962,1,0,3:2:0:0:
483,185,137060,1,0,3:2:0:0:
483,205,137158,2,0,L|434:241,1,40,0|0,3:2|3:0,0:0:0:0:
357,230,137353,2,0,L|325:207,1,40,8|8,0:2|0:2,0:0:0:0:
400,160,137547,6,0,B|414:223|414:223|387:282|387:282|398:359,1,207.999990478516,6|8,3:2|0:2,0:0:0:0:
325,207,138132,1,2,3:2:0:0:
245,357,138327,2,0,B|257:280|257:280|229:221|229:221|244:158,1,207.999990478516,2|8,3:2|0:2,0:0:0:0:
159,303,138911,1,2,3:2:0:0:
79,161,139106,2,0,B|93:224|93:224|66:283|66:283|77:360,1,207.999990478516,2|8,3:2|0:2,0:0:0:0:
4,207,139690,5,2,3:2:0:0:
173,137,139885,2,0,L|285:128,1,103.999995239258,2|2,3:2|0:2,0:0:0:0:
234,335,140275,2,0,P|218:286|238:239,1,103.999995239258,10|2,0:2|0:2,0:0:0:0:
512,288,140664,6,0,B|407:318|422:253|306:290,1,207.999990478516,2|8,3:2|0:2,0:0:0:0:
137,305,141249,1,2,3:2:0:0:
308,199,141443,2,0,B|421:162|406:227|511:197,1,207.999990478516,2|8,3:2|0:2,0:0:0:0:
231,249,142028,1,2,3:2:0:0:
463,122,142223,1,2,3:2:0:0:
463,122,142612,5,10,0:2:0:0:
464,288,142807,1,2,0:2:0:0:
474,138,143002,5,2,3:2:0:0:
475,304,143197,1,2,3:2:0:0:
308,199,143392,1,10,0:2:0:0:
267,361,143586,1,0,3:0:0:0:
267,361,143684,1,0,3:0:0:0:
267,361,143781,6,0,P|169:379|54:319,1,207.999990478516,6|8,3:2|0:2,0:0:0:0:
20,156,144366,1,2,3:2:0:0:
201,94,144560,2,0,P|219:192|159:307,1,207.999990478516,2|8,3:2|0:2,0:0:0:0:
74,54,145145,1,2,3:2:0:0:
330,27,145340,2,0,B|364:16|398:33|398:33|438:94|414:194,1,207.999990478516,2|8,3:2|0:2,0:0:0:0:
297,324,145924,6,0,P|279:272|314:218,1,103.999995239258,2|2,3:2|3:2,0:0:0:0:
413,288,146314,1,2,0:2:0:0:
293,363,146508,2,0,L|185:369,1,103.999995239258,10|2,0:2|0:2,0:0:0:0:
41,172,146898,2,0,L|56:380,2,207.999990478516,4|8|2,3:2|0:2|3:2,0:0:0:0:
90,21,147872,1,0,3:0:0:0:
168,170,148067,2,0,P|217:179|279:145,1,103.999995239258,8|0,0:2|3:2,0:0:0:0:
393,12,148456,6,0,L|386:143,1,103.999995239258,2|0,3:2|0:0,0:0:0:0:
334,316,148846,2,0,L|339:212,1,103.999995239258,8|0,0:2|3:2,0:0:0:0:
259,47,149236,1,8,0:2:0:0:
109,103,149430,1,0,3:2:0:0:
109,103,149528,1,0,3:2:0:0:
109,103,149625,2,0,L|179:104,1,51.999997619629,8|0,0:2|0:0,0:0:0:0:
19,65,149820,2,0,L|21:13,1,51.999997619629,0|0,3:2|3:2,0:0:0:0:
18,190,150015,6,0,L|248:193,1,207.999990478516,6|8,3:2|0:2,0:0:0:0:
109,103,150599,1,2,3:2:0:0:
13,277,150794,2,0,L|243:280,1,207.999990478516,2|8,3:2|0:2,0:0:0:0:
104,190,151378,1,2,3:2:0:0:
215,366,151573,2,0,L|8:364,1,207.999990478516,2|8,3:2|0:2,0:0:0:0:
10,192,152158,5,2,3:2:0:0:
181,143,152353,2,0,P|199:193|181:244,1,103.999995239258,2|2,3:2|0:2,0:0:0:0:
71,97,152742,2,0,P|60:46|82:0,1,103.999995239258,10|0,0:2|0:0,0:0:0:0:
337,61,153132,6,0,B|271:76|161:58|161:58|213:38,1,207.999990478516,2|8,3:2|0:2,0:0:0:0:
424,30,153716,1,2,3:2:0:0:
482,218,153911,2,0,P|445:282|378:194,1,207.999990478516,2|8,3:2|0:2,0:0:0:0:
507,82,154495,1,2,3:2:0:0:
298,138,154690,2,0,P|194:150|69:122,1,207.999990478516,2|10,3:2|0:2,0:0:0:0:
20,334,155275,5,2,3:2:0:0:
106,246,155469,2,0,P|168:244|220:252,1,103.999995239258,2|2,3:2|0:2,0:0:0:0:
324,384,155859,2,0,P|322:322|330:270,1,103.999995239258,8|2,0:2|0:2,0:0:0:0:
499,170,156249,6,0,P|408:185|293:169,1,207.999990478516,6|8,3:2|0:2,0:0:0:0:
180,51,156833,1,2,3:2:0:0:
119,228,157028,2,0,B|151:280|164:322|164:322|169:277|206:228,1,207.999990478516,2|8,3:2|0:2,0:0:0:0:
272,83,157612,1,2,3:2:0:0:
63,146,157807,2,0,P|-5:85|66:28,1,207.999990478516,2|8,3:2|0:2,0:0:0:0:
252,81,158392,2,0,L|144:86,1,103.999995239258,2|2,3:2|3:2,0:0:0:0:
205,228,158781,1,2,0:2:0:0:
346,153,158976,2,0,L|349:39,1,103.999995239258,10|2,0:2|0:2,0:0:0:0:
492,109,159366,6,0,L|478:322,1,207.999990478516,2|8,3:2|0:2,0:0:0:0:
323,375,159950,1,0,3:2:0:0:
188,297,160145,2,0,L|174:89,1,207.999990478516,2|8,3:2|0:2,0:0:0:0:
349,10,160729,1,0,3:2:0:0:
394,186,160924,6,0,P|335:249|290:157,1,207.999990478516,2|8,3:2|0:2,0:0:0:0:
422,79,161508,1,0,3:2:0:0:
200,68,161703,1,8,0:2:0:0:
304,72,161898,1,0,3:2:0:0:
304,72,161995,1,0,3:2:0:0:
307,76,162093,1,8,0:2:0:0:
108,67,162288,1,0,3:2:0:0:
253,231,162482,6,0,P|267:189|259:147,1,88.000002685547,4|0,3:2|3:2,0:0:0:0:
89,149,162872,1,8,0:2:0:0:
89,149,163067,2,0,P|80:191|95:232,1,88.000002685547,2|0,0:0|3:2,0:0:0:0:
194,356,163456,1,0,3:2:0:0:
194,356,163651,2,0,L|320:355,1,88.000002685547,10|0,0:2|0:0,0:0:0:0:
427,263,164041,5,0,3:2:0:0:
427,263,164236,2,0,L|301:262,1,88.000002685547,2|8,0:2|0:2,0:0:0:0:
225,153,164625,1,0,0:0:0:0:
343,64,164820,2,0,P|348:106|336:168,1,88.000002685547,2|0,3:2|3:2,0:0:0:0:
474,148,165210,2,0,P|467:104|473:61,1,88.000002685547,10|0,0:2|0:0,0:0:0:0:
342,11,165599,6,0,P|356:69|342:189,1,176.000005371094,2|8,3:2|0:2,0:0:0:0:
105,94,166184,2,0,B|131:84|144:58|144:58|209:50|259:105,1,176.000005371094,2|0,0:2|3:2,0:0:0:0:
255,262,166768,2,0,P|223:292|141:290,1,88.000002685547,8|0,0:2|0:0,0:0:0:0:
27,214,167158,5,0,3:2:0:0:
139,206,167353,1,0,3:0:0:0:
60,323,167547,1,8,0:2:0:0:
24,203,167742,1,0,3:0:0:0:
22,189,167840,1,0,3:0:0:0:
20,176,167937,2,0,L|40:90,1,88.000002685547,0|0,3:2|3:2,0:0:0:0:
49,81,168229,1,0,3:0:0:0:
59,72,168327,2,0,P|107:67|151:79,1,88.000002685547,8|0,0:2|0:0,0:0:0:0:
297,17,168716,6,0,P|342:50|344:184,1,176.000005371094,6|8,3:2|0:2,0:0:0:0:
454,356,169301,2,0,P|427:307|481:184,1,176.000005371094,2|0,0:0|3:2,0:0:0:0:
267,356,169885,2,0,P|293:307|239:184,1,176.000005371094,10|0,0:2|3:2,0:0:0:0:
29,310,170469,2,0,B|82:312|82:312|125:279|125:279|221:280,1,176.000005371094,2|0,0:2|0:0,0:0:0:0:
347,201,171054,2,0,L|247:198,1,88.000002685547,2|0,3:2|3:2,0:0:0:0:
83,147,171443,2,0,L|183:144,1,88.000002685547,10|0,0:2|0:0,0:0:0:0:
343,32,171833,6,0,B|334:80|334:80|379:140|337:221,1,176.000005371094,2|8,3:2|0:2,0:0:0:0:
496,322,172417,2,0,P|447:299|318:358,1,176.000005371094,2|0,0:2|3:2,0:0:0:0:
154,365,173002,1,8,0:2:0:0:
213,256,173197,1,0,3:0:0:0:
21,350,173392,6,0,P|-6:298|24:244,1,88.000002685547,0|0,3:2|3:0,0:0:0:0:
8,261,173684,1,0,3:0:0:0:
16,250,173781,2,0,L|141:238,1,88.000002685547,8|0,0:2|0:0,0:0:0:0:
101,74,174171,2,0,L|13:65,1,88.000002685547,0|0,3:2|3:2,0:0:0:0:
246,35,174560,1,8,0:2:0:0:
247,45,174657,1,8,0:2:0:0:
247,56,174754,1,8,0:2:0:0:
247,67,174852,1,8,0:2:0:0:
248,78,174950,6,0,P|318:96|378:85,1,132.00000402832,4|0,3:2|0:0,0:0:0:0:
407,58,175340,2,0,P|395:114|421:164,1,88.000002685547,8|0,0:2|3:0,0:0:0:0:
413,151,175632,1,8,0:2:0:0:
423,159,175729,2,0,P|438:205|415:259,1,88.000002685547,0|0,3:0|3:0,0:0:0:0:
300,333,176119,2,0,L|203:328,1,88.000002685547,8|0,0:2|3:0,0:0:0:0:
62,215,176508,5,0,3:2:0:0:
176,216,176703,1,0,0:0:0:0:
62,331,176898,1,8,0:2:0:0:
202,332,177093,1,0,3:0:0:0:
202,332,177190,1,8,0:2:0:0:
202,332,177288,1,0,3:0:0:0:
74,222,177482,1,0,3:0:0:0:
209,208,177677,2,0,L|300:210,1,88.000002685547,8|0,0:2|3:0,0:0:0:0:
429,360,178067,6,0,P|377:339|417:236,1,176.000005371094,0|8,3:2|0:2,0:0:0:0:
482,104,178651,1,0,3:0:0:0:
482,104,178749,1,8,0:2:0:0:
482,104,178846,2,0,P|450:110|382:103,1,88.000002685547,0|0,3:0|3:0,0:0:0:0:
269,24,179236,2,0,L|270:123,1,88.000002685547,8|0,0:2|3:0,0:0:0:0:
262,123,179528,1,0,0:0:0:0:
254,133,179625,6,0,P|214:121|151:139,1,88.000002685547,0|0,3:2|0:0,0:0:0:0:
38,34,180015,1,8,0:2:0:0:
33,159,180210,1,0,3:0:0:0:
33,159,180307,1,8,0:2:0:0:
33,159,180405,1,0,3:0:0:0:
144,50,180599,1,0,3:0:0:0:
208,207,180794,2,0,P|209:247|203:302,1,88.000002685547,8|0,0:2|3:0,0:0:0:0:
376,363,181184,6,0,P|367:286|390:179,1,176.000005371094,4|8,3:2|0:2,0:0:0:0:
297,42,181768,1,0,3:0:0:0:
297,42,181866,1,8,0:2:0:0:
297,42,181963,1,0,3:0:0:0:
404,79,182158,1,0,3:0:0:0:
250,156,182353,2,0,L|134:137,1,88.000002685547,8|0,0:2|3:0,0:0:0:0:
38,27,182742,6,0,L|40:141,1,88.000002685547,0|0,3:2|0:0,0:0:0:0:
36,305,183132,1,8,0:2:0:0:
111,224,183327,1,0,3:0:0:0:
111,224,183424,1,8,0:2:0:0:
111,224,183521,1,0,3:0:0:0:
39,114,183716,1,0,3:0:0:0:
196,65,183911,2,0,L|289:64,1,88.000002685547,8|0,0:2|3:0,0:0:0:0:
381,262,184301,6,0,L|378:147,1,88.000002685547,0|0,3:2|0:0,0:0:0:0:
108,178,184690,2,0,L|105:265,1,88.000002685547,8|0,0:2|3:2,0:0:0:0:
391,193,185080,6,0,L|394:281,1,88.000002685547,8|0,0:2|3:2,0:0:0:0:
118,284,185469,2,0,L|121:197,1,88.000002685547,8|0,0:2|3:2,0:0:0:0:
246,43,185859,1,4,3:2:0:0:
307,112,186054,5,0,3:2:0:0:
278,129,186151,1,0,3:2:0:0:
246,135,186248,1,4,3:3:0:0:
214,129,186346,1,4,3:3:0:0:
186,112,186443,2,0,P|170:96|158:72,1,44.0000013427735,0|0,3:2|3:2,0:0:0:0:
63,28,186638,5,4,3:3:0:0:
63,38,186735,1,4,3:3:0:0:
63,49,186832,1,0,3:2:0:0:
63,60,186930,1,0,3:2:0:0:
64,71,187028,2,0,L|65:124,1,44.0000013427735,8|8,0:2|0:2,0:0:0:0:
8,182,187223,2,0,L|9:235,1,44.0000013427735,8|8,0:2|0:2,0:0:0:0:
65,305,187417,6,0,P|110:330|231:281,1,176.000005371094,6|8,3:2|0:2,0:0:0:0:
284,219,188002,1,0,0:0:0:0:
326,307,188197,2,0,P|371:332|492:283,1,176.000005371094,0|10,3:2|0:2,0:0:0:0:
399,197,188781,1,0,0:0:0:0:
284,219,188976,6,0,L|194:219,1,88.000002685547,2|0,3:2|0:0,0:0:0:0:
142,122,189366,2,0,L|230:122,1,88.000002685547,10|0,0:2|0:0,0:0:0:0:
292,230,189755,2,0,L|202:230,1,88.000002685547,2|0,3:2|3:2,0:0:0:0:
150,133,190145,2,0,L|238:133,1,88.000002685547,10|0,0:2|0:0,0:0:0:0:
413,167,190534,6,0,P|347:119|389:40,1,176.000005371094,2|8,3:2|0:2,0:0:0:0:
473,81,191119,1,2,0:2:0:0:
426,193,191314,2,0,P|378:223|240:186,1,176.000005371094,2|8,3:2|0:2,0:0:0:0:
197,123,191898,1,0,0:0:0:0:
107,223,192093,6,0,L|109:317,1,88.000002685547,2|0,3:2|0:0,0:0:0:0:
177,130,192482,1,8,0:2:0:0:
87,230,192677,2,0,L|89:324,1,88.000002685547,2|0,0:2|3:2,0:0:0:0:
197,123,193067,2,0,L|195:35,1,88.000002685547,2|8,3:2|0:2,0:0:0:0:
73,123,193456,1,0,3:2:0:0:
206,249,193651,6,0,B|247:262|247:262|388:241,1,176.000005371094,6|8,3:2|0:2,0:0:0:0:
429,150,194236,1,0,0:0:0:0:
362,74,194430,2,0,B|321:61|321:61|180:82,1,176.000005371094,0|10,3:2|0:2,0:0:0:0:
76,16,195015,1,0,0:0:0:0:
31,138,195210,6,0,L|30:235,1,88.000002685547,2|0,3:2|0:0,0:0:0:0:
122,313,195599,2,0,L|122:225,1,88.000002685547,10|0,0:2|0:0,0:0:0:0:
207,132,195989,2,0,L|206:229,1,88.000002685547,2|0,3:2|3:2,0:0:0:0:
298,307,196378,2,0,L|298:219,1,88.000002685547,10|0,0:2|0:0,0:0:0:0:
463,110,196768,6,0,P|391:150|305:105,1,176.000005371094,2|8,3:2|0:2,0:0:0:0:
387,43,197353,1,2,0:2:0:0:
491,116,197547,2,0,P|501:176|480:301,1,176.000005371094,2|8,3:2|0:2,0:0:0:0:
412,356,198132,1,0,0:0:0:0:
193,315,198327,6,0,B|221:264|284:266|284:266|314:292|362:287,1,176.000005371094,4|8,3:2|0:2,0:0:0:0:
390,104,198911,2,0,P|427:150|328:182,1,176.000005371094,4|0,3:2|3:2,0:0:0:0:
165,217,199495,2,0,P|199:189|274:185,1,88.000002685547,8|2,0:2|3:2,0:0:0:0:
345,287,199885,6,0,L|227:285,1,88.000002685547,6|0,3:2|0:0,0:0:0:0:
88,368,200275,2,0,L|86:281,1,88.000002685547,8|0,0:2|3:0,0:0:0:0:
77,270,200567,1,0,3:0:0:0:
68,259,200664,2,0,L|65:148,1,88.000002685547,0|0,3:2|3:2,0:0:0:0:
267,74,201054,2,0,P|229:65|166:82,1,88.000002685547,10|0,0:2|0:0,0:0:0:0:
222,193,201443,6,0,L|334:192,1,88.000002685547,2|0,3:2|0:0,0:0:0:0:
401,48,201833,2,0,L|411:147,1,88.000002685547,10|0,0:2|3:0,0:0:0:0:
421,142,202125,1,0,3:0:0:0:
431,150,202223,2,0,L|440:248,1,88.000002685547,2|0,3:2|3:2,0:0:0:0:
352,360,202612,2,0,L|360:272,1,88.000002685547,10|0,0:2|0:0,0:0:0:0:
231,380,203002,6,0,L|182:190,1,176.000005371094,2|8,3:2|0:2,0:0:0:0:
125,75,203586,1,0,3:0:0:0:
0,163,203781,2,0,P|43:239|105:172,1,176.000005371094,2|8,3:2|0:2,0:0:0:0:
211,75,204366,1,2,3:2:0:0:
373,169,204560,2,0,P|330:245|268:178,1,176.000005371094,2|8,3:2|0:2,0:0:0:0:
338,56,205145,5,0,3:2:0:0:
338,56,205242,1,8,0:2:0:0:
338,56,205340,2,0,L|431:56,1,88.000002685547,2|0,3:2|3:2,0:0:0:0:
211,75,205729,2,0,L|118:75,1,88.000002685547,10|0,0:2|3:2,0:0:0:0:
15,182,206119,6,0,P|62:185|90:313,1,176.000005371094,6|8,3:2|0:2,0:0:0:0:
244,374,206703,1,2,0:2:0:0:
250,219,206898,2,0,P|215:245|205:287,1,88.000002685547,2|0,3:2|3:2,0:0:0:0:
391,285,207288,2,0,P|380:243|346:216,1,88.000002685547,8|0,0:2|0:0,0:0:0:0:
211,115,207677,6,0,P|305:137|386:97,1,176.000005371094,0|8,3:2|0:2,0:0:0:0:
477,27,208262,1,0,0:0:0:0:
502,132,208456,2,0,L|491:251,1,88.000002685547,2|0,3:2|3:2,0:0:0:0:
347,222,208846,2,0,L|355:309,1,88.000002685547,10|0,0:2|0:0,0:0:0:0:
449,361,209236,6,0,P|409:345|244:370,1,176.000005371094,2|8,3:2|0:2,0:0:0:0:
107,369,209820,1,0,0:0:0:0:
221,245,210015,2,0,P|225:193|190:147,1,88.000002685547,0|0,3:2|3:2,0:0:0:0:
9,217,210405,2,0,L|99:214,1,88.000002685547,8|2,0:2|3:2,0:0:0:0:
109,219,210697,1,0,3:0:0:0:
120,225,210794,6,0,L|124:124,1,88.000002685547,14|0,3:2|3:2,0:0:0:0:
288,26,211184,2,0,L|284:113,1,88.000002685547,12|0,3:2|3:2,0:0:0:0:
419,243,211573,2,0,L|423:142,1,88.000002685547,12|0,3:2|3:2,0:0:0:0:
274,21,211963,2,0,L|270:108,1,88.000002685547,12|0,3:2|3:2,0:0:0:0:
108,247,212353,6,0,P|62:252|15:243,2,58.6666684570313,8|0|0,0:2|0:0|0:0,0:0:0:0:
231,308,212742,2,0,P|224:353|203:396,2,58.6666684570313,8|0|0,0:2|0:0|0:0,0:0:0:0:
367,269,213132,2,0,P|409:286|445:318,2,58.6666684570313,8|0|0,0:2|0:0|0:0,0:0:0:0:
335,134,213521,2,0,P|363:97|403:71,2,58.6666684570313,8|0|0,0:2|0:0|0:0,0:0:0:0:
219,187,213911,5,8,0:2:0:0:
177,96,214106,1,8,0:2:0:0:
177,96,214203,1,8,0:2:0:0:
177,96,214301,2,0,L|182:43,1,44.0000013427735,8|0,0:2|0:0,0:0:0:0:
80,51,214495,2,0,L|84:94,1,44.0000013427735,0|0,3:2|3:2,0:0:0:0:
133,170,214690,2,0,L|129:214,1,44.0000013427735,8|8,0:2|0:2,0:0:0:0:
36,212,214884,2,0,L|32:169,1,44.0000013427735,0|0,3:2|3:2,0:0:0:0:
84,285,215080,1,4,3:0:0:0:
83,295,215177,1,4,3:0:0:0:
83,306,215274,1,0,3:2:0:0:
83,317,215372,1,0,3:2:0:0:
84,328,215469,6,0,B|157:349|151:316|228:329,1,143.999995605469,12|0,3:2|0:0,0:0:0:0:
318,371,216443,1,0,3:0:0:0:
318,371,216541,1,0,3:0:0:0:
318,371,216638,1,0,3:0:0:0:
424,197,217028,6,0,P|403:213|379:225,2,53.3333333333333,4|4|4,3:0|3:0|3:0,0:0:0:0:
234,193,217417,2,0,P|255:209|280:221,2,53.3333333333333,4|4|4,3:0|3:0|3:0,0:0:0:0:
356,141,217807,2,0,P|330:145|304:141,2,53.3333333333333,4|4|4,3:0|3:0|3:0,0:0:0:0:
333,63,218197,5,4,3:2:0:0:
333,63,218586,6,0,P|236:43|116:79,1,207.999990478516,2|8,3:2|0:2,0:0:0:0:
42,62,219171,1,2,3:2:0:0:
29,257,219366,2,0,P|41:201|28:139,1,103.999995239258,2|0,3:2|0:0,0:0:0:0:
198,157,219755,2,0,P|191:208|203:258,1,103.999995239258,8|2,0:2|3:2,0:0:0:0:
440,338,220145,6,0,P|352:318|232:358,1,207.999990478516,2|10,3:2|0:2,0:0:0:0:
42,358,220729,1,2,3:2:0:0:
42,358,220827,1,10,0:2:0:0:
42,358,220924,1,2,3:2:0:0:
114,234,221119,1,2,3:2:0:0:
254,356,221314,2,0,P|305:351|341:312,1,103.999995239258,10|0,0:2|0:0,0:0:0:0:
509,356,221703,6,0,P|452:322|427:181,1,207.999990478516,6|8,3:2|0:2,0:0:0:0:
482,41,222288,1,2,3:2:0:0:
325,132,222482,2,0,B|276:145|276:145|187:109|187:109|89:131,1,207.999990478516,2|8,3:2|0:2,0:0:0:0:
40,310,223067,1,2,3:2:0:0:
8,164,223262,2,0,L|12:52,1,103.999995239258,2|0,3:2|0:0,0:0:0:0:
102,220,223651,1,8,0:2:0:0:
41,327,223846,5,2,3:2:0:0:
146,382,224041,2,0,L|250:378,1,103.999995239258,2|2,3:2|0:2,0:0:0:0:
428,330,224430,2,0,L|324:326,1,103.999995239258,10|2,0:2|0:2,0:0:0:0:
102,220,224820,2,0,L|314:211,2,207.999990478516,4|8|2,3:2|0:2|3:2,0:0:0:0:
28,126,225794,1,0,0:0:0:0:
132,25,225989,2,0,L|129:173,1,103.999995239258,8|0,0:2|3:2,0:0:0:0:
24,314,226379,6,0,P|73:308|155:328,1,103.999995239258,2|0,3:2|0:0,0:0:0:0:
283,314,226768,2,0,P|332:308|414:328,1,103.999995239258,8|0,0:2|3:2,0:0:0:0:
494,193,227158,1,8,0:2:0:0:
339,179,227353,1,0,3:2:0:0:
340,191,227450,1,0,3:2:0:0:
341,204,227547,2,0,L|398:211,1,51.999997619629,8|0,0:2|0:0,0:0:0:0:
434,122,227742,2,0,L|383:116,1,51.999997619629,0|0,3:2|3:2,0:0:0:0:
245,144,227937,6,0,B|207:240|274:241|236:353,1,207.999990478516,6|8,3:2|0:2,0:0:0:0:
69,359,228521,1,2,3:2:0:0:
0,218,228716,2,0,P|39:161|133:237,1,207.999990478516,2|8,3:2|0:2,0:0:0:0:
226,364,229301,1,2,3:2:0:0:
346,221,229495,2,0,L|336:73,1,103.999995239258,2|0,3:2|0:0,0:0:0:0:
383,330,229885,1,8,0:2:0:0:
195,382,230080,6,0,P|149:384|74:350,1,103.999995239258,2|2,3:2|3:2,0:0:0:0:
368,304,230469,1,2,0:2:0:0:
195,217,230664,2,0,P|149:214|74:248,1,103.999995239258,10|0,0:2|0:0,0:0:0:0:
161,301,231054,6,0,L|398:305,1,207.999990478516,2|8,3:2|0:2,0:0:0:0:
486,227,231638,1,2,3:2:0:0:
427,73,231833,2,0,B|405:45|369:41|369:41|303:84|220:47,1,207.999990478516,2|8,3:2|0:2,0:0:0:0:
47,70,232417,1,2,3:2:0:0:
132,2,232612,2,0,P|150:41|132:117,1,103.999995239258,2|0,3:2|0:0,0:0:0:0:
26,68,233002,1,10,0:2:0:0:
32,237,233197,5,2,3:2:0:0:
131,189,233392,2,0,P|184:185|246:189,1,103.999995239258,2|2,3:2|0:2,0:0:0:0:
314,9,233781,2,0,P|318:66|312:121,1,103.999995239258,8|2,0:2|0:2,0:0:0:0:
446,19,234171,6,0,P|424:120|435:223,1,207.999990478516,6|8,3:2|0:2,0:0:0:0:
502,359,234755,1,2,3:2:0:0:
342,298,234950,2,0,B|277:285|277:285|205:322|205:322|113:297,1,207.999990478516,2|8,3:2|0:2,0:0:0:0:
16,204,235534,1,2,3:2:0:0:
156,119,235729,2,0,L|283:119,1,103.999995239258,2|0,3:2|0:0,0:0:0:0:
48,87,236119,1,8,0:2:0:0:
24,217,236314,5,2,3:2:0:0:
123,265,236508,2,0,P|137:318|117:381,1,103.999995239258,2|2,3:2|0:2,0:0:0:0:
291,366,236898,2,0,P|280:315|294:265,1,103.999995239258,10|2,0:2|0:2,0:0:0:0:
505,175,237288,6,0,P|416:185|294:169,1,207.999990478516,2|8,3:2|0:2,0:0:0:0:
405,94,237872,1,0,3:2:0:0:
500,270,238067,2,0,P|411:280|289:264,1,207.999990478516,2|8,3:2|0:2,0:0:0:0:
227,103,238651,1,0,3:2:0:0:
111,230,238846,6,0,L|122:346,1,103.999995239258,2|0,3:2|0:0,0:0:0:0:
0,125,239236,2,0,L|130:71,1,103.999995239258,8|0,0:2|3:2,0:0:0:0:
303,51,239625,5,8,0:2:0:0:
317,72,239722,1,0,3:0:0:0:
323,97,239819,1,0,3:2:0:0:
321,123,239917,1,0,3:2:0:0:
311,147,240014,1,8,0:2:0:0:
432,284,240210,1,0,3:2:0:0:
432,284,240307,1,0,3:2:0:0:
432,284,240405,6,0,P|411:242|424:183,1,103.999995239258,4|0,3:2|0:0,0:0:0:0:
401,366,240794,2,0,P|369:374|256:356,1,103.999995239258,8|0,0:2|3:0,0:0:0:0:
285,363,241086,1,8,0:2:0:0:
271,354,241184,2,0,P|263:299|278:232,1,103.999995239258,0|0,3:0|3:0,0:0:0:0:
138,369,241573,2,0,P|146:314|131:247,1,103.999995239258,8|0,0:2|3:0,0:0:0:0:
0,164,241963,6,0,P|55:173|107:165,1,103.999995239258,0|0,3:2|0:0,0:0:0:0:
188,0,242353,2,0,L|188:117,1,103.999995239258,8|0,0:2|3:0,0:0:0:0:
195,117,242645,1,8,0:2:0:0:
202,130,242742,1,0,3:0:0:0:
291,35,242937,1,0,3:0:0:0:
330,132,243132,1,8,0:2:0:0:
437,36,243327,1,0,3:0:0:0:
437,36,243424,1,0,3:0:0:0:
437,36,243521,6,0,P|447:85|429:147,1,103.999995239258,0|0,3:2|0:0,0:0:0:0:
419,313,243911,2,0,P|372:279|370:212,1,103.999995239258,8|0,0:2|3:0,0:0:0:0:
370,222,244203,1,8,0:2:0:0:
378,208,244301,2,0,P|327:192|255:211,1,103.999995239258,0|0,3:0|3:0,0:0:0:0:
170,110,244690,2,0,L|179:243,1,103.999995239258,8|0,0:2|3:0,0:0:0:0:
75,354,245080,5,0,3:2:0:0:
78,245,245275,1,0,3:0:0:0:
176,370,245469,1,8,0:2:0:0:
277,303,245664,1,0,3:0:0:0:
277,303,245762,1,8,0:2:0:0:
277,303,245859,2,0,L|277:188,1,103.999995239258,0|0,3:0|3:0,0:0:0:0:
78,141,246249,2,0,L|78:245,1,103.999995239258,8|0,0:2|3:0,0:0:0:0:
176,370,246638,6,0,L|176:151,1,207.999990478516,4|8,3:2|0:2,0:0:0:0:
242,36,247223,1,0,3:0:0:0:
242,36,247320,1,8,0:2:0:0:
242,36,247417,2,0,P|293:53|362:37,1,103.999995239258,0|0,3:0|3:0,0:0:0:0:
486,136,247807,2,0,P|434:124|371:141,1,103.999995239258,8|0,0:2|3:0,0:0:0:0:
431,328,248197,6,0,L|434:206,1,103.999995239258,0|0,3:2|0:0,0:0:0:0:
294,182,248586,2,0,L|291:285,1,103.999995239258,8|0,0:2|3:0,0:0:0:0:
299,299,248879,1,8,0:2:0:0:
306,312,248976,2,0,L|167:309,1,103.999995239258,0|0,3:0|3:0,0:0:0:0:
42,349,249366,1,8,0:2:0:0:
102,254,249560,1,0,3:0:0:0:
102,254,249658,1,0,3:0:0:0:
102,254,249755,6,0,L|111:105,1,103.999995239258,0|0,3:2|0:0,0:0:0:0:
0,35,250145,2,0,P|68:28|130:47,1,103.999995239258,8|0,0:2|3:0,0:0:0:0:
113,46,250437,1,8,0:2:0:0:
123,57,250534,2,0,P|178:66|254:47,1,103.999995239258,0|0,3:0|3:0,0:0:0:0:
389,36,250924,1,8,0:2:0:0:
309,134,251119,1,0,3:0:0:0:
426,249,251314,6,0,P|446:194|433:139,1,103.999995239258,0|8,3:2|0:2,0:0:0:0:
180,151,251703,2,0,P|173:201|192:249,1,103.999995239258,8|0,0:2|3:0,0:0:0:0:
309,134,252093,1,0,3:0:0:0:
309,276,252288,1,0,3:0:0:0:
408,190,252482,2,0,L|470:194,1,51.999997619629,8|8,0:2|0:2,0:0:0:0:
307,103,252677,2,0,L|312:39,1,51.999997619629,0|0,3:0|3:0,0:0:0:0:
212,187,252872,6,0,L|72:192,1,103.999995239258,4|0,3:2|0:0,0:0:0:0:
380,329,253262,2,0,L|491:316,1,103.999995239258,8|0,0:2|3:0,0:0:0:0:
217,203,253651,2,0,L|77:208,1,103.999995239258,8|0,0:2|3:0,0:0:0:0:
385,345,254041,2,0,L|496:332,1,103.999995239258,8|0,0:2|3:0,0:0:0:0:
425,138,254430,6,0,L|420:278,1,103.999995239258,8|0,0:2|3:0,0:0:0:0:
178,374,254820,2,0,L|191:263,1,103.999995239258,8|0,0:2|3:0,0:0:0:0:
409,133,255210,2,0,L|404:273,1,103.999995239258,8|0,0:2|3:0,0:0:0:0:
162,369,255599,2,0,L|175:258,1,103.999995239258,8|0,0:2|3:0,0:0:0:0:
305,57,255989,6,0,P|258:74|175:72,1,103.999995239258,4|0,3:2|0:0,0:0:0:0:
5,159,256379,2,0,P|54:154|134:178,1,103.999995239258,8|0,0:2|3:0,0:0:0:0:
310,77,256768,2,0,P|263:94|180:92,1,103.999995239258,8|0,0:2|3:0,0:0:0:0:
10,179,257158,2,0,P|59:174|139:198,1,103.999995239258,8|0,0:2|3:0,0:0:0:0:
350,220,257547,6,0,P|303:237|220:235,1,103.999995239258,8|0,0:2|3:0,0:0:0:0:
50,322,257937,2,0,P|99:317|179:341,1,103.999995239258,8|0,0:2|3:0,0:0:0:0:
325,315,258327,1,8,0:2:0:0:
288,150,258521,1,0,3:0:0:0:
453,223,258716,2,0,L|342:219,1,103.999995239258,8|0,0:2|3:0,0:0:0:0:
286,46,259106,6,0,L|288:191,1,103.999995239258,4|0,3:2|0:0,0:0:0:0:
178,237,259495,2,0,L|176:133,1,103.999995239258,8|0,0:2|3:0,0:0:0:0:
70,46,259885,2,0,L|68:149,1,103.999995239258,8|0,0:2|3:0,0:0:0:0:
194,256,260275,2,0,L|192:111,1,103.999995239258,8|0,0:2|3:0,0:0:0:0:
308,36,260664,6,0,L|309:139,1,103.999995239258,8|0,0:2|3:0,0:0:0:0:
483,67,261054,2,0,L|481:170,1,103.999995239258,8|0,0:2|3:0,0:0:0:0:
391,358,261443,2,0,L|389:254,1,103.999995239258,8|0,0:2|3:0,0:0:0:0:
225,324,261833,1,8,0:2:0:0:
225,179,262028,1,0,3:0:0:0:
43,252,262223,6,0,P|90:257|168:245,1,103.999995239258,4|0,3:2|0:0,0:0:0:0:
328,180,262612,2,0,P|281:185|203:173,1,103.999995239258,8|0,0:2|3:0,0:0:0:0:
32,143,263002,2,0,P|79:148|157:136,1,103.999995239258,8|0,0:2|3:0,0:0:0:0:
317,71,263391,2,0,P|270:76|192:64,1,103.999995239258,8|0,0:2|3:0,0:0:0:0:
420,21,263781,5,8,0:2:0:0:
445,25,263878,1,8,0:2:0:0:
466,39,263975,1,0,3:0:0:0:
480,61,264073,1,0,3:0:0:0:
482,87,264171,2,0,L|476:159,1,51.999997619629,8|8,0:2|0:2,0:0:0:0:
381,124,264366,2,0,L|387:196,1,51.999997619629,0|0,3:0|3:0,0:0:0:0:
458,233,264560,5,4,3:0:0:0:
453,258,264657,1,4,3:0:0:0:
439,279,264754,1,0,3:0:0:0:
417,293,264852,1,0,3:0:0:0:
392,295,264950,2,0,L|320:289,1,51.999997619629,4|0,3:0|0:0,0:0:0:0:
252,357,265145,2,0,L|258:285,1,51.999997619629,0|0,3:0|0:0,0:0:0:0:
256,192,265340,5,4,3:2:0:0:
256,192,265437,12,0,269430,3:0:0:0:
