osu file format v14

[General]
AudioFilename: audio.mp3
AudioLeadIn: 0
PreviewTime: 59521
Countdown: 0
SampleSet: Soft
StackLeniency: 0.7
Mode: 0
LetterboxInBreaks: 0
WidescreenStoryboard: 0

[Editor]
Bookmarks: 19099,59618,84553,97021,137540,252865
DistanceSpacing: 1.2
BeatDivisor: 4
GridSize: 4
TimelineZoom: 1

[Metadata]
Title:Pure Pure Heart
TitleUnicode:ぴゅあぴゅあはーと
Artist:HO-KAGO TEA TIME
ArtistUnicode:放課後ティータイム
Creator:Seto Kousuke
Version:Boss' Hard
Source:K-ON!!
Tags:Pray for Kyoani HTT Season 2 Hikasa Yoko 日笠 陽子 Mio Akiyama Shirahane Suou Bossandy japanese anime
BeatmapID:2127751
BeatmapSetID:1016626

[Difficulty]
HPDrainRate:4
CircleSize:4
OverallDifficulty:6
ApproachRate:7.6
SliderMultiplier:1.4
SliderTickRate:1

[Events]
//Background and Video events
0,0,"Thank you Kyoto Animation!.jpg",0,0
//Break Periods
2,605,2711
2,86319,96218
//Storyboard Layer 0 (Background)
//Storyboard Layer 1 (Fail)
//Storyboard Layer 2 (Pass)
//Storyboard Layer 3 (Foreground)
//Storyboard Layer 4 (Overlay)
//Storyboard Sound Samples

[TimingPoints]
405,389.61038961039,4,2,1,50,1,0
6638,-100,4,2,1,70,0,0
19106,-100,4,2,1,60,0,0
59625,-90.9090909090909,4,2,1,80,0,1
84560,-90.9090909090909,4,2,1,70,0,0
97028,-100,4,2,1,70,0,0
100145,-100,4,2,1,60,0,0
137547,-90.9090909090909,4,2,1,80,0,1
162482,-90.9090909090909,4,2,1,70,0,0
187417,-100,4,2,1,70,0,0
215469,-90.9090909090909,4,2,1,80,0,1
215664,-90.9090909090909,4,2,1,65,0,0
218586,-90.9090909090909,4,2,1,90,0,1
240405,-100,4,2,1,80,0,0

[Colours]
Combo1 : 164,140,78
Combo2 : 179,121,26
Combo3 : 92,140,154
Combo4 : 80,69,72

[HitObjects]
258,188,405,5,4,3:2:0:0:
256,188,3521,5,4,3:2:0:0:
256,188,5080,1,8,3:2:0:0:
200,248,5275,1,4,3:0:0:0:
140,188,5469,2,0,L|140:132,2,35,0|8|8,0:0|3:2|3:2,0:0:0:0:
84,248,5859,1,8,3:2:0:0:
32,312,6054,2,0,L|32:368,4,35,8|8|8|8|0,3:2|3:2|3:2|3:2|3:0,0:0:0:0:
140,188,6638,6,0,P|208:188|264:148,1,140,4|8,3:2|0:2,0:0:0:0:
396,236,7223,1,0,3:0:0:0:
396,236,7320,1,8,0:2:0:0:
396,236,7417,2,0,L|380:328,1,70,0|0,3:0|3:0,0:0:0:0:
300,288,7807,2,0,L|316:196,1,70,8|0,0:2|3:0,0:0:0:0:
232,336,8197,6,0,B|200:352|160:340|160:340|130:313|132:272,1,140,0|8,3:2|0:2,0:0:0:0:
156,116,8781,1,0,3:0:0:0:
156,116,8879,1,8,0:2:0:0:
156,116,8976,2,0,P|129:93|97:80,1,70,0|0,3:0|3:0,0:0:0:0:
84,164,9366,2,0,P|110:186|142:199,1,70,8|0,0:2|3:0,0:0:0:0:
256,140,9755,6,0,L|232:-4,1,140,0|8,3:2|0:2,0:0:0:0:
360,48,10340,1,0,3:0:0:0:
360,48,10437,1,8,0:2:0:0:
360,48,10534,2,0,L|432:36,1,70,0|0,3:0|3:0,0:0:0:0:
412,120,10924,2,0,L|340:132,1,70,8|0,0:2|3:0,0:0:0:0:
440,196,11314,5,0,3:2:0:0:
412,276,11508,1,0,0:0:0:0:
440,356,11703,1,8,0:2:0:0:
332,276,11898,1,0,3:0:0:0:
332,276,11995,1,8,0:2:0:0:
332,276,12093,2,0,P|304:308|300:340,1,70,0|0,3:0|3:0,0:0:0:0:
216,320,12482,2,0,P|218:362|238:387,1,70,8|0,0:2|3:0,0:0:0:0:
372,196,12872,6,0,P|304:196|248:240,1,140,4|8,3:2|0:2,0:0:0:0:
124,328,13456,1,0,3:0:0:0:
124,328,13554,1,8,0:2:0:0:
124,328,13651,2,0,B|88:332|88:332|52:320,1,70,0|0,3:0|3:0,0:0:0:0:
100,252,14041,2,0,B|136:248|136:248|172:260,1,70,8|0,0:2|3:0,0:0:0:0:
20,220,14430,6,0,B|16:156|16:156|42:119|84:120,1,140,0|8,3:2|0:2,0:0:0:0:
212,140,15015,1,0,3:0:0:0:
212,140,15112,1,8,0:2:0:0:
212,140,15210,2,0,P|182:157|148:164,1,70,0|0,3:0|3:0,0:0:0:0:
152,80,15599,2,0,P|181:62|215:55,1,70,8|0,0:2|3:0,0:0:0:0:
264,200,15989,6,0,P|203:234|135:248,1,140,0|8,3:2|0:2,0:0:0:0:
264,304,16573,1,0,3:0:0:0:
264,304,16671,1,8,0:2:0:0:
264,304,16768,1,0,3:0:0:0:
344,336,16963,1,0,3:0:0:0:
376,260,17158,1,8,0:2:0:0:
456,292,17353,1,0,3:0:0:0:
412,176,17547,5,0,3:2:0:0:
448,100,17742,2,0,L|476:40,2,35,0|0|8,0:0|0:0|0:2,0:0:0:0:
412,176,18132,1,0,3:0:0:0:
320,196,18327,2,0,P|286:187|252:168,1,70,0|0,3:0|3:0,0:0:0:0:
255,170,18619,1,0,3:0:0:0:
255,170,18716,2,0,L|208:180,2,35,8|8|0,0:2|0:2|3:0,0:0:0:0:
208,264,19106,6,0,P|156:240|136:160,1,140,4|10,3:2|0:2,0:0:0:0:
196,56,19788,1,10,0:2:0:0:
196,56,19885,2,0,L|276:48,1,70,2|2,3:2|3:2,0:0:0:0:
344,76,20275,2,0,L|424:68,1,70,10|2,0:2|3:2,0:0:0:0:
512,128,20664,6,0,L|500:280,1,140,2|10,3:2|0:2,0:0:0:0:
424,208,21249,2,0,L|412:68,1,140,2|2,3:2|3:2,0:0:0:0:
468,8,21833,1,8,0:2:0:0:
340,116,22223,6,0,L|216:180,1,140,0|10,3:2|0:2,0:0:0:0:
96,140,22905,1,10,0:2:0:0:
96,140,23002,2,0,L|108:60,1,70,2|2,3:2|3:2,0:0:0:0:
4,148,23392,2,0,L|16:228,1,70,10|2,0:2|3:2,0:0:0:0:
32,324,23781,6,0,P|100:308|168:336,1,140,2|10,3:2|0:2,0:0:0:0:
240,368,24366,2,0,P|308:384|376:356,1,140,2|2,3:2|3:2,0:0:0:0:
432,300,24950,1,8,0:2:0:0:
296,204,25340,6,0,P|240:168|264:104,1,140,0|10,3:2|0:2,0:0:0:0:
152,40,26021,1,10,0:2:0:0:
152,39,26119,2,0,P|115:43|83:59,1,70,2|2,3:2|3:2,0:0:0:0:
44,132,26508,2,0,P|48:168|64:200,1,70,10|2,0:2|3:2,0:0:0:0:
184,272,26898,6,0,P|253:265|316:235,1,140,2|10,3:2|0:2,0:0:0:0:
492,348,27482,2,0,P|422:341|359:311,1,140,2|2,3:2|3:2,0:0:0:0:
316,234,28067,2,0,L|328:163,1,70,8|2,0:2|3:2,0:0:0:0:
268,308,28456,5,2,3:2:0:0:
188,328,28651,1,2,0:2:0:0:
108,304,28846,1,10,0:2:0:0:
56,144,29236,2,0,L|72:56,2,70,0|0|8,3:0|3:0|0:2,0:0:0:0:
128,192,29820,6,0,L|153:54,1,140,2|2,3:2|0:2,0:0:0:0:
256,140,30405,1,8,0:2:0:0:
256,140,30502,1,0,0:0:0:0:
256,140,30599,1,2,3:2:0:0:
358,54,30794,2,0,L|384:192,1,140,2|10,3:2|0:2,0:0:0:0:
256,140,31379,1,0,3:0:0:0:
128,192,31573,6,0,L|52:184,1,70,4|2,3:2|0:2,0:0:0:0:
48,268,31963,2,0,L|124:276,1,70,10|0,0:2|3:0,0:0:0:0:
268,236,32353,2,0,L|198:243,1,70,2|2,3:2|3:2,0:0:0:0:
209,327,32742,2,0,L|278:319,1,70,10|2,0:2|3:2,0:0:0:0:
372,225,33132,6,0,L|265:236,1,105,2|0,3:2|0:0,0:0:0:0:
267,235,33521,1,10,0:2:0:0:
384,308,33716,2,0,P|448:272|452:192,1,140,2|2,3:2|3:2,0:0:0:0:
424,132,34301,1,8,0:2:0:0:
260,156,34690,6,0,P|224:165|192:160,1,70,0|2,3:2|0:2,0:0:0:0:
224,80,35080,2,0,P|259:70|292:76,1,70,10|0,0:2|3:0,0:0:0:0:
160,241,35469,2,0,P|126:250|92:245,1,70,2|2,3:2|3:2,0:0:0:0:
124,164,35859,2,0,P|157:154|191:159,1,70,10|2,0:2|3:2,0:0:0:0:
180,316,36249,6,0,P|130:331|78:323,1,105,2|0,3:2|0:0,0:0:0:0:
78,323,36638,1,10,0:2:0:0:
8,228,36833,2,0,L|28:88,1,140,2|2,3:2|3:2,0:0:0:0:
40,8,37417,1,8,0:2:0:0:
184,96,37807,6,0,L|192:196,1,70,0|2,3:2|0:2,0:0:0:0:
261,285,38197,2,0,L|256:216,1,70,10|0,0:2|3:0,0:0:0:0:
262,70,38586,2,0,L|268:140,1,70,2|2,3:2|3:2,0:0:0:0:
340,260,38976,2,0,L|334:190,1,70,10|2,0:2|3:2,0:0:0:0:
392,320,39366,6,0,B|424:276|424:276|416:184,1,140,2|10,3:2|0:2,0:0:0:0:
504,104,39950,2,0,B|444:109|444:109|436:113|436:113|435:105|435:105|428:110|428:110|368:115,1,140,2|2,3:2|3:2,0:0:0:0:
292,124,40534,1,8,0:2:0:0:
192,52,40729,1,2,3:2:0:0:
192,52,40827,1,0,0:0:0:0:
192,52,40924,6,0,L|96:60,1,70,0|2,3:2|0:2,0:0:0:0:
60,116,41314,2,0,P|96:164|92:228,1,105,10|8,0:2|0:2,0:0:0:0:
72,240,41703,2,0,P|60:276|60:316,2,70,0|0|8,3:0|3:0|0:2,0:0:0:0:
160,288,42288,6,0,P|208:324|292:320,1,140,2|2,3:2|0:2,0:0:0:0:
328,248,42872,2,0,P|320:204|292:168,1,70,8|2,0:2|3:2,0:0:0:0:
244,244,43262,1,2,3:2:0:0:
192,180,43456,2,0,L|140:168,4,35,0|0|8|8|0,3:0|3:0|0:2|0:2|3:0,0:0:0:0:
272,157,44041,5,4,3:2:0:0:
418,76,44430,1,4,3:2:0:0:
498,222,44820,1,4,3:2:0:0:
351,303,45210,1,4,3:2:0:0:
276,344,45405,5,0,3:0:0:0:
276,344,45502,1,8,0:2:0:0:
276,344,45599,1,0,3:2:0:0:
200,308,45794,2,0,P|152:288|52:296,1,140,2|2,0:2|0:2,0:0:0:0:
28,216,46379,1,2,3:2:0:0:
60,140,46573,2,0,P|96:156|148:152,1,70,2|8,3:2|0:2,0:0:0:0:
196,112,46963,6,0,B|264:120|264:120|336:92,1,140,0|0,0:0|0:0,0:0:0:0:
408,64,47547,1,10,0:2:0:0:
252,0,47937,1,2,3:2:0:0:
176,32,48132,2,0,L|104:24,2,70,2|10|0,3:2|0:2|3:0,0:0:0:0:
240,88,48716,2,0,L|232:160,1,70,2|0,3:2|0:0,0:0:0:0:
220,240,49106,1,10,0:2:0:0:
120,316,49301,6,0,B|153:299|186:316|186:316|220:332|253:316,1,140,2|0,3:2|3:2,0:0:0:0:
312,252,49885,1,8,0:2:0:0:
312,252,49982,1,8,0:2:0:0:
312,252,50080,2,0,L|326:200,1,35,0|0,3:2|3:2,0:0:0:0:
333,169,50275,5,4,3:2:0:0:
187,88,50664,1,4,3:2:0:0:
107,234,51054,1,4,3:2:0:0:
254,315,51443,1,4,3:2:0:0:
312,252,51638,5,0,3:0:0:0:
312,252,51736,1,8,0:2:0:0:
312,252,51833,1,0,3:2:0:0:
392,228,52028,2,0,L|468:232,2,70,2|10|2,0:2|0:2|0:2,0:0:0:0:
312,252,52612,1,2,3:2:0:0:
228,268,52807,2,0,L|152:264,1,70,2|8,3:2|0:2,0:0:0:0:
44,344,53197,6,0,B|80:300|80:300|72:208,1,140,2|2,3:2|0:2,0:0:0:0:
64,132,53781,2,0,L|144:124,1,70,10|2,0:2|3:2,0:0:0:0:
216,116,54171,1,2,3:2:0:0:
216,116,54366,1,2,3:2:0:0:
300,108,54560,1,8,0:2:0:0:
187,242,54755,6,0,B|223:198|223:198|215:106,1,140,2|2,0:2|0:2,0:0:0:0:
207,30,55340,2,0,L|287:22,1,70,10|2,0:2|3:2,0:0:0:0:
359,14,55729,1,2,3:2:0:0:
359,14,55924,1,2,3:2:0:0:
444,4,56119,1,8,0:2:0:0:
412,80,56314,1,0,3:2:0:0:
472,208,56508,6,0,L|480:124,1,70,12|0,3:2|3:2,0:0:0:0:
384,236,56898,2,0,L|392:152,1,70,12|0,3:2|3:2,0:0:0:0:
324,356,57288,2,0,L|316:272,1,70,12|0,3:2|3:2,0:0:0:0:
412,384,57677,2,0,L|404:300,1,70,12|0,3:2|3:2,0:0:0:0:
304,200,58067,6,0,B|248:208|248:208|224:196|224:196|168:204,1,140,12|8,3:2|0:2,0:0:0:0:
84,216,58651,1,0,3:2:0:0:
28,156,58846,2,0,P|13:119|16:84,1,70,8|0,0:2|3:2,0:0:0:0:
72,28,59236,2,0,P|108:13|144:15,1,70,0|8,3:2|0:2,2:2:0:0:
232,116,59625,6,0,P|261:188|337:223,1,154.000004699707,6|8,3:2|0:2,0:0:0:0:
416,233,60210,1,2,3:2:0:0:
418,140,60405,2,0,P|388:67|312:32,1,154.000004699707,2|8,3:2|0:2,0:0:0:0:
234,22,60989,1,2,3:2:0:0:
232,116,61184,6,0,P|261:188|337:223,1,154.000004699707,2|8,3:2|0:2,0:0:0:0:
416,233,61768,1,2,3:2:0:0:
496,184,61963,2,0,P|504:148|500:108,1,77.0000023498536,2|2,3:2|0:2,0:0:0:0:
416,233,62353,2,0,P|411:271|420:308,1,77.0000023498536,10|2,0:2|0:2,0:0:0:0:
316,364,62742,6,0,B|272:364|272:364|240:352|240:352|208:364|208:364|164:364,1,154.000004699707,2|8,3:2|0:2,0:0:0:0:
96,304,63327,1,2,3:2:0:0:
168,244,63521,2,0,B|212:244|212:244|244:256|244:256|276:244|276:244|320:244,1,154.000004699707,2|8,3:2|0:2,0:0:0:0:
388,304,64106,1,2,3:2:0:0:
316,364,64301,6,0,B|272:364|272:364|240:352|240:352|208:364|208:364|192:364,1,115.50000352478,2|0,3:2|0:0,0:0:0:0:
166,364,64690,1,10,0:2:0:0:
96,304,64885,1,2,0:2:0:0:
96,304,64982,1,0,0:0:0:0:
96,304,65080,1,2,3:2:0:0:
168,244,65275,1,2,3:2:0:0:
96,188,65469,2,0,B|92:148|92:148|96:112,1,77.0000023498536,10|0,0:2|3:0,0:0:0:0:
168,244,65859,6,0,B|244:244|244:244|296:184,1,154.000004699707,6|8,3:2|0:2,0:0:0:0:
380,224,66443,1,2,3:2:0:0:
348,312,66638,2,0,B|272:312|272:312|220:372,1,154.000004699707,2|8,3:2|0:2,0:0:0:0:
136,332,67223,1,2,3:2:0:0:
168,244,67417,6,0,B|244:244|244:244|296:184,1,154.000004699707,2|8,3:2|0:2,0:0:0:0:
380,224,68002,1,2,3:2:0:0:
440,152,68197,1,2,3:2:0:0:
440,152,68392,1,2,0:2:0:0:
392,76,68586,1,10,0:2:0:0:
392,76,68781,1,2,0:2:0:0:
300,92,68976,6,0,P|256:120|248:44,1,154.000004699707,4|8,3:2|0:2,0:0:0:0:
84,144,69755,2,0,P|128:116|136:192,1,154.000004699707,2|8,3:2|0:2,0:0:0:0:
68,244,70340,1,0,3:2:0:0:
184,336,70534,6,0,L|340:308,1,154.000004699707,2|8,3:2|0:2,0:0:0:0:
296,224,71119,1,0,3:2:0:0:
336,140,71314,1,8,0:2:0:0:
296,56,71508,2,0,L|296:16,2,38.5000011749268,0|0|8,3:2|3:2|0:2,0:0:0:0:
256,140,71898,1,0,3:2:0:0:
168,256,72093,6,0,B|136:288|136:288|72:288|72:288|40:256,1,154.000004699707,6|8,3:2|0:2,0:0:0:0:
40,164,72677,1,2,3:2:0:0:
40,72,72872,2,0,B|72:40|72:40|136:40|136:40|168:72,1,154.000004699707,2|8,3:2|0:2,0:0:0:0:
168,164,73456,1,2,3:2:0:0:
168,256,73651,6,0,B|136:288|136:288|72:288|72:288|40:256,1,154.000004699707,2|8,3:2|0:2,0:0:0:0:
40,164,74236,1,2,3:2:0:0:
40,72,74430,2,0,B|72:40|72:40|104:40,1,77.0000023498536,2|2,3:2|0:2,0:0:0:0:
180,96,74820,2,0,B|148:128|148:128|116:128,1,77.0000023498536,10|0,0:2|0:0,0:0:0:0:
168,256,75210,6,0,B|201:281|201:281|235:289|269:281|269:281|303:256,1,154.000004699707,2|8,3:2|0:2,0:0:0:0:
372,196,75794,1,2,3:2:0:0:
304,136,75989,2,0,B|270:110|270:110|236:102|202:110|202:110|168:136,1,154.000004699707,2|8,3:2|0:2,0:0:0:0:
100,196,76573,1,2,3:2:0:0:
168,256,76768,6,0,B|201:281|201:281|235:289|269:281|269:281|303:256,1,154.000004699707,2|10,3:2|0:2,0:0:0:0:
372,196,77353,1,2,3:2:0:0:
304,136,77547,1,2,3:2:0:0:
304,136,77742,1,2,0:2:0:0:
372,72,77937,1,8,0:2:0:0:
372,72,78132,1,2,0:2:0:0:
232,80,78327,6,0,L|60:104,1,154.000004699707,6|8,3:2|0:2,0:0:0:0:
24,176,78911,1,2,3:2:0:0:
96,232,79106,2,0,L|268:208,1,154.000004699707,2|8,3:2|0:2,0:0:0:0:
304,136,79690,1,2,3:2:0:0:
232,80,79885,6,0,L|60:104,1,154.000004699707,2|8,3:2|0:2,0:0:0:0:
24,176,80469,1,2,3:2:0:0:
96,232,80664,2,0,L|104:312,1,77.0000023498536,2|2,3:2|0:2,0:0:0:0:
103,308,80956,1,0,0:0:0:0:
103,308,81054,1,10,0:2:0:0:
176,368,81249,1,2,0:2:0:0:
256,276,81443,6,0,P|232:236|232:120,1,154.000004699707,2|8,3:2|0:2,0:0:0:0:
320,108,82028,1,0,3:2:0:0:
368,188,82223,2,0,P|444:192|512:159,1,154.000004699707,2|8,3:2|0:2,0:0:0:0:
376,36,83002,6,0,P|307:3|231:7,1,154.000004699707,2|8,3:2|0:2,0:0:0:0:
144,36,83586,1,0,3:2:0:0:
60,80,83781,2,0,L|4:76,4,38.5000011749268,8|0|0|0|8,0:2|0:0|3:2|3:2|0:2,0:0:0:0:
136,132,84366,1,0,3:2:0:0:
72,240,84560,5,4,3:2:0:0:
256,192,84755,12,0,86119,3:2:0:0:
456,76,97028,5,4,3:2:0:0:
456,76,98586,6,0,L|384:96,1,70,8|0,0:2|3:0,0:0:0:0:
292,124,98976,1,0,3:0:0:0:
292,124,99073,2,0,L|168:96,1,105,0|0,3:0|3:0,0:0:0:0:
108,80,99560,2,0,L|60:68,4,35,0|0|8|8|0,3:0|3:0|0:2|0:2|3:0,0:0:0:0:
84,172,100145,6,0,L|224:204,1,140,0|10,3:2|0:2,0:0:0:0:
348,232,100827,1,10,0:2:0:0:
348,232,100924,2,0,L|428:220,1,70,2|2,3:2|3:2,0:0:0:0:
368,316,101314,2,0,L|288:304,1,70,10|2,0:2|3:2,0:0:0:0:
276,176,101703,6,0,B|268:112|268:112|300:88|300:40,1,140,2|10,3:2|0:2,0:0:0:0:
216,40,102288,2,0,B|174:40|150:8|150:8|86:16,1,140,2|2,3:2|3:2,0:0:0:0:
4,28,102872,1,8,0:2:0:0:
100,168,103262,6,0,B|68:232|68:232|24:176,1,140,0|10,3:2|0:2,0:0:0:0:
0,300,103943,1,10,0:2:0:0:
0,301,104041,2,0,P|32:320|72:328,1,70,2|2,3:2|3:2,0:0:0:0:
136,288,104430,2,0,P|168:269|208:261,1,70,10|2,0:2|3:2,0:0:0:0:
320,296,104820,6,0,P|356:240|336:168,1,140,2|10,3:2|0:2,0:0:0:0:
391,3,105405,2,0,P|427:60|410:126,1,140,2|2,3:2|3:2,0:0:0:0:
339,172,105989,2,0,L|264:144,1,70,8|2,0:2|3:2,0:0:0:0:
416,208,106379,5,2,3:2:0:0:
388,288,106573,1,2,0:2:0:0:
416,368,106768,1,10,0:2:0:0:
280,268,107158,2,0,P|245:268|211:260,2,70,0|0|8,3:0|3:0|0:2,0:0:0:0:
132,320,107742,6,0,P|116:252|148:182,1,140,2|2,3:2|0:2,0:0:0:0:
256,128,108327,1,8,0:2:0:0:
256,128,108424,1,0,0:0:0:0:
256,128,108521,1,2,3:2:0:0:
370,189,108716,2,0,P|396:252|380:320,1,140,2|10,3:2|0:2,0:0:0:0:
256,192,109301,1,0,3:0:0:0:
312,340,109495,6,0,L|379:320,1,70,4|2,3:2|0:2,0:0:0:0:
354,240,109885,2,0,L|286:259,1,70,10|0,0:2|3:0,0:0:0:0:
441,260,110275,2,0,L|508:240,1,70,2|2,3:2|3:2,0:0:0:0:
483,160,110664,2,0,L|415:179,1,70,10|2,0:2|3:2,0:0:0:0:
360,72,111054,6,0,L|240:48,1,105,2|0,3:2|0:0,0:0:0:0:
257,51,111443,1,10,0:2:0:0:
164,144,111638,2,0,P|194:204|184:292,1,140,2|2,3:2|3:2,0:0:0:0:
152,352,112223,1,8,0:2:0:0:
32,236,112612,6,0,P|16:205|18:170,1,70,0|2,3:2|0:2,0:0:0:0:
100,192,113002,2,0,P|115:222|113:257,1,70,10|0,0:2|3:0,0:0:0:0:
164,144,113392,2,0,P|148:113|150:78,1,70,2|2,3:2|3:2,0:0:0:0:
232,100,113781,2,0,P|247:130|245:165,1,70,10|2,0:2|3:2,0:0:0:0:
184,308,114171,6,0,B|234:323|234:323|286:315,1,105,2|0,3:2|0:0,0:0:0:0:
286,314,114560,1,10,0:2:0:0:
432,288,114755,2,0,B|424:236|424:236|436:212|436:212|424:148,1,140,2|2,3:2|3:2,0:0:0:0:
472,84,115340,1,8,0:2:0:0:
312,28,115729,6,0,L|212:36,1,70,0|2,3:2|0:2,0:0:0:0:
123,105,116119,2,0,L|192:100,1,70,10|0,0:2|3:0,0:0:0:0:
338,106,116508,2,0,L|268:112,1,70,2|2,3:2|3:2,0:0:0:0:
148,184,116898,2,0,L|218:178,1,70,10|2,0:2|3:2,0:0:0:0:
260,308,117288,6,0,B|304:328|345:315|345:315|389:283,1,140,2|10,3:2|0:2,0:0:0:0:
476,360,117872,2,0,B|471:300|471:300|467:292|467:292|475:291|475:291|470:284|470:284|465:230,1,140,2|2,3:2|3:2,0:0:0:0:
460,148,118456,1,8,0:2:0:0:
384,188,118651,1,2,3:2:0:0:
384,188,118749,1,0,0:0:0:0:
384,188,118846,6,0,L|288:196,1,70,0|2,3:2|0:2,0:0:0:0:
272,268,119236,2,0,P|224:304|160:300,1,105,10|8,0:2|0:2,0:0:0:0:
140,300,119625,2,0,P|152:336|152:376,2,70,0|0|8,3:0|3:0|0:2,0:0:0:0:
80,240,120210,6,0,P|72:180|120:112,1,140,2|2,3:2|0:2,0:0:0:0:
192,152,120794,2,0,P|228:144|264:112,1,70,8|2,0:2|3:2,0:0:0:0:
192,68,121184,1,0,3:0:0:0:
260,20,121379,2,0,L|312:8,4,35,0|0|8|8|0,3:0|3:0|0:2|0:2|3:0,0:0:0:0:
272,104,121963,5,4,3:2:0:0:
126,23,122353,1,4,3:2:0:0:
46,169,122742,1,4,3:2:0:0:
193,250,123132,1,4,3:2:0:0:
136,312,123327,5,0,3:0:0:0:
136,312,123424,1,8,0:2:0:0:
136,312,123521,1,0,3:2:0:0:
108,232,123716,2,0,P|136:184|224:164,1,140,2|2,0:2|0:2,0:0:0:0:
284,208,124301,1,2,3:2:0:0:
352,160,124495,2,0,L|340:64,1,70,2|8,3:2|0:2,0:0:0:0:
332,8,124885,6,0,B|398:33|398:33|466:25,1,140,2|2,0:2|0:2,0:0:0:0:
500,104,125469,1,10,0:2:0:0:
500,104,125664,1,2,3:2:0:0:
484,188,125859,1,2,3:2:0:0:
468,272,126054,2,0,L|476:344,2,70,2|8|2,3:2|0:2|0:2,0:0:0:0:
404,220,126638,1,0,3:2:0:0:
356,288,126833,2,0,L|363:357,1,70,2|10,0:2|0:2,0:0:0:0:
292,232,127223,6,0,B|258:215|225:232|225:232|191:215|158:232,1,140,2|0,3:2|3:2,0:0:0:0:
96,288,127807,1,8,0:2:0:0:
96,288,127905,1,8,0:2:0:0:
96,288,128002,2,0,L|69:228,1,35,0|0,3:2|3:2,0:0:0:0:
60,212,128197,5,4,3:2:0:0:
217,157,128586,1,4,3:2:0:0:
271,315,128976,1,4,3:2:0:0:
112,369,129366,1,4,3:2:0:0:
96,288,129560,5,0,3:0:0:0:
96,288,129658,1,8,0:2:0:0:
96,288,129755,1,0,3:2:0:0:
20,256,129950,2,0,P|12:220|16:180,2,70,2|10|2,0:2|0:2|0:2,0:0:0:0:
96,288,130534,1,2,3:2:0:0:
176,316,130729,2,0,P|184:352|180:392,1,70,2|8,3:2|0:2,0:0:0:0:
284,312,131119,6,0,B|332:312|332:312|372:288|372:288|420:288,1,140,2|2,0:2|0:2,0:0:0:0:
492,328,131703,2,0,P|500:296|488:240,1,70,10|2,0:2|3:2,0:0:0:0:
432,204,132093,1,2,3:2:0:0:
432,204,132288,1,2,3:2:0:0:
432,120,132482,1,8,0:2:0:0:
298,228,132677,6,0,B|346:228|346:228|386:204|386:204|434:204,1,140,2|2,0:2|0:2,0:0:0:0:
506,244,133262,2,0,P|514:212|502:156,1,70,10|2,0:2|3:2,0:0:0:0:
446,120,133651,1,2,3:2:0:0:
446,120,133846,1,2,3:2:0:0:
446,36,134041,1,8,0:2:0:0:
372,76,134236,1,0,3:2:0:0:
248,120,134430,6,0,L|164:112,1,70,12|0,3:2|3:2,0:0:0:0:
213,198,134820,2,0,L|144:192,1,70,12|0,3:2|3:2,0:0:0:0:
365,185,135210,2,0,L|295:191,1,70,12|0,3:2|3:2,0:0:0:0:
400,264,135599,2,0,L|330:270,1,70,12|0,3:2|3:2,0:0:0:0:
204,344,135989,6,0,B|128:372|144:316|68:344,1,140,12|8,3:2|0:2,0:0:0:0:
4,292,136573,1,0,3:2:0:0:
56,224,136768,2,0,P|100:217|128:225,1,70,8|0,0:2|3:2,0:0:0:0:
180,160,137158,2,0,P|186:125|179:91,1,70,0|8,3:2|0:2,0:0:0:0:
236,232,137547,6,0,B|259:255|259:255|282:278|313:278|336:255|336:255|359:231,1,154.000004699707,6|8,3:2|0:2,0:0:0:0:
416,156,138132,1,2,3:2:0:0:
360,84,138327,2,0,B|336:60|336:60|313:37|282:37|259:60|259:60|236:84,1,154.000004699707,2|8,3:2|0:2,0:0:0:0:
180,160,138911,1,2,3:2:0:0:
236,232,139106,6,0,B|259:255|259:255|282:278|313:278|336:255|336:255|359:231,1,154.000004699707,2|8,3:2|0:2,0:0:0:0:
416,156,139690,1,2,3:2:0:0:
360,84,139885,2,0,B|330:54|330:54|312:44|297:43,1,77.0000023498536,2|2,3:2|0:2,0:0:0:0:
204,44,140275,2,0,B|189:44|171:54|171:54|141:84,1,77.0000023498536,10|2,0:2|0:2,0:0:0:0:
64,208,140664,6,0,B|60:232|64:252|64:252|44:284|64:316|64:316|60:336|64:357,1,154.000004699707,2|8,3:2|0:2,0:0:0:0:
156,336,141249,1,2,3:2:0:0:
248,356,141443,2,0,B|252:332|248:312|248:312|268:280|248:248|248:248|252:228|248:206,1,154.000004699707,2|8,3:2|0:2,0:0:0:0:
156,228,142028,1,2,3:2:0:0:
64,208,142223,6,0,B|60:232|64:252|64:252|44:284|64:316|64:316|60:336|64:352,1,115.50000352478,2|0,3:2|0:0,0:0:0:0:
64,357,142612,1,10,0:2:0:0:
156,336,142807,1,2,0:2:0:0:
156,336,142905,1,0,0:0:0:0:
156,336,143002,1,2,3:2:0:0:
248,356,143197,1,2,3:2:0:0:
336,336,143392,2,0,B|416:340,1,77.0000023498536,10|0,0:2|3:0,0:0:0:0:
456,240,143781,6,0,B|418:247|382:226|382:226|344:243|307:232,1,154.000004699707,6|8,3:2|0:2,0:0:0:0:
336,144,144366,1,2,3:2:0:0:
316,56,144560,2,0,B|353:48|389:69|389:69|427:52|464:63,1,154.000004699707,2|8,3:2|0:2,0:0:0:0:
436,152,145145,1,2,3:2:0:0:
456,240,145340,6,0,B|418:247|382:226|382:226|344:243|307:232,1,154.000004699707,2|8,3:2|0:2,0:0:0:0:
336,144,145924,1,2,3:2:0:0:
316,56,146119,1,2,3:2:0:0:
316,56,146314,1,2,0:2:0:0:
252,120,146508,1,10,0:2:0:0:
252,120,146703,1,2,0:2:0:0:
168,84,146898,6,0,B|114:138|114:138|185:170,1,154.000004699707,4|8,3:2|0:2,0:0:0:0:
96,332,147677,2,0,B|150:278|150:278|79:246,1,154.000004699707,2|8,3:2|0:2,0:0:0:0:
12,308,148262,1,0,3:2:0:0:
164,384,148456,6,0,B|224:324|224:324|248:296|232:244,1,154.000004699707,2|8,3:2|0:2,0:0:0:0:
180,184,149041,1,0,3:2:0:0:
268,156,149236,1,8,0:2:0:0:
268,64,149430,2,0,L|244:28,2,38.5000011749268,0|0|8,3:2|3:2|0:2,0:0:0:0:
352,108,149820,1,0,3:2:0:0:
480,188,150015,6,0,B|511:219|511:219|495:250|511:281|511:281|480:312,1,154.000004699707,6|8,3:2|0:2,0:0:0:0:
412,376,150599,1,2,3:2:0:0:
344,312,150794,2,0,B|312:280|312:280|328:249|312:218|312:218|344:187,1,154.000004699707,2|8,3:2|0:2,0:0:0:0:
412,124,151379,1,2,3:2:0:0:
480,188,151573,6,0,B|511:219|511:219|495:250|511:281|511:281|480:312,1,154.000004699707,2|8,3:2|0:2,0:0:0:0:
412,376,152158,1,2,3:2:0:0:
344,312,152353,2,0,L|288:260,1,77.0000023498536,2|2,3:2|0:2,0:0:0:0:
196,260,152742,2,0,L|140:208,1,77.0000023498536,10|0,0:2|0:0,0:0:0:0:
256,116,153132,6,0,B|290:91|290:91|324:84|324:84|358:91|358:91|392:116,1,154.000004699707,2|8,3:2|0:2,0:0:0:0:
460,176,153716,1,2,3:2:0:0:
392,240,153911,2,0,B|358:265|358:265|324:272|324:272|290:265|290:265|256:240,1,154.000004699707,2|8,3:2|0:2,0:0:0:0:
188,180,154495,1,2,3:2:0:0:
256,116,154690,6,0,B|290:91|290:91|324:84|324:84|358:91|358:91|392:116,1,154.000004699707,2|10,3:2|0:2,0:0:0:0:
460,176,155275,1,2,3:2:0:0:
392,240,155469,1,2,3:2:0:0:
392,240,155664,1,2,0:2:0:0:
460,304,155859,1,8,0:2:0:0:
460,304,156054,1,2,0:2:0:0:
328,324,156249,6,0,B|251:334|251:334|200:277,1,154.000004699707,6|8,3:2|0:2,0:0:0:0:
140,208,156833,1,2,3:2:0:0:
228,184,157028,2,0,B|304:173|304:173|355:230,1,154.000004699707,2|8,3:2|0:2,0:0:0:0:
416,300,157612,1,2,3:2:0:0:
328,324,157807,6,0,B|251:334|251:334|200:277,1,154.000004699707,2|8,3:2|0:2,0:0:0:0:
140,208,158392,1,2,3:2:0:0:
196,132,158586,2,0,P|196:92|176:56,1,77.0000023498536,2|2,3:2|0:2,0:0:0:0:
179,59,158879,1,0,0:0:0:0:
179,59,158976,1,10,0:2:0:0:
92,24,159171,1,2,0:2:0:0:
248,8,159366,6,0,P|282:76|281:152,1,154.000004699707,2|8,3:2|0:2,0:0:0:0:
212,216,159950,1,0,3:2:0:0:
292,264,160145,2,0,P|368:264|436:230,1,154.000004699707,2|8,3:2|0:2,0:0:0:0:
304,360,160924,6,0,P|227:360|159:326,1,154.000004699707,2|8,3:2|0:2,0:0:0:0:
96,260,161508,1,0,3:2:0:0:
84,168,161703,2,0,L|80:112,4,38.5000011749268,8|0|0|0|8,0:2|0:0|3:2|3:2|0:2,0:0:0:0:
172,204,162288,1,0,3:2:0:0:
236,76,162482,5,4,3:2:0:0:
420,96,162872,1,8,0:2:0:0:
420,96,163067,2,0,P|415:176|342:222,1,154.000004699707,2|0,0:0|3:2,0:0:0:0:
348,312,163651,2,0,P|280:267|277:181,1,154.000004699707,10|0,0:2|3:2,0:0:0:0:
196,141,164236,6,0,P|268:105|344:145,1,154.000004699707,2|0,0:2|0:0,0:0:0:0:
360,218,164820,2,0,P|354:257|328:288,1,77.0000023498536,2|0,3:2|3:2,0:0:0:0:
240,292,165210,2,0,P|208:267|194:229,1,77.0000023498536,10|0,0:2|0:0,0:0:0:0:
196,372,165599,6,0,P|135:325|105:255,1,154.000004699707,2|8,3:2|0:2,0:0:0:0:
132,168,166184,1,2,0:2:0:0:
194,233,166379,2,0,P|216:192|220:152,1,77.0000023498536,0|0,3:2|3:2,0:0:0:0:
200,72,166768,2,0,P|244:58|275:33,1,77.0000023498536,8|0,0:2|0:0,0:0:0:0:
398,138,167158,6,0,P|361:131|328:112,1,77.0000023498536,0|0,3:2|3:0,0:0:0:0:
288,248,167547,2,0,P|325:238|356:216,1,77.0000023498536,8|0,0:2|3:0,0:0:0:0:
508,244,167937,2,0,P|470:237|437:217,1,77.0000023498536,0|0,3:2|3:2,0:0:0:0:
397,353,168327,2,0,P|434:343|465:321,1,77.0000023498536,8|0,0:2|0:0,0:0:0:0:
308,352,168716,5,6,3:2:0:0:
124,324,169106,1,8,0:2:0:0:
124,324,169301,2,0,P|88:252|128:176,1,154.000004699707,2|0,0:0|3:2,0:0:0:0:
78,100,169885,2,0,P|158:104|204:177,1,154.000004699707,10|0,0:2|3:2,0:0:0:0:
295,173,170469,6,0,P|250:240|164:243,1,154.000004699707,2|0,0:2|0:0,0:0:0:0:
114,188,171054,2,0,P|99:150|105:111,1,77.0000023498536,2|0,3:2|3:2,0:0:0:0:
181,64,171443,2,0,P|220:69|251:95,1,77.0000023498536,10|0,0:2|0:0,0:0:0:0:
372,216,171833,6,0,P|447:206|508:160,1,154.000004699707,2|8,3:2|0:2,0:0:0:0:
480,72,172417,1,2,0:2:0:0:
408,16,172612,2,0,B|370:30|370:30|332:27,1,77.0000023498536,0|0,3:2|3:2,0:0:0:0:
306,117,173002,2,0,B|269:100|269:100|244:72,1,77.0000023498536,8|0,0:2|3:0,3:3:0:0:
100,120,173392,6,0,B|136:103|136:103|161:75,1,77.0000023498536,0|0,3:2|3:0,3:3:0:0:
180,180,173781,2,0,B|125:204|125:204|88:246,1,115.50000352478,8|0,0:2|0:3,3:3:0:0:
96,292,174171,2,0,B|144:327|144:327|199:338,1,115.50000352478,0|0,3:2|0:3,3:3:0:0:
244,348,174560,2,0,L|296:356,3,38.5000011749268,8|8|8|8,0:2|0:2|0:2|0:2,0:0:0:0:
328,360,174950,6,0,P|376:308|376:260,1,115.50000352478,4|0,3:2|0:0,0:0:0:0:
372,220,175340,1,8,0:2:0:0:
296,164,175534,1,0,3:0:0:0:
296,164,175632,1,8,0:2:0:0:
296,164,175729,1,0,3:0:0:0:
212,204,175924,1,0,3:0:0:0:
136,152,176119,1,8,0:2:0:0:
224,32,176314,6,0,L|404:40,1,154.000004699707,0|0,3:0|0:0,0:0:0:0:
472,40,176898,1,8,0:2:0:0:
424,168,177190,1,8,0:2:0:0:
424,168,177288,2,0,L|448:256,1,77.0000023498536,0|0,3:0|3:0,0:0:0:0:
460,332,177677,1,8,0:2:0:0:
344,244,177872,6,0,B|332:192|332:192|316:120|380:84,1,154.000004699707,0|0,3:0|0:0,0:0:0:0:
448,80,178456,1,8,0:2:0:0:
424,168,178651,1,0,3:0:0:0:
357,99,178846,2,0,L|245:91,1,77.0000023498536,0|0,3:0|3:0,0:0:0:0:
272,184,179236,2,0,L|264:245,2,38.5000011749268,8|0|0,0:2|0:0|3:0,0:0:0:0:
180,172,179625,6,0,L|192:96,1,77.0000023498536,0|0,3:2|0:0,0:0:0:0:
132,28,180015,1,8,0:2:0:0:
132,28,180210,1,0,3:0:0:0:
84,192,180405,2,0,L|96:116,1,77.0000023498536,0|0,3:0|3:0,0:0:0:0:
36,48,180794,1,8,0:2:0:0:
4,200,180989,1,0,3:0:0:0:
2,211,181086,1,0,0:0:0:0:
1,223,181184,6,0,P|33:258|144:256,1,154.000004699707,4|8,3:2|0:2,0:0:0:0:
228,368,181768,2,0,B|219:306|219:306|232:280|232:280|223:219,1,154.000004699707,0|0,3:0|3:0,0:0:0:0:
208,128,182353,1,8,0:2:0:0:
288,84,182547,6,0,L|336:56,2,38.5000011749268,0|0|0,3:0|0:0|3:2,0:0:0:0:
208,128,182937,2,0,L|160:156,2,38.5000011749268,0|0|8,0:0|0:0|0:2,0:0:0:0:
200,36,183327,1,0,3:0:0:0:
200,36,183424,1,8,0:2:0:0:
200,36,183521,2,0,B|162:58|162:58|128:64|128:64|107:91|107:91|69:114,1,154.000004699707,0|8,3:0|0:2,0:0:0:0:
20,192,184106,1,0,3:0:0:0:
71,271,184301,6,0,L|67:355,1,77.0000023498536,0|0,3:2|0:0,0:0:0:0:
168,236,184690,2,0,L|164:320,1,77.0000023498536,8|0,0:2|3:2,0:0:0:0:
264,280,185080,2,0,L|260:364,1,77.0000023498536,8|0,0:2|3:2,0:0:0:0:
361,245,185469,2,0,L|357:329,1,77.0000023498536,8|0,0:2|3:2,0:0:0:0:
452,280,185859,5,4,3:2:0:0:
480,192,186054,1,0,3:2:0:0:
480,192,186151,1,0,3:2:0:0:
480,192,186249,1,4,3:3:0:0:
448,104,186443,1,0,3:2:0:0:
448,104,186541,1,0,3:2:0:0:
448,104,186638,1,4,3:3:0:0:
364,68,186833,1,0,3:2:0:0:
364,68,186930,1,0,3:2:0:0:
364,68,187028,2,0,L|368:28,3,38.5000011749268,8|8|8|8,0:2|0:2|0:2|0:2,0:0:0:0:
328,48,187417,6,0,P|260:60|180:52,1,140,6|8,3:2|0:2,0:0:0:0:
112,24,188002,1,0,0:0:0:0:
48,80,188197,2,0,L|64:244,1,140,0|10,3:2|0:2,0:0:0:0:
148,364,188976,6,0,L|164:200,1,140,2|10,3:2|0:2,0:0:0:0:
168,140,189560,1,0,0:0:0:0:
240,184,189755,2,0,P|309:178|378:190,1,140,2|10,3:2|0:2,0:0:0:0:
360,356,190534,6,0,B|268:368|218:327|253:243|329:273,1,210,2|2,3:2|0:2,0:0:0:0:
396,276,191314,2,0,P|456:232|460:168,1,140,2|8,3:2|0:2,0:0:0:0:
376,28,192093,6,0,B|340:60|340:60|240:48,1,140,2|8,3:2|0:2,0:0:0:0:
216,124,192677,2,0,B|124:113|124:113|88:145,1,140,2|2,0:2|3:2,0:0:0:0:
28,204,193262,1,8,0:2:0:0:
88,260,193456,1,0,3:2:0:0:
152,208,193651,6,0,P|180:160|148:80,1,140,6|8,3:2|0:2,0:0:0:0:
88,32,194236,1,0,0:0:0:0:
168,4,194430,2,0,L|316:16,1,140,0|10,3:2|0:2,0:0:0:0:
460,88,195210,6,0,L|320:99,1,140,2|10,3:2|0:2,0:0:0:0:
264,160,195794,1,0,0:0:0:0:
336,200,195989,2,0,P|363:262|334:323,1,140,2|10,3:2|0:2,0:0:0:0:
204,220,196768,6,0,B|147:165|78:165|78:165|69:204|111:241,1,210,2|2,3:2|0:2,0:0:0:0:
48,296,197547,2,0,P|4:216|4:136,1,140,2|8,3:2|0:2,0:0:0:0:
152,100,198327,5,4,3:2:0:0:
224,140,198521,2,0,P|256:152|288:140,1,70,0|8,0:0|0:2,0:0:0:0:
360,100,198911,1,4,3:2:0:0:
214,15,199301,1,0,3:2:0:0:
214,15,199495,1,8,0:2:0:0:
298,15,199690,1,2,3:2:0:0:
152,100,199885,6,0,B|112:112|80:100|80:100|80:132|48:164,1,140,6|8,3:2|0:2,0:0:0:0:
0,224,200469,1,0,3:0:0:0:
52,288,200664,2,0,P|144:284|204:240,1,140,0|10,3:2|0:2,0:0:0:0:
336,192,201443,6,0,P|244:188|184:144,1,140,2|10,3:2|0:2,0:0:0:0:
152,100,202028,1,0,3:0:0:0:
236,84,202223,2,0,B|277:76|287:41|287:41|318:53|357:22,1,140,2|10,3:2|0:2,0:0:0:0:
474,141,203002,6,0,L|466:289,1,140,2|8,3:2|0:2,0:0:0:0:
466,280,203586,1,0,3:0:0:0:
368,352,203781,2,0,L|375:212,1,140,2|8,3:2|0:2,0:0:0:0:
376,213,204366,1,2,3:2:0:0:
284,88,204560,6,0,L|276:236,1,140,2|8,3:2|0:2,0:0:0:0:
180,308,205145,1,0,3:2:0:0:
180,308,205242,1,8,0:2:0:0:
180,308,205340,2,0,L|184:232,1,70,2|0,3:2|3:2,0:0:0:0:
116,188,205729,2,0,L|120:112,1,70,10|0,0:2|3:2,0:0:0:0:
36,108,206119,6,0,L|28:256,1,140,6|8,3:2|0:2,0:0:0:0:
80,312,206703,1,2,0:2:0:0:
153,352,206898,2,0,P|217:360|289:328,1,140,2|8,3:2|0:2,0:0:0:0:
323,256,207482,1,0,0:0:0:0:
344,172,207677,2,0,P|318:112|255:66,1,140,0|8,3:2|0:2,0:0:0:0:
92,95,208456,2,0,P|53:146|44:224,1,140,2|10,3:2|0:2,0:0:0:0:
153,352,209236,6,0,P|217:360|289:328,1,140,2|8,3:2|0:2,0:0:0:0:
320,256,209820,1,0,0:0:0:0:
344,172,210015,2,0,L|336:96,1,70,0|0,3:2|3:2,0:0:0:0:
420,116,210405,2,0,L|412:46,1,70,8|2,0:2|3:2,0:0:0:0:
504,144,210794,6,0,P|488:176|448:200,1,70,14|0,3:2|3:2,0:0:0:0:
500,272,211184,2,0,P|466:283|420:271,1,70,12|0,3:2|3:2,0:0:0:0:
408,356,211573,2,0,P|376:340|352:300,1,70,12|0,3:2|3:2,0:0:0:0:
280,352,211963,2,0,P|268:318|280:272,1,70,12|0,3:2|3:2,0:0:0:0:
324,220,212353,6,0,L|332:156,2,46.6666666666667,8|0|0,0:2|0:0|0:0,0:0:0:0:
252,192,212742,2,0,L|260:128,2,46.6666666666667,8|0|0,0:2|0:0|0:0,0:0:0:0:
188,232,213132,2,0,L|193:278,2,46.6666666666667,8|0|0,0:2|0:0|0:0,0:0:0:0:
116,260,213521,2,0,L|121:306,2,46.6666666666667,8|0|0,0:2|0:0|0:0,0:0:0:0:
256,192,213911,12,8,215469,0:2:0:0:
288,72,217028,6,0,L|276:8,2,51.3333348999024,4|4|4,3:0|3:0|3:0,0:0:0:0:
364,72,217417,2,0,L|373:21,2,51.3333348999024,4|4|4,3:0|3:0|3:0,0:0:0:0:
436,100,217807,2,0,L|458:53,2,51.3333348999024,4|4|4,3:0|3:0|3:0,0:0:0:0:
488,156,218197,1,4,3:2:0:0:
488,156,218392,1,0,0:0:0:0:
452,280,218586,6,0,B|427:244|427:244|392:233|386:196|386:196|356:165,1,154.000004699707,2|8,3:2|0:2,0:0:0:0:
268,136,219171,1,2,3:2:0:0:
276,228,219366,2,0,B|300:263|300:263|335:274|341:311|341:311|371:342,1,154.000004699707,2|8,3:2|0:2,0:0:0:0:
460,372,219950,1,2,3:2:0:0:
452,280,220145,6,0,B|427:244|427:244|392:233|386:196|386:196|364:176,1,115.50000352478,2|0,3:2|0:0,0:0:0:0:
355,165,220534,1,10,0:2:0:0:
268,136,220729,1,2,3:2:0:0:
268,136,220827,1,10,0:2:0:0:
268,136,220924,1,2,3:2:0:0:
340,76,221119,1,2,3:2:0:0:
252,44,221314,2,0,B|175:47,1,77.0000023498536,10|0,0:2|0:0,0:0:0:0:
68,124,221703,6,0,B|56:146|56:146|56:173|56:173|68:192|68:192|56:212|56:212|56:238|56:238|68:265,1,154.000004699707,6|8,3:2|0:2,0:0:0:0:
136,328,222288,1,2,3:2:0:0:
204,268,222482,2,0,B|215:245|215:245|215:218|215:218|204:199|204:199|215:179|215:179|215:153|215:153|204:126,1,154.000004699707,2|8,3:2|0:2,0:0:0:0:
136,64,223067,1,2,3:2:0:0:
68,124,223262,6,0,B|56:146|56:146|56:173|56:173|68:192|68:192|56:212|56:212|56:238|56:238|68:265,1,154.000004699707,2|8,3:2|0:2,0:0:0:0:
136,328,223846,1,2,3:2:0:0:
204,268,224041,1,2,3:2:0:0:
204,268,224236,1,2,0:2:0:0:
276,324,224430,1,10,0:2:0:0:
276,324,224625,1,2,0:2:0:0:
360,360,224820,6,0,B|404:368|448:320|404:272|360:280,1,154.000004699707,4|8,3:2|0:2,0:0:0:0:
204,187,225599,2,0,B|160:179|116:227|160:275|204:267,1,154.000004699707,2|8,3:2|0:2,0:0:0:0:
288,232,226184,1,0,3:2:0:0:
236,100,226379,6,0,P|148:104|92:136,1,154.000004699707,2|8,3:2|0:2,0:0:0:0:
20,196,226963,1,0,3:2:0:0:
80,268,227158,1,8,0:2:0:0:
16,332,227353,2,0,P|8:352|4:368,2,38.5000011749268,0|0|8,3:2|3:2|0:2,0:0:0:0:
80,268,227742,1,0,3:2:0:0:
216,184,227937,6,0,B|252:169|289:189|289:189|309:226|295:263,1,154.000004699707,6|8,3:2|0:2,0:0:0:0:
376,216,228521,1,2,3:2:0:0:
420,136,228716,2,0,B|383:150|346:130|346:130|326:93|340:56,1,154.000004699707,2|8,3:2|0:2,0:0:0:0:
260,104,229301,1,2,3:2:0:0:
216,184,229495,6,0,B|252:169|289:189|289:189|309:226|295:263,1,154.000004699707,2|8,3:2|0:2,0:0:0:0:
376,216,230080,1,2,3:2:0:0:
376,308,230275,2,0,P|352:336|312:352,1,77.0000023498536,2|2,3:2|0:2,0:0:0:0:
227,328,230664,2,0,P|207:297|202:254,1,77.0000023498536,10|0,0:2|0:0,0:0:0:0:
296,264,231054,6,0,B|310:248|330:240|330:240|335:223|348:211|348:211|346:194|353:178|353:178|342:159|341:138,1,154.000004699707,2|8,3:2|0:2,0:0:0:0:
268,79,231638,1,2,3:2:0:0:
174,79,231833,2,0,B|159:94|139:102|139:102|134:119|121:131|121:131|123:148|116:164|116:164|127:183|128:204,1,154.000004699707,2|8,3:2|0:2,0:0:0:0:
201,262,232417,1,2,3:2:0:0:
296,264,232612,6,0,B|310:248|330:240|330:240|335:223|348:211|348:211|346:194|353:178|353:178|342:159|341:138,1,154.000004699707,2|10,3:2|0:2,0:0:0:0:
268,79,233197,1,2,3:2:0:0:
174,79,233392,1,2,3:2:0:0:
174,79,233586,1,2,0:2:0:0:
108,16,233781,1,8,0:2:0:0:
108,16,233976,1,2,0:2:0:0:
28,128,234171,6,0,B|18:156|28:179|28:179|37:202|28:226|28:226|18:249|28:277,1,154.000004699707,6|8,3:2|0:2,0:0:0:0:
120,256,234755,1,2,3:2:0:0:
208,280,234950,2,0,B|217:251|208:228|208:228|198:205|208:181|208:181|217:158|208:130,1,154.000004699707,2|8,3:2|0:2,0:0:0:0:
116,152,235534,1,2,3:2:0:0:
28,128,235729,6,0,B|18:156|28:179|28:179|37:202|28:226|28:226|18:249|28:277,1,154.000004699707,2|8,3:2|0:2,0:0:0:0:
120,256,236314,1,2,3:2:0:0:
208,280,236508,2,0,P|244:260|280:260,1,77.0000023498536,2|2,3:2|0:2,0:0:0:0:
279,259,236801,1,0,0:0:0:0:
279,259,236898,1,10,0:2:0:0:
268,352,237093,1,2,0:2:0:0:
400,316,237288,6,0,B|440:284|440:284|424:176,1,154.000004699707,2|8,3:2|0:2,0:0:0:0:
408,92,237872,1,0,3:2:0:0:
336,152,238067,2,0,P|260:152|192:118,1,154.000004699707,2|8,3:2|0:2,0:0:0:0:
16,56,238846,6,0,P|92:56|160:22,1,154.000004699707,2|8,3:2|0:2,0:0:0:0:
248,48,239430,1,0,3:2:0:0:
336,24,239625,2,0,L|376:28,4,38.5000011749268,8|0|0|0|8,0:2|3:0|3:2|3:2|0:2,0:0:0:0:
248,48,240210,1,0,3:2:0:0:
104,24,240405,6,0,P|104:92|64:148,1,140,4|8,3:2|0:2,0:0:0:0:
156,272,240989,1,0,3:0:0:0:
156,272,241086,1,8,0:2:0:0:
156,272,241184,2,0,L|248:256,1,70,0|0,3:0|3:0,0:0:0:0:
212,176,241573,2,0,L|143:187,1,70,8|0,0:2|3:0,0:0:0:0:
224,260,241963,6,0,B|296:272|296:272|336:260|348:204,1,140,0|8,3:2|0:2,0:0:0:0:
428,64,242547,1,0,3:0:0:0:
428,64,242645,1,8,0:2:0:0:
428,64,242742,2,0,B|397:54|397:54|358:64,1,70,0|0,3:0|3:0,0:0:0:0:
360,148,243132,2,0,B|390:157|390:157|429:147,1,70,8|0,0:2|3:0,0:0:0:0:
477,256,243521,6,0,L|341:226,1,140,0|8,3:2|0:2,0:0:0:0:
192,284,244106,1,0,3:0:0:0:
192,284,244203,1,8,0:2:0:0:
192,284,244301,2,0,P|192:252|204:212,1,70,0|0,3:0|3:0,0:0:0:0:
272,264,244690,2,0,P|272:296|260:336,1,70,8|0,0:2|3:0,0:0:0:0:
148,352,245080,5,0,3:2:0:0:
76,308,245275,1,0,3:0:0:0:
4,264,245469,1,8,0:2:0:0:
82,180,245665,1,0,3:0:0:0:
82,180,245762,1,8,0:2:0:0:
82,180,245859,2,0,P|113:208|120:240,1,70,0|0,3:0|3:0,0:0:0:0:
202,215,246249,2,0,P|204:256|187:283,1,70,8|0,0:2|3:0,0:0:0:0:
88,356,246638,6,0,B|164:328|148:384|224:356,1,140,4|8,3:2|0:2,0:0:0:0:
356,304,247223,1,0,3:0:0:0:
356,304,247320,1,8,0:2:0:0:
356,304,247417,2,0,B|284:296,1,70,0|0,3:0|3:0,0:0:0:0:
304,376,247807,2,0,B|376:384,1,70,8|0,0:2|3:0,0:0:0:0:
492,316,248197,6,0,B|500:260|500:260|488:236|488:236|496:180,1,140,0|8,3:2|0:2,0:0:0:0:
352,128,248781,1,0,3:0:0:0:
352,128,248879,1,8,0:2:0:0:
352,128,248976,2,0,P|382:145|416:152,1,70,0|0,3:0|3:0,0:0:0:0:
480,96,249366,2,0,P|451:78|417:71,1,70,8|0,0:2|3:0,0:0:0:0:
292,184,249755,6,0,P|231:218|163:232,1,140,0|8,3:2|0:2,0:0:0:0:
84,204,250340,1,0,3:0:0:0:
84,204,250437,1,8,0:2:0:0:
84,204,250534,1,0,3:0:0:0:
56,124,250729,1,0,3:0:0:0:
0,188,250924,1,8,0:2:0:0:
20,268,251119,1,0,3:0:0:0:
40,348,251314,6,0,B|68:344|88:324|88:324|160:352,1,105,0|0,3:2|0:0,0:0:0:0:
176,340,251703,2,0,B|222:321|222:321|242:341|270:345,1,105,8|8,0:2|0:2,0:0:0:0:
312,336,252093,1,0,3:0:0:0:
328,252,252288,2,0,L|318:205,4,35,0|0|8|8|0,3:0|3:0|0:2|0:2|3:0,0:0:0:0:
412,256,252872,6,0,L|376:108,1,140,4|8,3:2|0:2,0:0:0:0:
360,40,253456,1,0,3:0:0:0:
300,100,253651,2,0,P|256:108|212:100,1,70,8|0,0:2|3:0,0:0:0:0:
156,144,254041,2,0,P|121:136|87:138,1,70,8|0,0:2|3:0,0:0:0:0:
44,212,254430,5,8,0:2:0:0:
44,212,254625,1,0,3:0:0:0:
68,292,254820,1,8,0:2:0:0:
68,292,255015,1,0,3:0:0:0:
136,340,255210,1,8,0:2:0:0:
136,340,255405,1,0,3:0:0:0:
220,344,255599,1,8,0:2:0:0:
220,344,255794,1,0,3:0:0:0:
224,212,255989,6,0,L|231:72,1,140,4|8,3:2|0:2,0:0:0:0:
300,24,256573,1,0,3:0:0:0:
364,76,256768,2,0,L|367:145,1,70,8|0,0:2|3:0,0:0:0:0:
432,200,257158,2,0,L|428:269,1,70,8|0,0:2|3:0,0:0:0:0:
420,352,257547,5,8,0:2:0:0:
420,352,257742,1,0,3:0:0:0:
340,376,257937,1,8,0:2:0:0:
340,376,258132,1,0,3:0:0:0:
264,336,258327,1,8,0:2:0:0:
264,336,258522,1,0,3:0:0:0:
252,252,258716,1,8,0:2:0:0:
252,252,258911,1,0,3:0:0:0:
315,131,259106,6,0,P|248:144|184:108,1,140,4|8,3:2|0:2,0:0:0:0:
140,40,259690,1,0,3:0:0:0:
140,40,259788,1,0,0:0:0:0:
140,40,259885,1,8,0:2:0:0:
80,96,260080,1,0,3:0:0:0:
20,156,260275,2,0,L|40:232,1,70,8|0,0:2|3:0,0:0:0:0:
60,304,260664,6,0,L|127:322,1,70,8|0,0:2|3:0,0:0:0:0:
184,260,261054,1,8,0:2:0:0:
244,200,261249,2,0,L|379:236,1,140,0|0,3:0|3:0,0:0:0:0:
460,260,261833,1,8,0:2:0:0:
460,260,262028,1,0,3:0:0:0:
398,314,262223,6,0,P|366:328|329:334,1,70,4|0,3:2|0:0,0:0:0:0:
340,250,262612,2,0,P|325:218|319:181,1,70,8|0,0:2|3:0,0:0:0:0:
402,196,263002,2,0,P|433:181|470:175,1,70,8|0,0:2|3:0,0:0:0:0:
460,260,263392,2,0,P|474:291|480:328,1,70,8|0,0:2|3:0,0:0:0:0:
396,320,263781,5,8,0:2:0:0:
396,320,263976,1,0,3:0:0:0:
312,308,264171,2,0,L|276:320,2,35,8|8|0,0:2|0:2|3:0,0:0:0:0:
284,228,264560,2,0,L|248:240,2,35,4|4|0,3:0|3:0|3:0,0:0:0:0:
344,168,264950,1,4,3:0:0:0:
296,100,265145,1,0,3:0:0:0:
324,0,265340,5,4,3:2:0:0:
256,192,265534,12,0,269430,0:0:0:0:
