osu file format v14

[General]
AudioFilename: audio.mp3
AudioLeadIn: 0
PreviewTime: 43320
Countdown: 1
SampleSet: Normal
StackLeniency: 0.7
Mode: 0
LetterboxInBreaks: 0
WidescreenStoryboard: 0

[Editor]
Bookmarks: 15235,80597,137278,153618,162044,163831,172001,204682
DistanceSpacing: 0.9
BeatDivisor: 4
GridSize: 32
TimelineZoom: 2.5

[Metadata]
Title:Girls in Wonderland
TitleUnicode:Girls in Wonderland
Artist:HO-KAGO TEA TIME
ArtistUnicode:放課後ほうかごティータイム
Creator:Monkoloko
Version:Fluffy Heaven
Source:K-On!
Tags:Mio Akiyama, No Thank You, HTT, Keion, Yoko Hisaka
BeatmapID:1877692
BeatmapSetID:898848

[Difficulty]
HPDrainRate:4
CircleSize:4.2
OverallDifficulty:9
ApproachRate:9.8
SliderMultiplier:1.8
SliderTickRate:1

[Events]
//Background and Video events
0,0,"31RSByA.png",0,0
//Break Periods
2,76201,76926
2,133392,135777
2,163903,169479
//Storyboard Layer 0 (Background)
//Storyboard Layer 1 (Fail)
//Storyboard Layer 2 (Pass)
//Storyboard Layer 3 (Foreground)
//Storyboard Sound Samples

[TimingPoints]
427,255.31914893617,4,1,0,50,1,0
10639,-111.111111111111,4,1,0,50,0,0
43320,-90.9090909090909,4,1,0,50,0,1
67831,-100,4,1,0,50,0,0
77405,-166.666666666667,4,1,0,25,0,0
78235,-166.666666666667,4,1,0,5,0,0
78299,-153.846153846154,4,1,0,30,0,0
78490,-153.846153846154,4,1,0,5,0,0
78554,-142.857142857143,4,1,0,35,0,0
78746,-133.333333333333,4,1,0,5,0,0
78809,-142.857142857143,4,1,0,40,0,0
79001,-142.857142857143,4,1,0,5,0,0
79065,-142.857142857143,4,1,0,50,0,0
79256,-142.857142857143,4,1,0,5,0,0
79320,-142.857142857143,4,1,0,50,0,0
80086,-111.111111111111,4,1,0,50,0,0
108682,-90.9090909090909,4,1,0,50,0,1
133192,-90.9090909090909,4,1,0,50,0,0
153618,-125,4,1,0,50,0,0
155661,-111.111111111111,4,1,0,50,0,0
157703,-100,4,1,0,50,0,0
159746,-90.9090909090909,4,1,0,50,0,0
169958,-111.111111111111,4,1,0,50,0,0
170341,-100,4,1,0,50,0,0
170724,-90.9090909090909,4,1,0,50,0,0
172001,-90.9090909090909,4,1,0,50,0,1

[Colours]
Combo1 : 0,242,242
Combo2 : 255,128,192
Combo3 : 68,68,68

[HitObjects]
422,45,427,5,0,0:0:0:0:
422,45,490,1,0,0:0:0:0:
422,45,554,1,0,0:0:0:0:
330,254,682,1,0,0:0:0:0:
204,61,809,1,0,0:0:0:0:
177,316,937,2,0,P|168:271|166:224,1,90,0|0,0:0|0:0,0:0:0:0:
318,35,1192,2,0,P|325:80|327:130,1,90,0|0,0:0|0:0,0:0:0:0:
440,280,1448,5,0,0:0:0:0:
440,280,1512,1,0,0:0:0:0:
440,280,1575,1,0,0:0:0:0:
244,340,1703,2,0,B|193:344|193:344|123:287,1,135
127,291,1958,1,0,0:0:0:0:
202,46,2086,2,0,B|253:42|253:42|323:99,1,135,0|0,0:0|0:0,0:0:0:0:
319,95,2341,1,0,0:0:0:0:
258,384,2469,6,0,P|339:331|339:224,1,180,0|0,0:0|0:0,0:0:0:0:
233,266,2852,1,0,0:0:0:0:
352,140,2980,2,0,L|250:141,1,90,0|0,0:0|0:0,0:0:0:0:
110,95,3235,2,0,P|102:139|111:183,1,90,0|0,0:0|0:0,0:0:0:0:
244,32,3490,5,0,0:0:0:0:
123,201,3618,2,0,B|105:250|105:250|110:295,1,90
264,377,3873,2,0,B|282:328|282:328|277:283,1,90,0|0,0:0|0:0,0:0:0:0:
188,124,4129,1,0,0:0:0:0:
341,212,4256,1,0,0:0:0:0:
382,51,4384,1,0,0:0:0:0:
183,22,4512,6,0,P|101:74|101:181,1,180,0|0,0:0|0:0,0:0:0:0:
246,177,4895,1,0,0:0:0:0:
370,32,5022,2,0,L|376:124,1,90,0|0,0:0|0:0,0:0:0:0:
308,284,5278,2,0,L|302:192,1,90,0|0,0:0|0:0,0:0:0:0:
90,151,5533,5,0,0:0:0:0:
196,328,5661,2,0,B|245:346|245:346|290:341,1,90,0|0,0:0|0:0,0:0:0:0:
372,187,5916,2,0,B|323:169|323:169|278:174,1,90,0|0,0:0|0:0,0:0:0:0:
126,268,6171,1,0,0:0:0:0:
56,117,6299,1,0,0:0:0:0:
274,105,6426,1,0,0:0:0:0:
53,213,6554,6,0,P|102:203|136:160,1,90,0|0,0:0|0:0,0:0:0:0:
187,30,6809,2,0,P|230:19|271:35,1,90,0|0,0:0|0:0,0:0:0:0:
358,191,7065,2,0,L|448:191,1,90,0|0,0:0|0:0,0:0:0:0:
274,105,7320,2,0,L|184:105,1,90,0|0,0:0|0:0,0:0:0:0:
41,216,7575,5,0,0:0:0:0:
148,338,7703,2,0,B|197:356|197:356|242:351,1,90,0|0,0:0|0:0,0:0:0:0:
324,197,7958,2,0,B|275:179|275:179|230:184,1,90,0|0,0:0|0:0,0:0:0:0:
111,268,8214,1,0,0:0:0:0:
101,91,8341,1,0,0:0:0:0:
237,183,8469,1,0,0:0:0:0:
375,52,8597,6,0,P|457:104|457:211,1,180,0|0,0:0|0:0,0:0:0:0:
399,327,8980,1,0,0:0:0:0:
310,170,9108,2,0,L|310:80,1,90,0|0,0:0|0:0,0:0:0:0:
224,254,9363,2,0,L|224:344,1,90,0|0,0:0|0:0,0:0:0:0:
139,170,9618,5,0,0:0:0:0:
248,57,9746,2,0,B|199:39|199:39|154:44,1,90
74,221,10001,2,0,B|123:239|123:239|168:234,1,90
312,102,10256,1,0,0:0:0:0:
74,102,10384,1,0,0:0:0:0:
267,315,10512,1,0,0:0:0:0:
395,140,10639,6,0,B|403:95|403:95|383:42,1,80.9999975280763,0|0,0:0|0:0,0:0:0:0:
229,65,10895,2,0,P|220:109|240:162,1,80.9999975280763,0|0,0:0|0:0,0:0:0:0:
297,246,11150,2,0,P|214:283|159:244,1,161.999995056153
107,125,11533,1,0,0:0:0:0:
37,257,11661,1,0,0:0:0:0:
230,216,11788,2,0,L|230:296,1,80.9999975280763,0|0,0:0|0:0,0:0:0:0:
360,383,12044,2,0,P|396:314|358:247,1,161.999995056153
277,317,12426,2,0,L|195:317,1,80.9999975280763
75,360,12682,6,0,P|67:320|76:281,1,80.9999975280763,0|0,0:0|0:0,0:0:0:0:
175,187,12937,2,0,P|183:147|174:108,1,80.9999975280763,0|0,0:0|0:0,0:0:0:0:
43,32,13192,2,0,P|34:71|42:110,1,80.9999975280763
132,257,13447,2,0,P|171:265|210:256,1,80.9999975280763
328,197,13703,2,0,B|346:148|346:148|341:103,1,90
187,21,13958,2,0,B|169:70|169:70|174:115,1,90
231,243,14214,2,0,P|252:276|286:297,1,80.9999975280763
413,204,14469,1,0,0:0:0:0:
279,129,14597,1,0,0:0:0:0:
152,220,14724,6,0,P|118:198|96:164,1,80.9999975280763,0|0,0:0|0:0,0:0:0:0:
152,12,14980,2,0,P|185:33|207:67,1,80.9999975280763,0|0,0:0|0:0,0:0:0:0:
81,263,15235,2,0,P|149:300|217:262,1,161.999995056153,0|0,0:0|0:0,0:0:0:0:
256,117,15618,1,0,0:0:0:0:
316,254,15746,2,0,P|350:232|372:198,1,80.9999975280763
315,74,16001,1,0,0:0:0:0:
190,159,16129,2,0,P|122:197|54:160,1,161.999995056153,0|0,0:0|0:0,0:0:0:0:
127,39,16512,2,0,L|214:39,1,80.9999975280763,0|0,0:0|0:0,0:0:0:0:
371,119,16767,6,0,P|379:158|371:198,1,80.9999975280763
249,268,17022,2,0,P|240:307|249:346,1,80.9999975280763
394,356,17278,2,0,B|435:344|435:344|466:313,1,80.9999975280763
371,197,17533,1,0,0:0:0:0:
249,268,17661,1,0,0:0:0:0:
239,126,17788,6,0,L|153:117,1,80.9999975280763,0|0,0:0|0:0,0:0:0:0:
7,234,18044,2,0,L|88:243,1,80.9999975280763,0|0,0:0|0:0,0:0:0:0:
307,111,18299,1,0,0:0:0:0:
239,326,18426,1,0,0:0:0:0:
103,171,18554,1,0,0:0:0:0:
339,246,18682,1,0,0:0:0:0:
188,107,18809,6,0,P|158:80|119:68,1,80.9999975280763,0|0,0:0|0:0,0:0:0:0:
0,183,19065,2,0,P|29:209|68:221,1,80.9999975280763,0|0,0:0|0:0,0:0:0:0:
186,304,19320,2,0,P|254:342|322:305,1,161.999995056153,0|0,0:0|0:0,0:0:0:0:
256,172,19703,1,0,0:0:0:0:
153,43,19831,1,0,0:0:0:0:
94,200,19958,2,0,P|85:161|94:122,1,80.9999975280763,0|0,0:0|0:0,0:0:0:0:
235,47,20214,2,0,B|275:52|275:52|320:47,1,80.9999975280763
434,17,20469,1,0,0:0:0:0:
491,137,20597,2,0,L|491:226,1,80.9999975280763,0|0,0:0|0:0,0:0:0:0:
450,358,20852,6,0,P|410:367|371:358,1,80.9999975280763,0|0,0:0|0:0,0:0:0:0:
260,290,21107,2,0,P|250:250|259:211,1,80.9999975280763,0|0,0:0|0:0,0:0:0:0:
362,144,21363,2,0,P|371:104|362:65,1,80.9999975280763,0|0,0:0|0:0,0:0:0:0:
230,8,21618,2,0,L|221:99,1,80.9999975280763,0|0,0:0|0:0,0:0:0:0:
309,249,21873,2,0,P|348:258|387:249,1,80.9999975280763
437,121,22129,2,0,P|397:111|358:120,1,80.9999975280763
236,247,22384,2,0,B|248:288|248:288|275:316,1,80.9999975280763
404,357,22639,1,0,0:0:0:0:
480,238,22767,1,0,0:0:0:0:
339,140,22895,6,0,P|299:130|260:139,1,80.9999975280763
170,238,23151,2,0,P|199:265|237:277,1,80.9999975280763
373,273,23405,2,0,P|447:251|469:177,1,161.999995056153,0|0,0:0|0:0,0:0:0:0:
379,47,23788,1,0,0:0:0:0:
232,149,23916,2,0,L|320:156,2,80.9999975280763,0|0|0,0:0|0:0|0:0,0:0:0:0:
119,44,24299,2,0,B|93:82|93:82|101:223,1,161.999995056153,0|0,0:0|0:0,0:0:0:0:
195,326,24682,2,0,P|234:335|273:326,1,80.9999975280763,0|0,0:0|0:0,0:0:0:0:
396,171,24937,6,0,L|310:164,1,80.9999975280763,0|0,0:0|0:0,0:0:0:0:
163,256,25192,2,0,P|203:265|242:256,1,80.9999975280763,0|0,0:0|0:0,0:0:0:0:
353,188,25447,2,0,P|363:148|354:109,1,80.9999975280763,0|0,0:0|0:0,0:0:0:0:
218,29,25703,2,0,P|208:69|217:108,1,80.9999975280763,0|0,0:0|0:0,0:0:0:0:
344,263,25958,2,0,B|387:253|387:253|429:224,1,80.9999975280763
427,78,26214,2,0,B|384:88|384:88|342:117,1,80.9999975280763
188,253,26469,1,0,0:0:0:0:
353,108,26597,1,0,0:0:0:0:
283,317,26724,1,0,0:0:0:0:
138,152,26852,1,0,0:0:0:0:
133,265,26980,6,0,P|58:243|36:169,1,161.999995056153
153,48,27363,1,0,0:0:0:0:
331,92,27490,2,0,B|331:141|331:141|396:149|417:231,1,161.999995056153,0|0,0:0|0:0,0:0:0:0:
284,292,27873,2,0,B|228:292|228:292|198:337|198:337|133:336,1,161.999995056153,0|0,0:0|0:0,0:0:0:0:
72,150,28256,1,0,0:0:0:0:
280,202,28384,1,0,0:0:0:0:
156,22,28512,1,0,0:0:0:0:
79,269,28639,1,0,0:0:0:0:
188,86,28767,2,0,P|217:58|255:46,1,80.9999975280763,0|0,0:0|0:0,0:0:0:0:
411,208,29022,6,0,P|372:217|332:209,1,80.9999975280763,0|0,0:0|0:0,0:0:0:0:
256,116,29278,1,0,0:0:0:0:
367,63,29405,1,0,0:0:0:0:
371,257,29533,2,0,B|378:218|378:218|371:176,1,80.9999975280763,0|0,0:0|0:0,0:0:0:0:
296,60,29788,1,0,0:0:0:0:
164,122,29916,2,0,B|140:174|140:174|156:288,1,161.999995056153
292,367,30299,2,0,B|330:375|330:375|370:365,1,80.9999975280763,0|0,0:0|0:0,0:0:0:0:
234,277,30554,2,0,B|194:268|194:268|155:278,1,80.9999975280763,0|0,0:0|0:0,0:0:0:0:
40,384,30809,2,0,B|30:345|30:345|38:305,1,80.9999975280763,0|0,0:0|0:0,0:0:0:0:
200,205,31065,6,0,P|275:183|297:109,1,161.999995056153,0|0,0:0|0:0,0:0:0:0:
163,21,31448,1,0,0:0:0:0:
78,202,31575,2,0,B|127:202|127:202|135:267|217:288,1,161.999995056153,0|0,0:0|0:0,0:0:0:0:
376,327,31958,2,0,B|365:214|412:279|407:153,1,161.999995056153,0|0,0:0|0:0,0:0:0:0:
294,31,32341,1,0,0:0:0:0:
194,164,32469,1,0,0:0:0:0:
403,87,32597,1,0,0:0:0:0:
151,63,32724,1,0,0:0:0:0:
331,115,32852,2,0,P|339:154|331:193,1,80.9999975280763,0|0,0:0|0:0,0:0:0:0:
155,326,33107,6,0,L|128:249,1,80.9999975280763,0|0,0:2|0:2,0:0:0:0:
76,123,33362,1,0,0:0:0:0:
136,1,33490,1,0,0:0:0:0:
187,126,33618,2,0,P|198:166|213:203,1,80.9999975280763,0|0,0:0|0:0,0:0:0:0:
332,272,33873,1,0,0:0:0:0:
280,146,34001,2,0,B|270:122|270:122|261:88|261:88|251:63,1,80.9999975280763,0|0,0:0|0:0,0:0:0:0:
350,0,34256,1,0,0:0:0:0:
402,125,34384,2,0,B|421:161|421:161|431:208,1,80.9999975280763,0|0,0:0|0:0,0:0:0:0:
377,328,34639,1,0,0:0:0:0:
256,269,34767,2,0,P|277:235|311:212,2,80.9999975280763,0|0|0,0:0|0:0|0:0,0:0:0:0:
163,375,35150,6,0,P|171:335|162:296,1,80.9999975280763,0|0,0:0|0:0,0:0:0:0:
50,194,35405,2,0,P|41:154|50:115,1,80.9999975280763,0|0,0:0|0:0,0:0:0:0:
172,27,35661,2,0,B|211:18|211:18|250:27,1,80.9999975280763,0|0,0:0|0:0,0:0:0:0:
361,131,35916,1,0,0:0:0:0:
208,113,36044,2,0,B|167:145|167:145|107:118|59:164,1,161.999995056153,0|0,0:0|0:0,0:0:0:0:
77,305,36426,1,0,0:0:0:0:
228,184,36554,1,0,0:0:0:0:
207,377,36682,1,0,0:0:0:0:
86,226,36809,1,0,0:0:0:0:
185,286,36937,2,0,B|223:295|223:295|273:280,1,80.9999975280763,0|0,0:0|0:0,0:0:0:0:
375,324,37192,6,0,P|384:284|375:245,1,80.9999975280763,0|0,0:0|0:0,0:0:0:0:
297,151,37448,1,0,0:0:0:0:
263,282,37575,1,0,0:0:0:0:
386,131,37703,2,0,P|364:96|330:75,1,80.9999975280763,0|0,0:0|0:0,0:0:0:0:
173,105,37958,1,0,0:0:0:0:
95,308,38086,2,0,B|156:308|156:308|211:294|224:240,1,161.999995056153,0|0,0:0|0:0,0:0:0:0:
93,144,38469,2,0,B|82:104|82:104|89:65,1,80.9999975280763,0|0,0:0|0:0,0:0:0:0:
237,4,38724,2,0,B|276:-7|276:-7|315:0,1,80.9999975280763,0|0,0:0|0:0,0:0:0:0:
425,119,38980,2,0,B|432:158|432:158|421:197,1,80.9999975280763,0|0,0:0|0:0,0:0:0:0:
274,384,39235,6,0,P|308:362|329:328,1,80.9999975280763,0|0,0:0|0:0,0:0:0:0:
264,183,39490,1,0,0:0:0:0:
150,301,39618,1,0,0:0:0:0:
114,124,39746,2,0,L|202:116,1,80.9999975280763,0|0,0:0|0:0,0:0:0:0:
331,27,40001,1,0,0:0:0:0:
389,211,40129,2,0,P|362:266|251:239,1,161.999995056153,0|0,0:0|0:0,0:0:0:0:
173,148,40512,2,0,P|132:146|97:127,1,80.9999975280763,0|0,0:0|0:0,0:0:0:0:
149,62,40767,2,0,P|170:28|204:6,1,80.9999975280763,0|0,0:0|0:0,0:0:0:0:
235,85,41022,2,0,P|253:120|255:160,1,80.9999975280763,0|0,0:0|0:0,0:0:0:0:
112,357,41278,5,0,0:0:0:0:
318,103,41405,1,0,0:0:0:0:
318,103,41533,2,0,B|318:153|318:153|344:188|344:188|344:260,1,161.999995056153,0|0,0:0|0:0,0:0:0:0:
264,348,41916,1,0,0:0:0:0:
185,244,42044,2,0,L|180:161,1,80.9999975280763,0|0,0:0|0:0,0:0:0:0:
313,22,42299,6,0,L|318:105,1,80.9999975280763
342,304,42554,1,0,0:0:0:0:
252,117,42682,1,0,0:0:0:0:
476,258,42809,1,0,0:0:0:0:
174,358,42937,1,0,0:0:0:0:
213,32,43065,1,0,0:0:0:0:
342,304,43192,1,0,0:0:0:0:
77,136,43320,6,0,P|126:134|178:159,1,99.0000030212403
247,287,43575,2,0,P|292:306|341:304,1,99.0000030212403,0|0,0:0|0:0,0:0:0:0:
475,204,43831,2,0,B|457:158|457:158|424:120,1,99.0000030212403
316,20,44086,1,0,0:0:0:0:
153,10,44214,2,0,B|111:60|111:60|120:204,1,198.000006042481
148,342,44597,2,0,P|193:323|226:287,1,99.0000030212403,0|0,0:0|0:0,0:0:0:0:
236,118,44852,2,0,P|269:81|314:63,1,99.0000030212403,0|0,0:0|0:0,0:0:0:0:
448,185,45107,2,0,P|402:232|357:250,1,99.0000030212403,0|0,0:0|0:0,0:0:0:0:
224,343,45363,6,0,B|184:312|184:312|171:265,1,99.0000030212403,0|0,0:0|0:0,0:0:0:0:
166,104,45618,1,0,0:0:0:0:
299,186,45746,2,0,L|196:195,1,99.0000030212403,0|0,0:0|0:0,0:0:0:0:
53,130,46001,1,0,0:0:0:0:
185,14,46129,2,0,L|287:23,1,99.0000030212403,0|0,0:0|0:0,0:0:0:0:
432,149,46384,2,0,P|387:168|338:166,1,99.0000030212403,0|0,0:0|0:0,0:0:0:0:
137,85,46639,2,0,P|182:66|231:68,1,99.0000030212403,0|0,0:0|0:0,0:0:0:0:
332,247,46895,1,0,0:0:0:0:
80,197,47022,1,0,0:0:0:0:
339,65,47150,1,0,0:0:0:0:
169,290,47277,1,0,0:0:0:0:
431,102,47405,6,0,B|441:151|441:151|430:221,1,99.0000030212403,0|0,0:0|0:0,0:0:0:0:
303,353,47661,2,0,B|293:304|293:304|304:233,1,99.0000030212403,0|0,0:0|0:0,0:0:0:0:
339,65,47916,2,0,P|289:62|244:81,1,99.0000030212403,0|0,0:0|0:0,0:0:0:0:
168,238,48171,1,0,0:0:0:0:
87,65,48299,2,0,P|137:62|182:81,1,99.0000030212403,0|0,0:0|0:0,0:0:0:0:
258,238,48554,1,0,0:0:0:0:
431,102,48682,2,0,B|389:74|389:74|340:68,1,99.0000030212403,0|0,0:0|0:0,0:0:0:0:
216,171,48937,2,0,B|167:164|167:164|125:137,1,99.0000030212403,0|0,0:0|0:0,0:0:0:0:
17,11,49192,2,0,L|26:112,1,99.0000030212403,0|0,0:0|0:0,0:0:0:0:
111,293,49448,6,0,B|111:172|170:229|175:103,1,198.000006042481,0|0,0:0|0:0,0:0:0:0:
277,2,49831,1,0,0:0:0:0:
446,83,49958,2,0,P|426:163|310:185,1,198.000006042481,0|0,0:0|0:0,0:0:0:0:
222,55,50341,1,0,0:0:0:0:
94,186,50469,6,0,L|105:75,1,99.0000030212403,0|0,0:0|0:0,0:0:0:0:
257,0,50724,1,0,0:0:0:0:
369,120,50852,1,0,0:0:0:0:
164,140,50980,2,0,L|171:238,1,99.0000030212403,0|0,0:0|0:0,0:0:0:0:
339,303,51235,1,0,0:0:0:0:
221,73,51363,1,0,0:0:0:0:
407,218,51490,6,0,P|361:199|312:202,1,99.0000030212403,0|0,0:0|0:0,0:0:0:0:
202,313,51746,2,0,P|153:316|107:297,1,99.0000030212403,0|0,0:0|0:0,0:0:0:0:
68,131,52001,2,0,B|137:131|137:131|172:105|172:105|261:105,1,198.000006042481,0|0,0:0|0:0,0:0:0:0:
375,3,52384,2,0,P|417:82|373:199,1,198.000006042481,0|0,0:0|0:0,0:0:0:0:
237,272,52767,2,0,L|339:272,1,99.0000030212403,0|0,0:0|0:0,0:0:0:0:
174,129,53022,2,0,L|123:217,1,99.0000030212403,0|0,0:0|0:0,0:0:0:0:
329,147,53278,2,0,L|278:58,1,99.0000030212403,0|0,0:0|0:0,0:0:0:0:
99,21,53533,6,0,B|80:66|80:66|83:115,1,99.0000030212403,0|0,0:0|0:0,0:0:0:0:
159,281,53788,1,0,0:0:0:0:
316,191,53916,2,0,P|361:172|393:135,1,99.0000030212403,0|0,0:0|0:0,0:0:0:0:
332,0,54171,1,0,0:0:0:0:
171,24,54299,2,0,P|125:42|93:79,1,99.0000030212403,0|0,0:0|0:0,0:0:0:0:
78,301,54554,2,0,B|125:311|125:311|173:299,1,99.0000030212403,0|0,0:0|0:0,0:0:0:0:
329,216,54809,1,0,0:0:0:0:
171,151,54937,1,0,0:0:0:0:
328,340,55065,2,0,L|329:237,1,99.0000030212403,0|0,0:0|0:0,0:0:0:0:
296,47,55320,1,0,0:0:0:0:
216,258,55448,1,0,0:0:0:0:
125,71,55575,6,0,P|174:60|240:80,1,99.0000030212403,0|0,0:0|0:0,0:0:0:0:
288,242,55831,2,0,P|336:251|384:241,1,99.0000030212403,0|0,0:0|0:0,0:0:0:0:
452,72,56086,2,0,P|354:40|266:72,1,198.000006042481,0|0,0:0|0:0,0:0:0:0:
80,181,56469,2,0,P|178:213|266:181,1,198.000006042481,0|0,0:0|0:0,0:0:0:0:
174,19,56852,2,0,L|174:128,1,99.0000030212403,0|0,0:0|0:0,0:0:0:0:
174,287,57107,2,0,B|128:266|128:266|83:287,2,99.0000030212403,0|0|0,0:0|0:0|0:0,0:0:0:0:
313,365,57490,1,0,0:0:0:0:
455,251,57618,6,0,B|465:201|465:201|454:155,1,99.0000030212403,0|0,0:0|0:0,0:0:0:0:
342,47,57873,1,0,0:0:0:0:
138,97,58001,2,0,L|338:122,1,198.000006042481,0|0,0:0|0:0,0:0:0:0:
443,293,58384,2,0,P|395:302|347:292,1,99.0000030212403,0|0,0:0|0:0,0:0:0:0:
230,193,58639,2,0,P|181:182|133:191,1,99.0000030212403,0|0,0:0|0:0,0:0:0:0:
80,353,58895,1,0,0:0:0:0:
273,237,59022,1,0,0:0:0:0:
27,143,59150,2,0,B|75:131|75:131|119:83,1,99.0000030212403,0|0,0:0|0:0,0:0:0:0:
211,7,59405,2,0,B|260:4|260:4|302:30,1,99.0000030212403,0|0,0:0|0:0,0:0:0:0:
426,276,59661,6,0,L|417:141,1,99.0000030212403,0|0,0:0|0:0,0:0:0:0:
302,30,59916,1,0,0:0:0:0:
210,256,60044,2,0,B|161:245|161:245|127:209,1,99.0000030212403,0|0,0:0|0:0,0:0:0:0:
128,3,60299,1,0,0:0:0:0:
205,175,60426,2,0,P|253:185|302:177,1,99.0000030212403,0|0,0:0|0:0,0:0:0:0:
330,0,60682,6,0,P|288:26|260:67,1,99.0000030212403,0|0,0:0|0:0,0:0:0:0:
359,259,60937,1,0,0:0:0:0:
181,355,61065,2,0,P|132:365|84:356,1,99.0000030212403,0|0,0:0|0:0,0:0:0:0:
2,145,61320,1,0,0:0:0:0:
184,251,61448,2,0,P|221:282|268:298,1,99.0000030212403,0|0,0:0|0:0,0:0:0:0:
465,170,61703,6,0,L|354:161,1,99.0000030212403,0|0,0:0|0:0,0:0:0:0:
204,52,61958,1,0,0:0:0:0:
118,270,62086,2,0,L|202:197,1,99.0000030212403,0|0,0:0|0:0,0:0:0:0:
366,161,62341,1,0,0:0:0:0:
261,12,62469,2,0,P|213:3|165:14,1,99.0000030212403,0|0,0:0|0:0,0:0:0:0:
33,211,62724,2,0,B|60:251|60:251|102:278,1,99.0000030212403,0|0,0:0|0:0,0:0:0:0:
230,150,62980,2,0,L|332:150,1,99.0000030212403,0|0,0:0|0:0,0:0:0:0:
438,331,63235,2,0,L|387:241,1,99.0000030212403,0|0,0:0|0:0,0:0:0:0:
491,60,63490,2,0,L|439:148,1,99.0000030212403,0|0,0:0|0:0,0:0:0:0:
262,341,63746,6,0,B|283:296|283:296|285:247,1,99.0000030212403,0|0,0:0|0:0,0:0:0:0:
205,96,64001,1,0,0:0:0:0:
139,269,64129,2,0,B|97:242|97:242|69:201,1,99.0000030212403,0|0,0:0|0:0,0:0:0:0:
145,23,64384,1,0,0:0:0:0:
199,206,64512,2,0,P|246:192|284:161,1,99.0000030212403,0|0,0:0|0:0,0:0:0:0:
407,59,64767,6,0,P|430:102|435:151,1,99.0000030212403,0|0,0:0|0:0,0:0:0:0:
395,325,65022,1,0,0:0:0:0:
224,356,65150,2,0,P|176:342|138:311,1,99.0000030212403,0|0,0:0|0:0,0:0:0:0:
97,142,65405,1,0,0:0:0:0:
218,8,65533,2,0,P|265:21|303:52,1,99.0000030212403,0|0,0:0|0:0,0:0:0:0:
284,342,65788,6,0,B|330:355|330:355|386:349,2,99.0000030212403,0|0|0,0:0|0:0|0:0,0:0:0:0:
154,265,66171,2,0,B|158:229|158:229|146:198|146:198|154:166,1,99.0000030212403,0|0,0:0|0:0,0:0:0:0:
198,0,66426,1,0,0:0:0:0:
360,102,66554,2,0,L|260:96,1,99.0000030212403,0|0,0:0|0:0,0:0:0:0:
43,55,66809,6,0,P|34:103|47:151,1,99.0000030212403,0|0,0:0|0:0,0:0:0:0:
100,350,67065,1,0,0:0:0:0:
134,27,67192,6,0,P|125:75|138:123,1,99.0000030212403
191,322,67448,1,0,0:0:0:0:
228,4,67575,6,0,P|219:52|232:100,1,99.0000030212403
282,300,67831,6,0,P|379:328|439:268,1,180
191,322,68214,1,0,0:0:0:0:
348,257,68341,2,0,L|343:165,1,90,0|0,0:0|0:0,0:0:0:0:
381,18,68597,2,0,P|337:10|293:19,1,90,0|0,0:0|0:0,0:0:0:0:
175,128,68852,1,0,0:0:0:0:
303,358,68980,6,0,B|321:309|321:309|316:264,1,90,0|0,0:0|0:0,0:0:0:0:
162,182,69235,2,0,B|144:231|144:231|149:276,1,90,0|0,0:0|0:0,0:0:0:0:
240,370,69490,1,0,0:0:0:0:
315,196,69618,1,0,0:0:0:0:
448,342,69746,1,0,0:0:0:0:
493,166,69873,6,0,P|475:80|399:37,1,180,0|0,0:0|0:0,0:0:0:0:
258,110,70256,1,0,0:0:0:0:
202,326,70384,2,0,L|191:234,1,90,0|0,0:0|0:0,0:0:0:0:
62,35,70640,2,0,L|72:126,1,90,0|0,0:0|0:0,0:0:0:0:
110,291,70895,1,0,0:0:0:0:
160,57,71022,2,0,B|205:44|205:44|259:69,1,90,0|0,0:0|0:0,0:0:0:0:
345,177,71278,2,0,B|300:190|300:190|246:165,1,90,0|0,0:0|0:0,0:0:0:0:
80,39,71533,1,0,0:0:0:0:
110,291,71661,1,0,0:0:0:0:
112,39,71788,1,0,0:0:0:0:
182,322,71916,6,0,B|293:321|228:263|356:268,1,180,0|0,0:0|0:0,0:0:0:0:
486,345,72299,1,0,0:0:0:0:
490,204,72426,2,0,P|474:161|445:128,1,90,0|0,0:0|0:0,0:0:0:0:
347,267,72682,2,0,P|302:264|261:245,1,90,0|0,0:0|0:0,0:0:0:0:
173,118,72937,1,0,0:0:0:0:
400,58,73065,2,0,B|351:40|351:40|306:45,1,90,0|0,0:0|0:0,0:0:0:0:
224,199,73320,2,0,B|273:217|273:217|318:212,1,90,0|0,0:0|0:0,0:0:0:0:
445,128,73575,1,0,0:0:0:0:
372,330,73703,1,0,0:0:0:0:
281,131,73831,1,0,0:0:0:0:
159,357,73958,6,0,B|136:309|136:309|131:171,1,180,0|0,0:0|0:0,0:0:0:0:
202,41,74341,1,0,0:0:0:0:
346,104,74469,2,0,L|337:218,1,90,0|0,0:0|0:0,0:0:0:0:
263,350,74724,2,0,L|252:236,1,90,0|0,0:0|0:0,0:0:0:0:
377,156,74980,1,0,0:0:0:0:
261,40,75107,2,0,B|216:20|216:20|156:19,1,90
19,99,75363,2,0,B|64:119|64:119|124:120,1,90,0|0,0:0|0:0,0:0:0:0:
330,45,75618,1,0,0:0:0:0:
248,236,75746,1,0,0:0:0:0:
130,184,75873,1,0,0:0:0:0:
364,289,76001,1,0,0:0:0:0:
417,357,77405,5,0,0:0:0:0:
412,315,77469,1,0,0:0:0:0:
406,272,77533,2,0,L|395:204,1,53.9999983520508,0|0,0:0|0:0,0:0:0:0:
324,128,77788,2,0,L|316:181,1,53.9999983520508,0|0,0:0|0:0,0:0:0:0:
278,328,78044,6,0,L|175:320,1,80.9999975280763,0|0,0:0|0:0,0:0:0:0:
197,296,78299,2,0,L|288:269,1,87.749995983124,0|0,0:0|0:0,0:0:0:0:
279,243,78554,2,0,L|175:217,1,94.499997116089,0|0,0:0|0:0,0:0:0:0:
188,187,78809,2,0,L|300:138,1,94.499997116089,0|0,0:0|0:0,0:0:0:0:
275,101,79065,6,0,P|326:119|371:91,1,94.499997116089,0|0,0:0|0:0,0:0:0:0:
361,108,79320,1,0,0:0:0:0:
324,6,79448,1,0,0:0:0:0:
324,6,79512,1,0,0:0:0:0:
324,6,79575,1,0,0:0:0:0:
220,31,79703,1,0,0:0:0:0:
219,263,79831,1,0,0:0:0:0:
126,40,79958,1,0,0:0:0:0:
68,292,80086,6,0,L|159:277,1,80.9999975280763,0|0,0:0|0:0,0:0:0:0:
290,285,80341,2,0,P|285:239|254:194,1,80.9999975280763,0|0,0:0|0:0,0:0:0:0:
94,142,80597,2,0,B|136:142|136:142|157:73|238:77,1,161.999995056153
404,128,80980,1,0,0:0:0:0:
244,189,81107,2,0,L|325:195,2,80.9999975280763
110,97,81490,2,0,P|61:157|92:241,1,161.999995056153,0|0,0:0|0:0,0:0:0:0:
170,329,81873,1,0,0:0:0:0:
290,247,82001,1,0,0:0:0:0:
410,358,82129,6,0,P|418:318|409:279,1,80.9999975280763,0|0,0:0|0:0,0:0:0:0:
301,202,82384,2,0,P|293:162|302:123,1,80.9999975280763,0|0,0:0|0:0,0:0:0:0:
495,155,82639,2,0,P|455:147|416:156,1,80.9999975280763,0|0,0:0|0:0,0:0:0:0:
339,264,82894,2,0,P|299:272|260:263,1,80.9999975280763,0|0,0:0|0:0,0:0:0:0:
112,169,83150,6,0,L|118:70,1,80.9999975280763,0|0,0:0|0:0,0:0:0:0:
266,0,83405,2,0,L|260:99,1,80.9999975280763,0|0,0:0|0:0,0:0:0:0:
148,314,83661,1,0,0:0:0:0:
181,72,83788,1,0,0:0:0:0:
335,292,83916,1,0,0:0:0:0:
116,88,84044,1,0,0:0:0:0:
68,277,84171,6,0,B|87:238|87:238|137:207,1,80.9999975280763,0|0,0:0|0:0,0:0:0:0:
254,292,84426,2,0,L|339:292,1,80.9999975280763,0|0,0:0|0:0,0:0:0:0:
468,358,84682,2,0,P|505:290|467:222,1,161.999995056153,0|0,0:0|0:0,0:0:0:0:
327,163,85065,1,0,0:0:0:0:
194,250,85192,2,0,L|193:332,2,80.9999975280763,0|0|0,0:0|0:0|0:0,0:0:0:0:
186,93,85575,2,0,L|352:64,1,161.999995056153,0|0,0:0|0:0,0:0:0:0:
502,44,85958,2,0,L|492:128,1,80.9999975280763,0|0,0:0|0:0,0:0:0:0:
397,259,86214,6,0,P|357:267|318:258,1,80.9999975280763,0|0,0:0|0:0,0:0:0:0:
185,171,86469,2,0,P|176:131|185:91,1,80.9999975280763,0|0,0:0|0:0,0:0:0:0:
327,38,86724,2,0,P|360:60|382:94,1,80.9999975280763,0|0,0:0|0:0,0:0:0:0:
318,258,86979,2,0,P|295:291|261:313,1,80.9999975280763,0|0,0:0|0:0,0:0:0:0:
104,246,87235,6,0,L|113:148,1,80.9999975280763,0|0,0:0|0:0,0:0:0:0:
222,21,87490,2,0,L|213:119,1,80.9999975280763,0|0,0:0|0:0,0:0:0:0:
161,289,87746,1,0,0:0:0:0:
305,80,87873,1,0,0:0:0:0:
261,313,88001,1,0,0:0:0:0:
283,39,88129,1,0,0:0:0:0:
378,308,88256,6,0,B|393:273|393:273|374:213,1,80.9999975280763,0|0,0:0|0:0,0:0:0:0:
282,115,88512,2,0,B|269:74|269:74|284:39,1,80.9999975280763,0|0,0:0|0:0,0:0:0:0:
411,99,88767,2,0,B|363:129|363:129|341:175|341:175|274:206,1,161.999995056153,0|0,0:0|0:0,0:0:0:0:
113,206,89150,1,0,0:0:0:0:
203,37,89278,2,0,P|165:21|125:22,2,80.9999975280763,0|0|0,0:0|0:0|0:0,0:0:0:0:
347,168,89661,2,0,B|306:243|369:235|303:323,1,161.999995056153
187,365,90044,1,0,0:0:0:0:
233,255,90171,1,0,0:0:0:0:
115,362,90299,6,0,P|88:331|76:293,1,80.9999975280763,0|0,0:0|0:0,0:0:0:0:
189,186,90554,2,0,P|177:147|150:117,1,80.9999975280763,0|0,0:0|0:0,0:0:0:0:
37,65,90809,2,0,P|59:31|93:9,1,80.9999975280763,0|0,0:0|0:0,0:0:0:0:
242,24,91065,2,0,P|275:46|297:80,1,80.9999975280763,0|0,0:0|0:0,0:0:0:0:
216,261,91320,6,0,B|258:272|258:272|308:260,1,80.9999975280763
380,148,91575,2,0,B|338:137|338:137|288:149,1,80.9999975280763
110,248,91831,1,0,0:0:0:0:
263,82,91958,1,0,0:0:0:0:
224,256,92086,1,0,0:0:0:0:
79,149,92214,1,0,0:0:0:0:
314,308,92341,6,0,L|301:129,1,161.999995056153,0|0,0:0|0:0,0:0:0:0:
231,3,92724,1,0,0:0:0:0:
99,104,92852,2,0,P|61:171|98:239,1,161.999995056153,0|0,0:0|0:0,0:0:0:0:
225,316,93235,2,0,P|263:249|226:181,1,161.999995056153
99,104,93618,2,0,L|185:94,1,80.9999975280763,0|0,0:0|0:0,0:0:0:0:
311,21,93873,2,0,P|328:56|330:97,1,80.9999975280763,0|0,0:0|0:0,0:0:0:0:
268,249,94129,2,0,P|269:289|287:325,1,80.9999975280763,0|0,0:0|0:0,0:0:0:0:
443,360,94384,6,0,L|448:271,1,80.9999975280763,0|0,0:0|0:0,0:0:0:0:
396,133,94639,1,0,0:0:0:0:
258,48,94767,1,0,0:0:0:0:
159,184,94895,2,0,B|199:174|199:174|247:175,1,80.9999975280763,0|0,0:0|0:0,0:0:0:0:
373,257,95150,1,0,0:0:0:0:
242,366,95278,2,0,B|194:343|194:343|179:317|179:317|146:317|146:317|95:282,1,161.999995056153
51,140,95661,2,0,P|56:100|78:66,1,80.9999975280763,0|0,0:0|0:0,0:0:0:0:
234,0,95916,2,0,P|228:39|206:73,1,80.9999975280763,0|0,0:0|0:0,0:0:0:0:
122,213,96171,2,0,P|155:234|195:240,1,80.9999975280763,0|0,0:0|0:0,0:0:0:0:
334,178,96426,6,0,P|372:245|335:313,1,161.999995056153,0|0,0:0|0:0,0:0:0:0:
195,239,96809,1,0,0:0:0:0:
200,75,96937,2,0,L|365:87,1,161.999995056153,0|0,0:0|0:0,0:0:0:0:
497,146,97320,2,0,B|497:197|497:197|466:207|460:238|460:238|395:237,1,161.999995056153,0|0,0:0|0:0,0:0:0:0:
250,233,97703,2,0,P|211:227|177:205,1,80.9999975280763,0|0,0:0|0:0,0:0:0:0:
259,70,97958,2,0,P|283:39|319:20,1,80.9999975280763,0|0,0:0|0:0,0:0:0:0:
395,159,98214,2,0,P|409:195|407:236,1,80.9999975280763,0|0,0:0|0:0,0:0:0:0:
276,313,98469,5,0,0:0:0:0:
106,227,98597,1,0,0:0:0:0:
106,227,98724,2,0,B|149:227|149:227|191:209|191:209,1,80.9999975280763,0|0,0:0|0:0,0:0:0:0:
90,79,98980,2,0,B|82:82|124:64|124:64|165:64,1,80.9999975280763,0|0,0:0|0:0,0:0:0:0:
291,151,99235,1,0,0:0:0:0:
294,347,99363,2,0,B|294:321|294:321|305:287|305:287|305:246|305:246,1,80.9999975280763,0|0,0:0|0:0,0:0:0:0:
363,130,99618,1,0,0:0:0:0:
477,257,99746,2,0,L|386:230,1,80.9999975280763,0|0,0:0|0:0,0:0:0:0:
233,229,100001,1,0,0:0:0:0:
62,311,100129,2,0,B|84:263|84:263|37:226|53:147,1,161.999995056153,0|0,0:0|0:0,0:0:0:0:
71,1,100512,6,0,P|110:7|144:29,1,80.9999975280763,0|0,0:0|0:0,0:0:0:0:
152,196,100767,2,0,P|191:187|223:164,1,80.9999975280763,0|0,0:0|0:0,0:0:0:0:
263,13,101022,2,0,B|305:19|305:19|343:46,1,80.9999975280763,0|0,0:0|0:0,0:0:0:0:
378,192,101278,1,0,0:0:0:0:
287,327,101405,2,0,P|220:365|152:328,1,161.999995056153,0|0,0:0|0:0,0:0:0:0:
224,196,101788,2,0,L|216:107,1,80.9999975280763,0|0,0:0|0:0,0:0:0:0:
89,24,102044,2,0,L|96:112,1,80.9999975280763,0|0,0:0|0:0,0:0:0:0:
151,327,102299,2,0,B|176:295|176:295|224:288,1,80.9999975280763
373,349,102554,6,0,P|382:310|374:270,1,80.9999975280763,0|0,0:0|0:0,0:0:0:0:
234,193,102810,1,0,0:0:0:0:
254,352,102937,1,0,0:0:0:0:
374,270,103065,2,0,B|335:277|335:277|293:270,1,80.9999975280763
164,174,103320,1,0,0:0:0:0:
250,41,103448,2,0,B|330:14|330:14|396:63,1,161.999995056153,0|0,0:0|0:0,0:0:0:0:
500,171,103831,2,0,P|507:210|498:249,1,80.9999975280763,0|0,0:0|0:0,0:0:0:0:
373,349,104086,2,0,P|365:309|374:270,1,80.9999975280763,0|0,0:0|0:0,0:0:0:0:
446,119,104341,2,0,B|416:91|416:91|378:78,1,80.9999975280763,0|0,0:0|0:0,0:0:0:0:
208,169,104597,6,0,P|168:177|129:168,1,80.9999975280763,0|0,0:0|0:0,0:0:0:0:
41,31,104852,2,0,P|80:22|119:31,1,80.9999975280763,0|0,0:0|0:0,0:0:0:0:
209,251,105107,2,0,L|209:84,1,161.999995056153
335,2,105490,2,0,B|335:71|335:71|382:158,1,161.999995056153,0|0,0:0|0:0,0:0:0:0:
507,238,105873,2,0,P|484:270|450:291,1,80.9999975280763,0|0,0:0|0:0,0:0:0:0:
287,254,106129,2,0,P|247:244|208:251,1,80.9999975280763,0|0,0:0|0:0,0:0:0:0:
89,350,106384,2,0,L|96:261,1,80.9999975280763,0|0,0:0|0:0,0:0:0:0:
157,37,106639,5,0,0:0:0:0:
424,181,106767,1,0,0:0:0:0:
424,181,106895,2,0,B|371:195|371:195|246:176,1,161.999995056153,0|0,0:0|0:0,0:0:0:0:
108,84,107278,1,0,0:0:0:0:
28,223,107405,2,0,P|69:227|140:230,1,80.9999975280763,0|0,0:0|0:0,0:0:0:0:
258,333,107661,6,0,B|298:325|298:325|346:283,1,80.9999975280763,0|0,0:0|0:0,0:0:0:0:
345,77,107916,1,0,0:0:0:0:
174,309,108044,1,0,0:0:0:0:
367,48,108171,1,0,0:0:0:0:
174,309,108299,1,0,0:0:0:0:
345,77,108426,1,0,0:0:0:0:
252,332,108554,1,0,0:0:0:0:
474,166,108682,6,0,P|425:168|370:139,1,99.0000030212403,0|0,0:0|0:0,0:0:0:0:
267,27,108937,2,0,P|218:31|176:58,1,99.0000030212403,0|0,0:0|0:0,0:0:0:0:
93,213,109192,2,0,B|131:243|131:243|178:259,1,99.0000030212403,0|0,0:0|0:0,0:0:0:0:
322,197,109448,1,0,0:0:0:0:
360,47,109575,2,0,B|289:16|289:16|157:65,1,198.000006042481
45,138,109958,2,0,P|89:158|138:156,1,99.0000030212403,0|0,0:0|0:0,0:0:0:0:
249,31,110214,2,0,P|292:53|321:93,1,99.0000030212403,0|0,0:0|0:0,0:0:0:0:
224,233,110469,2,0,P|228:281|255:323,1,99.0000030212403
445,365,110724,6,0,B|452:316|452:316|442:267,1,99.0000030212403,0|0,0:0|0:0,0:0:0:0:
309,167,110980,1,0,0:0:0:0:
183,252,111107,2,0,B|190:300|190:300|180:349,1,99.0000030212403,0|0,0:0|0:0,0:0:0:0:
34,375,111363,1,0,0:0:0:0:
21,210,111490,2,0,P|62:183|111:178,1,99.0000030212403,0|0,0:0|0:0,0:0:0:0:
188,307,111746,2,0,P|236:314|283:300,1,99.0000030212403,0|0,0:0|0:0,0:0:0:0:
357,164,112001,2,0,P|308:156|261:170,1,99.0000030212403,0|0,0:0|0:0,0:0:0:0:
120,257,112256,1,0,0:0:0:0:
372,207,112383,1,0,0:0:0:0:
113,75,112511,1,0,0:0:0:0:
283,300,112638,1,0,0:0:0:0:
281,80,112767,6,0,L|177:73,1,99.0000030212403,0|0,0:0|0:0,0:0:0:0:
58,200,113022,2,0,L|162:207,1,99.0000030212403,0|0,0:0|0:0,0:0:0:0:
328,282,113278,2,0,P|340:234|329:186,1,99.0000030212403,0|0,0:0|0:0,0:0:0:0:
206,94,113533,1,0,0:0:0:0:
192,287,113661,2,0,P|179:239|190:191,1,99.0000030212403,0|0,0:0|0:0,0:0:0:0:
314,99,113916,1,0,0:0:0:0:
454,209,114044,2,0,B|477:256|477:256|477:321,1,99.0000030212403,0|0,0:0|0:0,0:0:0:0:
349,384,114299,2,0,B|296:380|296:380|240:347,1,99.0000030212403,0|0,0:0|0:0,0:0:0:0:
249,205,114554,2,0,B|278:161|278:161|334:129,1,99.0000030212403,0|0,0:0|0:0,0:0:0:0:
435,46,114809,6,0,P|489:108|440:215,1,198.000006042481,0|0,0:0|0:0,0:0:0:0:
321,303,115192,1,0,0:0:0:0:
187,205,115320,2,0,L|167:2,1,198.000006042481,0|0,0:0|0:0,0:0:0:0:
43,125,115703,1,0,0:0:0:0:
278,198,115831,6,0,L|267:309,1,99.0000030212403,0|0,0:0|0:0,0:0:0:0:
115,384,116086,1,0,0:0:0:0:
3,264,116214,1,0,0:0:0:0:
208,244,116342,2,0,L|201:146,1,99.0000030212403,0|0,0:0|0:0,0:0:0:0:
33,81,116597,1,0,0:0:0:0:
151,311,116725,1,0,0:0:0:0:
147,47,116852,6,0,P|193:32|242:40,1,99.0000030212403,0|0,0:0|0:0,0:0:0:0:
365,152,117107,2,0,P|331:188|285:205,1,99.0000030212403,0|0,0:0|0:0,0:0:0:0:
86,58,117363,2,0,B|56:121|56:121|97:244,1,198.000006042481,0|0,0:0|0:0,0:0:0:0:
159,367,117746,2,0,B|219:346|223:285|223:285|317:285,1,198.000006042481,0|0,0:0|0:0,0:0:0:0:
461,244,118129,2,0,L|455:139,1,99.0000030212403,0|0,0:0|0:0,0:0:0:0:
333,23,118384,2,0,L|339:128,1,99.0000030212403,0|0,0:0|0:0,0:0:0:0:
309,285,118639,2,0,B|261:259|261:259|231:207,1,99.0000030212403,0|0,0:0|0:0,0:0:0:0:
182,4,118895,6,0,B|206:52|206:52|201:112,1,99.0000030212403,0|0,0:0|0:0,0:0:0:0:
90,214,119150,1,0,0:0:0:0:
177,341,119278,2,0,B|213:366|213:366|267:369,1,99.0000030212403,0|0,0:0|0:0,0:0:0:0:
401,288,119533,1,0,0:0:0:0:
463,131,119661,2,0,P|416:115|367:124,1,99.0000030212403,0|0,0:0|0:0,0:0:0:0:
220,203,119916,2,0,P|266:218|315:209,1,99.0000030212403,0|0,0:0|0:0,0:0:0:0:
419,115,120171,2,0,L|410:11,1,99.0000030212403,0|0,0:0|0:0,0:0:0:0:
231,2,120426,1,0,0:0:0:0:
314,209,120554,1,0,0:0:0:0:
160,8,120682,1,0,0:0:0:0:
186,274,120809,1,0,0:0:0:0:
55,4,120937,6,0,B|51:54|51:54|69:114,1,99.0000030212403,0|0,0:0|0:0,0:0:0:0:
196,177,121192,2,0,B|200:227|200:227|182:287,1,99.0000030212403,0|0,0:0|0:0,0:0:0:0:
58,365,121448,2,0,P|104:380|153:371,1,99.0000030212403,0|0,0:0|0:0,0:0:0:0:
275,268,121703,1,0,0:0:0:0:
112,135,121831,2,0,P|193:85|275:131,1,198.000006042481,0|0,0:0|0:0,0:0:0:0:
313,362,122214,2,0,P|356:339|385:299,1,99.0000030212403,0|0,0:0|0:0,0:0:0:0:
411,134,122469,2,0,P|388:90|348:61,1,99.0000030212403,0|0,0:0|0:0,0:0:0:0:
283,204,122724,2,0,P|254:243|210:266,1,99.0000030212403,0|0,0:0|0:0,0:0:0:0:
33,166,122980,6,0,L|136:153,1,99.0000030212403,0|0,0:0|0:0,0:0:0:0:
256,57,123235,1,0,0:0:0:0:
430,189,123363,2,0,B|368:184|368:184|248:264,1,198.000006042481,0|0,0:0|0:0,0:0:0:0:
198,384,123746,2,0,P|158:355|135:311,1,99.0000030212403,0|0,0:0|0:0,0:0:0:0:
131,161,124001,2,0,P|159:121|203:98,1,99.0000030212403
346,168,124256,2,0,P|317:207|273:230,1,99.0000030212403,0|0,0:0|0:0,0:0:0:0:
83,217,124512,2,0,L|74:110,1,99.0000030212403
195,0,124767,2,0,L|204:107,1,99.0000030212403
121,319,125022,6,0,P|168:306|216:317,1,99.0000030212403,0|0,0:0|0:0,0:0:0:0:
355,382,125278,1,0,0:0:0:0:
488,303,125405,2,0,P|498:255|486:207,1,99.0000030212403,0|0,0:0|0:0,0:0:0:0:
376,75,125661,1,0,0:0:0:0:
276,202,125788,2,0,L|171:209,1,99.0000030212403,0|0,0:0|0:0,0:0:0:0:
45,129,126044,2,0,B|96:140|96:140|150:122,1,99.0000030212403,0|0,0:0|0:0,0:0:0:0:
267,24,126299,1,0,0:0:0:0:
435,123,126426,2,0,B|446:172|446:172|431:223,1,99.0000030212403,0|0,0:0|0:0,0:0:0:0:
325,343,126682,1,0,0:0:0:0:
194,229,126809,2,0,L|190:117,1,99.0000030212403,0|0,0:0|0:0,0:0:0:0:
139,0,127065,6,0,P|97:26|72:69,1,99.0000030212403,0|0,0:0|0:0,0:0:0:0:
194,228,127320,1,0,0:0:0:0:
261,1,127448,2,0,P|297:33|315:79,1,99.0000030212403,0|0,0:0|0:0,0:0:0:0:
194,228,127703,1,0,0:0:0:0:
293,351,127831,2,0,L|403:340,1,99.0000030212403,0|0,0:0|0:0,0:0:0:0:
485,206,128086,2,0,L|375:217,1,99.0000030212403,0|0,0:0|0:0,0:0:0:0:
234,300,128341,2,0,P|185:302|139:283,1,99.0000030212403,0|0,0:0|0:0,0:0:0:0:
79,123,128597,2,0,P|111:86|157:68,1,99.0000030212403,0|0,0:0|0:0,0:0:0:0:
274,173,128852,2,0,P|319:192|368:189,1,99.0000030212403,0|0,0:0|0:0,0:0:0:0:
467,30,129107,6,0,B|418:14|418:14|356:29,1,99.0000030212403,0|0,0:0|0:0,0:0:0:0:
217,104,129363,1,0,0:0:0:0:
80,224,129490,2,0,B|129:240|129:240|191:225,1,99.0000030212403,0|0,0:0|0:0,0:0:0:0:
292,104,129746,1,0,0:0:0:0:
136,7,129873,2,0,L|136:111,1,99.0000030212403,0|0,0:0|0:0,0:0:0:0:
181,321,130129,2,0,P|226:302|259:266,1,99.0000030212403,0|0,0:0|0:0,0:0:0:0:
292,104,130384,1,0,0:0:0:0:
158,169,130512,2,0,P|112:187|79:223,1,99.0000030212403,0|0,0:0|0:0,0:0:0:0:
121,370,130767,1,0,0:0:0:0:
309,325,130895,2,0,P|328:279|325:230,1,99.0000030212403,0|0,0:0|0:0,0:0:0:0:
161,111,131150,6,0,L|58:98,2,99.0000030212403,0|0|0,0:0|0:0|0:0,0:0:0:0:
312,168,131533,2,0,P|290:260|199:286,1,198.000006042481,0|0,0:0|0:0,0:0:0:0:
82,202,131916,2,0,P|115:165|160:147,1,99.0000030212403,0|0,0:0|0:0,0:0:0:0:
427,143,132171,6,0,L|325:143,1,99.0000030212403
464,18,132426,1,0,0:0:0:0:
257,241,132554,6,0,L|257:139,1,99.0000030212403
382,278,132809,1,0,0:0:0:0:
155,74,132937,6,0,L|257:74,1,99.0000030212403
118,199,133192,1,0,0:0:0:0:
214,322,136256,5,0,0:0:0:0:
214,322,136319,1,0,0:0:0:0:
214,322,136383,1,0,0:0:0:0:
295,116,136511,1,0,0:0:0:0:
432,306,136638,1,0,0:0:0:0:
459,51,136767,2,0,P|468:96|475:171,1,99.0000030212403,0|0,0:0|0:0,0:0:0:0:
318,331,137022,2,0,P|311:286|318:202,1,99.0000030212403,0|0,0:0|0:0,0:0:0:0:
360,32,137278,6,0,B|291:31|291:31|242:57|242:57|155:58,1,198.000006042481,0|0,0:0|0:0,0:0:0:0:
29,131,137661,1,0,0:0:0:0:
70,282,137788,2,0,B|118:290|118:290|178:276,1,99.0000030212403,0|0,0:0|0:0,0:0:0:0:
213,135,138044,2,0,B|262:123|262:123|310:131,1,99.0000030212403,0|0,0:0|0:0,0:0:0:0:
389,286,138299,2,0,P|428:252|443:204,1,99.0000030212403,0|0,0:0|0:0,0:0:0:0:
341,61,138554,1,0,0:0:0:0:
341,61,138618,1,0,0:0:0:0:
341,61,138682,1,0,0:0:0:0:
172,31,138809,2,0,B|126:12|126:12|82:43,1,99.0000030212403,0|0,0:0|0:0,0:0:0:0:
146,153,139065,2,0,B|174:193|174:193|155:239,1,99.0000030212403,0|0,0:0|0:0,0:0:0:0:
183,375,139320,5,0,0:0:0:0:
241,344,139405,1,0,0:0:0:0:
295,307,139490,1,0,0:0:0:0:
343,263,139575,1,0,0:0:0:0:
323,206,139661,1,0,0:0:0:0:
300,150,139746,1,0,0:0:0:0:
360,156,139831,1,0,0:0:0:0:
418,167,139916,1,0,0:0:0:0:
476,179,140001,1,0,0:0:0:0:
456,122,140086,1,0,0:0:0:0:
426,70,140171,1,0,0:0:0:0:
388,24,140256,1,0,0:0:0:0:
339,58,140341,5,0,0:0:0:0:
289,91,140426,1,0,0:0:0:0:
229,87,140512,1,0,0:0:0:0:
175,60,140597,1,0,0:0:0:0:
113,67,140682,1,0,0:0:0:0:
89,121,140767,1,0,0:0:0:0:
106,177,140852,1,0,0:0:0:0:
161,196,140937,1,0,0:0:0:0:
218,180,141022,2,0,L|329:149,2,66.0000020141602
62,253,141363,6,0,B|97:253|97:253|117:261|117:261|130:242|130:242|258:228,1,198.000006042481
391,313,141746,1,0,0:0:0:0:
478,172,141873,2,0,B|484:116|484:116|332:156,1,198.000006042481,0|0,0:0|0:0,0:0:0:0:
240,284,142256,1,0,0:0:0:0:
153,143,142384,5,0,0:0:0:0:
153,143,142448,1,0,0:0:0:0:
153,143,142512,1,0,0:0:0:0:
338,68,142639,1,0,0:0:0:0:
175,11,142767,1,0,0:0:0:0:
225,221,142895,2,0,B|259:193|259:193|325:254|404:218,1,198.000006042481
496,149,143278,1,0,0:0:0:0:
338,68,143405,6,0,B|273:70|273:70|214:50|214:50|129:55,1,198.000006042481,0|0,0:0|0:0,0:0:0:0:
11,147,143788,1,0,0:0:0:0:
97,289,143916,2,0,L|198:280,1,99.0000030212403,0|0,0:0|0:0,0:0:0:0:
313,181,144171,2,0,L|414:189,1,99.0000030212403,0|0,0:0|0:0,0:0:0:0:
495,326,144426,6,0,B|459:345|459:345|451:334|451:334|349:340,1,148.50000453186
339,305,144682,2,0,L|408:300,4,49.5000015106202
178,260,145065,1,0,0:0:0:0:
347,215,145192,2,0,L|357:110,1,99.0000030212403,0|0,0:0|0:0,0:0:0:0:
190,35,145448,6,0,B|162:28|140:54|140:54|40:67,1,148.50000453186,0|0,0:0|0:0,0:0:0:0:
51,119,145703,1,0,0:0:0:0:
61,177,145767,1,0,0:0:0:0:
72,235,145831,1,0,0:0:0:0:
82,293,145895,1,0,0:0:0:0:
95,350,145958,2,0,B|190:373|190:373|302:353,1,198.000006042481,0|0,0:0|0:0,0:0:0:0:
324,310,146277,1,0,0:0:0:0:
338,258,146341,1,0,0:0:0:0:
351,207,146405,1,0,0:0:0:0:
366,157,146469,6,0,L|424:166,2,49.5000015106202,0|0|0,0:0|0:0|0:0,0:0:0:0:
277,49,146724,1,0,0:0:0:0:
232,42,146788,1,0,0:0:0:0:
188,50,146852,1,0,0:0:0:0:
153,77,146916,1,0,0:0:0:0:
127,113,146980,2,0,B|169:105|169:105|195:137|195:137|307:94,1,198.000006042481,0|0,0:0|0:0,0:0:0:0:
417,27,147363,1,0,0:0:0:0:
472,145,147490,6,0,B|477:192|477:192|463:246,1,99.0000030212403,0|0,0:0|0:0,0:0:0:0:
346,344,147746,2,0,B|302:324|302:324|263:285,1,99.0000030212403,0|0,0:0|0:0,0:0:0:0:
279,99,148001,2,0,B|242:62|242:62|198:43,1,99.0000030212403,0|0,0:0|0:0,0:0:0:0:
49,38,148256,2,0,L|37:152,1,99.0000030212403,0|0,0:0|0:0,0:0:0:0:
77,324,148512,5,0,0:0:0:0:
122,297,148575,1,0,0:0:0:0:
169,268,148639,1,0,0:0:0:0:
219,289,148703,1,0,0:0:0:0:
266,315,148767,1,0,0:0:0:0:
316,336,148831,1,0,0:0:0:0:
363,308,148895,1,0,0:0:0:0:
401,270,148958,1,0,0:0:0:0:
438,229,149022,2,0,L|482:185,1,49.5000015106202,0|0,0:0|0:0,0:0:0:0:
470,110,149150,2,0,L|426:66,1,49.5000015106202,0|0,0:0|0:0,0:0:0:0:
312,42,149278,2,0,B|263:54|263:54|196:33,1,99.0000030212403,0|0,0:0|0:0,0:0:0:0:
93,21,149533,5,0,0:0:0:0:
93,90,149597,1,0,0:0:0:0:
93,159,149661,1,0,0:0:0:0:
100,226,149724,1,0,0:0:0:0:
118,293,149788,1,0,0:0:0:0:
172,336,149852,1,0,0:0:0:0:
239,352,149916,1,0,0:0:0:0:
306,335,149980,1,0,0:0:0:0:
366,300,150044,5,0,0:0:0:0:
390,236,150107,1,0,0:0:0:0:
389,166,150171,1,0,0:0:0:0:
363,101,150235,1,0,0:0:0:0:
315,50,150299,1,0,0:0:0:0:
253,17,150363,1,0,0:0:0:0:
184,10,150426,1,0,0:0:0:0:
123,43,150490,1,0,0:0:0:0:
80,97,150554,5,0,0:0:0:0:
147,113,150618,1,0,0:0:0:0:
204,74,150682,1,0,0:0:0:0:
249,21,150746,1,0,0:0:0:0:
315,8,150809,1,0,0:0:0:0:
376,38,150873,1,0,0:0:0:0:
410,98,150937,1,0,0:0:0:0:
398,166,151001,1,0,0:0:0:0:
357,222,151065,5,0,0:0:0:0:
309,272,151129,1,0,0:0:0:0:
253,311,151192,1,0,0:0:0:0:
184,322,151256,1,0,0:0:0:0:
116,307,151320,1,0,0:0:0:0:
64,260,151384,1,0,0:0:0:0:
35,196,151448,1,0,0:0:0:0:
37,126,151512,1,0,0:0:0:0:
62,62,151575,6,0,B|94:67|94:67|110:77|110:77|120:47|120:47|160:88|236:54,1,198.000006042481,0|0,0:0|0:0,0:0:0:0:
431,29,151958,1,0,0:0:0:0:
482,208,152086,1,0,0:0:0:0:
448,274,152150,1,0,0:0:0:0:
379,302,152214,1,0,0:0:0:0:
305,287,152278,1,0,0:0:0:0:
248,238,152342,1,0,0:0:0:0:
228,167,152405,1,0,0:0:0:0:
227,92,152469,1,0,0:0:0:0:
265,28,152533,1,0,0:0:0:0:
337,12,152597,6,0,L|391:16,2,49.5000015106202,0|0|0,0:0|0:0|0:0,0:0:0:0:
175,42,152788,2,0,L|121:38,2,49.5000015106202,0|0|0,0:0|0:0|0:0,0:0:0:0:
309,100,152980,2,0,B|359:105|359:105|405:144,1,99.0000030212403,0|0,0:0|0:0,0:0:0:0:
436,264,153235,1,0,0:0:0:0:
160,77,153363,1,0,0:0:0:0:
352,344,153490,1,0,0:0:0:0:
81,248,153618,6,0,P|69:196|77:152,1,72,0|0,0:0|0:0,0:0:0:0:
160,77,153873,1,0,0:0:0:0:
268,141,154001,2,0,P|280:192|267:242,1,72
220,333,154256,2,0,P|268:342|310:330,1,72,0|0,0:0|0:0,0:0:0:0:
414,245,154512,1,0,0:0:0:0:
211,190,154639,5,0,0:0:0:0:
423,139,154767,1,0,0:0:0:0:
183,236,154895,1,0,0:0:0:0:
450,90,155023,1,0,0:0:0:0:
165,288,155150,2,0,B|202:288|202:288|262:277,1,72,0|0,0:0|0:0,0:0:0:0:
419,191,155405,2,0,P|391:150|354:132,1,72,0|0,0:0|0:0,0:0:0:0:
108,149,155661,6,0,B|151:159|151:159|195:149,1,80.9999975280763
287,51,155916,1,0,0:0:0:0:
151,12,156044,2,0,B|141:55|141:55|151:99,1,80.9999975280763,0|0,0:0|0:0,0:0:0:0:
256,172,156299,2,0,B|264:207|264:207|254:250,1,80.9999975280763,0|0,0:0|0:0,0:0:0:0:
100,334,156554,1,0,0:0:0:0:
361,289,156682,5,0,0:0:0:0:
137,208,156809,1,0,0:0:0:0:
421,263,156937,1,0,0:0:0:0:
86,247,157065,1,0,0:0:0:0:
474,209,157192,2,0,L|382:191,1,80.9999975280763,0|0,0:0|0:0,0:0:0:0:
249,109,157448,2,0,P|233:146|230:187,1,80.9999975280763,0|0,0:0|0:0,0:0:0:0:
326,349,157703,6,0,B|336:305|336:305|329:244,1,90,0|0,0:0|0:0,0:0:0:0:
249,109,157958,1,0,0:0:0:0:
103,159,158086,2,0,B|93:203|93:203|100:264,1,90,0|0,0:0|0:0,0:0:0:0:
205,360,158341,2,0,P|234:318|241:275,1,90,0|0,0:0|0:0,0:0:0:0:
173,127,158597,1,0,0:0:0:0:
402,175,158724,5,0,0:0:0:0:
88,210,158852,1,0,0:0:0:0:
433,248,158980,1,0,0:0:0:0:
77,119,159107,1,0,0:0:0:0:
413,325,159235,2,0,B|376:301|376:301|341:249,1,90,0|0,0:0|0:0,0:0:0:0:
380,101,159490,2,0,B|354:62|354:62|317:39,1,90,0|0,0:0|0:0,0:0:0:0:
118,52,159746,6,0,L|105:157,1,99.0000030212403,0|0,0:0|0:0,0:0:0:0:
106,327,160001,1,0,0:0:0:0:
291,281,160129,2,0,L|304:176,1,99.0000030212403,0|0,0:0|0:0,0:0:0:0:
231,53,160384,2,0,P|276:18|405:78,1,198.000006042481
367,228,160767,6,0,P|330:271|272:278,1,99.0000030212403,0|0,0:0|0:0,0:0:0:0:
214,135,161022,2,0,P|171:111|122:118,1,99.0000030212403,0|0,0:0|0:0,0:0:0:0:
49,249,161278,2,0,P|91:272|140:265,1,99.0000030212403,0|0,0:0|0:0,0:0:0:0:
287,221,161533,2,0,B|298:172|298:172|285:101,1,99.0000030212403,0|0,0:0|0:0,0:0:0:0:
228,25,161788,5,0,0:0:0:0:
82,305,161916,1,0,0:0:0:0:
370,142,162044,1,0,0:0:0:0:
57,107,162172,1,0,0:0:0:0:
310,313,162299,1,0,0:0:0:0:
310,313,162363,1,0,0:0:0:0:
310,313,162426,1,0,0:0:0:0:
140,47,162554,1,0,0:0:0:0:
159,350,162682,1,0,0:0:0:0:
228,25,162809,5,0,0:0:0:0:
315,240,162937,1,0,0:0:0:0:
255,47,163065,1,0,0:0:0:0:
327,202,163192,1,0,0:0:0:0:
289,123,163320,1,0,0:0:0:0:
289,123,163384,1,0,0:0:0:0:
289,123,163448,1,0,0:0:0:0:
235,178,163575,1,0,0:0:0:0:
239,182,163703,1,0,0:0:0:0:
101,45,169958,6,0,B|132:40|132:40|195:45,1,80.9999975280763
314,110,170214,1,0,0:0:0:0:
171,261,170341,6,0,B|149:218|149:218|146:163,1,90
251,68,170597,1,0,0:0:0:0:
378,266,170724,6,0,B|334:301|334:301|289:294,1,99.0000030212403
197,124,170980,1,0,0:0:0:0:
373,254,171107,6,0,B|329:289|329:289|284:282,1,99.0000030212403
402,383,171363,1,0,0:0:0:0:
402,383,171426,1,0,0:0:0:0:
402,383,171490,1,0,0:0:0:0:
288,128,171618,1,0,0:0:0:0:
208,341,171746,1,0,0:0:0:0:
123,57,171873,1,0,0:0:0:0:
110,266,172001,6,0,P|159:268|214:239,1,99.0000030212403
260,62,172256,2,0,P|309:66|351:93,1,99.0000030212403
416,247,172512,2,0,B|391:292|391:292|346:318,1,99.0000030212403
203,247,172767,1,0,0:0:0:0:
359,170,172895,2,0,B|288:139|288:139|156:188,1,198.000006042481
88,305,173278,2,0,P|45:264|31:217,1,99.0000030212403
115,86,173533,2,0,P|172:69|219:80,1,99.0000030212403
319,257,173788,2,0,P|348:218|358:169,1,99.0000030212403
300,30,174044,6,0,B|279:70|279:70|279:124,1,99.0000030212403
404,258,174299,1,0,0:0:0:0:
504,97,174426,2,0,B|393:97,1,99.0000030212403
319,257,174681,1,0,0:0:0:0:
425,351,174809,2,0,P|471:325|491:274,1,99.0000030212403
405,97,175065,2,0,P|359:123|339:174,1,99.0000030212403
363,311,175320,2,0,P|322:337|273:335,1,99.0000030212403
94,175,175575,1,0,0:0:0:0:
357,230,175703,1,0,0:0:0:0:
180,29,175831,1,0,0:0:0:0:
212,325,175958,1,0,0:0:0:0:
281,43,176086,6,0,P|273:106|248:148,1,99.0000030212403
146,238,176341,2,0,P|185:277|231:291,1,99.0000030212403
371,251,176597,2,0,B|398:203|398:203|401:150,1,99.0000030212403
285,42,176852,1,0,0:0:0:0:
176,147,176980,2,0,B|149:194|149:194|146:247,1,99.0000030212403
262,356,177235,1,0,0:0:0:0:
