osu file format v14

[General]
AudioFilename: audio.ogg
AudioLeadIn: 0
PreviewTime: 3971
Countdown: 0
SampleSet: Normal
StackLeniency: 0.7
Mode: 3
LetterboxInBreaks: 0
SpecialStyle: 0
WidescreenStoryboard: 1

[Editor]
Bookmarks: 362,3971,18408,32844,34423,35550,37581,38257,40062,41866,42768,47280,50889,65325,79761,83370,97806
DistanceSpacing: 1.3
BeatDivisor: 4
GridSize: 4
TimelineZoom: 1.2

[Metadata]
Title:Toki Raki Meki (Cut Ver.)
TitleUnicode:トキラキメキ (Cut Ver.)
Artist:Hizuki Miu
ArtistUnicode:ヒヅキミウ
Creator:lovely_hyahya
Version:Little Snow
Source:ハミダシクリエイティブ凸
Tags:Carpihat AelSan Hidden is fun ending ed Video Game japanese electronic jpop j-pop pop female vocal Nodoka Yuzuriha 楪のどか Yuki Utamaru 哥丸 雄貴 まどそふと Madosoft muku 紬 雪乃 Tsumugi Yukino 錦あすみ Nishiki Asumi Galgame gal eroge 锦 亚澄 明日海 雪景式 雪景シキ LN hybrid Hamidashi Creative Totsu visual novel vn hamikuri ハミクリ凸
BeatmapID:3970396
BeatmapSetID:1923328

[Difficulty]
HPDrainRate:8
CircleSize:4
OverallDifficulty:7.5
ApproachRate:5
SliderMultiplier:1.4
SliderTickRate:1

[Events]
//Background and Video events
0,0,"BG.jpg",0,0
//Break Periods
//Storyboard Layer 0 (Background)
//Storyboard Layer 1 (Fail)
//Storyboard Layer 2 (Pass)
//Storyboard Layer 3 (Foreground)
//Storyboard Layer 4 (Overlay)
//Storyboard Sound Samples
Sample,17167,0,"nevertom.wav",25
Sample,17731,0,"nevertom.wav",50
Sample,46716,0,"TMKD_Snare3_14x6-Brass_hard_05.wav",50
Sample,46941,0,"TMKD_Snare3_14x6-Brass_hard_05.wav",50
Sample,47167,0,"TMKD_Snare3_14x6-Brass_hard_05.wav",50

[TimingPoints]
3972,451.127819548872,4,1,1,70,1,0
50889,-100,4,1,1,70,0,1
57205,-100,4,1,1,70,0,0
58107,-100,4,1,1,70,0,1
64423,-100,4,1,1,70,0,0
65325,-100,4,1,1,70,0,1
71641,-100,4,1,1,70,0,0
72543,-100,4,1,1,70,0,1
79761,-100,4,1,1,70,0,0

[HitObjects]
64,192,362,128,0,588:0:0:0:70:electronic04.wav
320,192,362,128,0,588:0:0:0:55:cymbal05.wav
448,192,362,128,0,588:0:0:0:0:
64,192,701,128,0,926:0:0:0:70:electronic04.wav
192,192,701,128,0,926:0:0:0:55:cymbal05.wav
448,192,701,128,0,926:0:0:0:0:
64,192,1039,128,0,1265:0:0:0:70:electronic04.wav
192,192,1039,128,0,1265:0:0:0:55:cymbal05.wav
320,192,1039,128,0,1265:0:0:0:0:
192,192,1490,128,0,1603:0:0:0:70:electronic04.wav
320,192,1490,128,0,1603:0:0:0:50:cymbal05short.wav
448,192,1490,128,0,1603:0:0:0:0:
64,192,1716,128,0,2956:0:0:0:70:electronic04.wav
320,192,1716,128,0,2956:0:0:0:55:cymbal05.wav
448,192,1716,128,0,2956:0:0:0:0:
192,192,2167,128,0,2956:0:0:0:0:
64,192,3069,1,0,0:0:0:70:electronic04.wav
320,192,3069,1,0,0:0:0:0:
448,192,3069,1,0,0:0:0:0:
192,192,3182,1,0,0:0:0:30:punchy snare 43.wav
320,192,3182,1,0,0:0:0:0:
64,192,3408,1,0,0:0:0:30:punchy snare 43.wav
448,192,3408,1,0,0:0:0:0:
192,192,3520,1,0,0:0:0:70:electronic04.wav
320,192,3520,1,0,0:0:0:0:
448,192,3520,1,0,0:0:0:0:
64,192,3633,1,0,0:0:0:30:punchy snare 43.wav
192,192,3633,1,0,0:0:0:0:
320,192,3746,1,0,0:0:0:30:punchy snare 43.wav
448,192,3746,1,0,0:0:0:0:
64,192,3859,1,0,0:0:0:30:punchy snare 43.wav
192,192,3859,1,0,0:0:0:0:
64,192,3971,128,0,4197:0:0:0:70:electronic04.wav
320,192,3971,1,0,0:0:0:55:cymbal05.wav
448,192,3971,1,0,0:0:0:0:
448,192,4122,128,0,4197:0:0:0:0:
192,192,4197,1,0,0:0:0:0:
320,192,4197,128,0,4272:0:0:0:0:
320,192,4347,128,0,4423:0:0:0:0:
64,192,4423,1,0,0:0:0:30:punchy snare 43.wav
192,192,4423,1,0,0:0:0:0:
448,192,4423,1,0,0:0:0:0:
64,192,4573,128,0,4648:0:0:0:0:
192,192,4648,128,0,4723:0:0:0:0:
320,192,4648,1,0,0:0:0:0:
192,192,4799,128,0,4874:0:0:0:0:
64,192,4874,1,0,0:0:0:70:electronic04.wav
320,192,4874,1,0,0:0:0:0:
448,192,4874,1,0,0:0:0:0:
320,192,5024,128,0,5099:0:0:0:0:
192,192,5099,128,0,5175:0:0:0:0:
64,192,5325,128,0,5550:0:0:0:30:punchy snare 43.wav
320,192,5325,1,0,0:0:0:0:
448,192,5325,1,0,0:0:0:0:
192,192,5550,128,0,5776:0:0:0:0:
448,192,5550,1,0,0:0:0:0:
64,192,5776,1,0,0:0:0:70:electronic04.wav
320,192,5776,128,0,6227:0:0:0:0:
448,192,5776,1,0,0:0:0:0:
64,192,6002,1,0,0:0:0:0:
64,192,6227,128,0,6603:0:0:0:30:punchy snare 43.wav
192,192,6227,1,0,0:0:0:0:
448,192,6227,1,0,0:0:0:0:
448,192,6453,1,0,0:0:0:0:
320,192,6603,128,0,6678:0:0:0:0:
64,192,6678,1,0,0:0:0:70:electronic04.wav
192,192,6678,128,0,6753:0:0:0:0:
448,192,6678,1,0,0:0:0:0:
320,192,6829,128,0,6904:0:0:0:0:
192,192,6904,1,0,0:0:0:0:
64,192,7054,128,0,7355:0:0:0:0:
192,192,7129,1,0,0:0:0:30:punchy snare 43.wav
320,192,7129,1,0,0:0:0:0:
448,192,7129,1,0,0:0:0:0:
320,192,7355,128,0,7581:0:0:0:0:
448,192,7355,1,0,0:0:0:0:
64,192,7581,1,0,0:0:0:70:electronic04.wav
192,192,7581,1,0,0:0:0:0:
448,192,7581,128,0,7731:0:0:0:0:
64,192,7806,1,0,0:0:0:0:
320,192,7806,128,0,7881:0:0:0:0:
64,192,8032,128,0,8107:0:0:0:30:punchy snare 43.wav
192,192,8032,1,0,0:0:0:0:
448,192,8032,1,0,0:0:0:0:
192,192,8257,128,0,8332:0:0:0:0:
448,192,8257,1,0,0:0:0:0:
64,192,8483,1,0,0:0:0:70:electronic04.wav
320,192,8483,128,0,8558:0:0:0:0:
448,192,8483,1,0,0:0:0:0:
64,192,8708,128,0,8784:0:0:0:0:
320,192,8708,1,0,0:0:0:0:
192,192,8859,128,0,8934:0:0:0:0:
64,192,8934,1,0,0:0:0:30:punchy snare 43.wav
320,192,8934,1,0,0:0:0:0:
448,192,8934,1,0,0:0:0:0:
320,192,9084,128,0,9159:0:0:0:0:
192,192,9159,1,0,0:0:0:0:
448,192,9159,128,0,9235:0:0:0:0:
64,192,9385,128,0,9460:0:0:0:70:electronic04.wav
320,192,9385,1,0,0:0:0:0:
448,192,9385,1,0,0:0:0:0:
192,192,9460,128,0,9836:0:0:0:0:
448,192,9611,1,0,0:0:0:0:
64,192,9836,1,0,0:0:0:30:punchy snare 43.wav
320,192,9836,128,0,10212:0:0:0:0:
448,192,9836,1,0,0:0:0:0:
192,192,10062,1,0,0:0:0:0:
448,192,10212,128,0,10287:0:0:0:0:
64,192,10287,1,0,0:0:0:70:electronic04.wav
192,192,10287,128,0,10362:0:0:0:0:
320,192,10287,1,0,0:0:0:0:
448,192,10438,128,0,10513:0:0:0:0:
64,192,10513,128,0,10588:0:0:0:0:
320,192,10663,128,0,10738:0:0:0:0:
64,192,10738,1,0,0:0:0:30:punchy snare 43.wav
192,192,10738,1,0,0:0:0:0:
448,192,10738,1,0,0:0:0:0:
192,192,10889,128,0,10964:0:0:0:0:
64,192,10964,128,0,11114:0:0:0:0:
448,192,10964,1,0,0:0:0:0:
320,192,11114,128,0,11190:0:0:0:0:
64,192,11190,1,0,0:0:0:70:electronic04.wav
192,192,11190,1,0,0:0:0:0:
448,192,11190,128,0,11415:0:0:0:0:
64,192,11340,128,0,11415:0:0:0:0:
192,192,11415,128,0,11490:0:0:0:0:
320,192,11415,1,0,0:0:0:0:
192,192,11565,128,0,11641:0:0:0:0:
64,192,11641,1,0,0:0:0:30:punchy snare 43.wav
320,192,11641,1,0,0:0:0:0:
448,192,11641,1,0,0:0:0:0:
448,192,11791,128,0,11866:0:0:0:0:
192,192,11866,1,0,0:0:0:0:
320,192,11866,128,0,11941:0:0:0:0:
320,192,12017,128,0,12092:0:0:0:0:
64,192,12092,1,0,0:0:0:70:electronic04.wav
192,192,12092,1,0,0:0:0:0:
448,192,12092,1,0,0:0:0:0:
192,192,12242,128,0,12317:0:0:0:0:
320,192,12317,1,0,0:0:0:0:
64,192,12543,1,0,0:0:0:30:punchy snare 43.wav
192,192,12543,1,0,0:0:0:0:
448,192,12543,128,0,12768:0:0:0:0:
64,192,12768,1,0,0:0:0:0:
320,192,12768,128,0,12994:0:0:0:0:
64,192,12994,1,0,0:0:0:70:electronic04.wav
192,192,12994,128,0,13445:0:0:0:0:
448,192,12994,1,0,0:0:0:0:
320,192,13220,1,0,0:0:0:0:
64,192,13445,128,0,13821:0:0:0:30:punchy snare 43.wav
320,192,13445,1,0,0:0:0:0:
448,192,13445,1,0,0:0:0:0:
448,192,13671,1,0,0:0:0:0:
192,192,13821,128,0,13896:0:0:0:0:
64,192,13896,1,0,0:0:0:70:electronic04.wav
320,192,13896,128,0,13971:0:0:0:0:
448,192,13896,1,0,0:0:0:0:
192,192,14047,128,0,14122:0:0:0:0:
320,192,14122,1,0,0:0:0:0:
448,192,14272,128,0,14573:0:0:0:0:
64,192,14347,1,0,0:0:0:30:punchy snare 43.wav
192,192,14347,1,0,0:0:0:0:
320,192,14347,1,0,0:0:0:0:
64,192,14573,1,0,0:0:0:0:
320,192,14573,128,0,14799:0:0:0:0:
64,192,14799,128,0,14949:0:0:0:70:electronic04.wav
192,192,14799,1,0,0:0:0:0:
448,192,14799,1,0,0:0:0:0:
192,192,15024,128,0,15099:0:0:0:0:
448,192,15024,1,0,0:0:0:0:
64,192,15250,1,0,0:0:0:30:punchy snare 43.wav
320,192,15250,1,0,0:0:0:0:
448,192,15250,128,0,15325:0:0:0:0:
64,192,15475,128,0,15550:0:0:0:0:
320,192,15475,1,0,0:0:0:0:
64,192,15701,1,0,0:0:0:70:electronic04.wav
192,192,15701,1,0,0:0:0:0:
320,192,15701,128,0,15776:0:0:0:0:
448,192,15776,128,0,16152:0:0:0:0:
192,192,15926,1,0,0:0:0:0:
64,192,16152,128,0,16603:0:0:0:30:punchy snare 43.wav
192,192,16152,1,0,0:0:0:0:
320,192,16152,1,0,0:0:0:0:
320,192,16378,1,0,0:0:0:0:
192,192,16603,128,0,17393:0:0:0:70:electronic04.wav
320,192,16603,1,0,0:0:0:0:
448,192,16603,1,0,0:0:0:0:
64,192,16829,1,0,0:0:0:30:punchy snare 43.wav
448,192,16829,1,0,0:0:0:0:
64,192,17054,1,0,0:0:0:70:electronic04.wav
448,192,17054,1,0,0:0:0:30:punchy snare 43.wav
64,192,17393,1,0,0:0:0:30:punchy snare 43.wav
320,192,17393,128,0,17505:0:0:0:0:
192,192,17505,1,0,0:0:0:70:electronic04.wav
448,192,17505,128,0,18182:0:0:0:0:
64,192,17618,1,0,0:0:0:30:punchy snare 43.wav
192,192,17618,1,0,0:0:0:0:
64,192,17956,1,0,0:0:0:70:electronic04.wav
192,192,17956,1,0,0:0:0:30:punchy snare 43.wav
64,192,18069,1,0,0:0:0:30:punchy snare 43.wav
192,192,18069,1,0,0:0:0:0:
320,192,18182,1,0,0:0:0:75:nevertom.wav
320,192,18295,1,0,0:0:0:100:nevertom.wav
64,192,18408,128,0,20212:0:0:0:70:electronic04.wav
192,192,18408,1,0,0:0:0:55:cymbal05.wav
448,192,18408,1,0,0:0:0:0:
192,192,18859,1,0,0:0:0:50:soft-hitnormal6.wav
448,192,18859,128,0,18971:0:0:0:0:
448,192,19084,128,0,19197:0:0:0:0:
192,192,19310,1,0,0:0:0:50:soft-hitnormal6.wav
448,192,19310,128,0,19761:0:0:0:0:
192,192,19761,1,0,0:0:0:50:soft-hitnormal6.wav
320,192,19761,128,0,19987:0:0:0:0:
192,192,19987,128,0,20212:0:0:0:0:
320,192,20212,1,0,0:0:0:50:soft-hitnormal6.wav
448,192,20212,128,0,22017:0:0:0:0:
64,192,20438,128,0,20550:0:0:0:0:
64,192,20663,128,0,20776:0:0:0:50:soft-hitnormal6.wav
320,192,20663,1,0,0:0:0:0:
64,192,20889,128,0,21002:0:0:0:0:
64,192,21114,128,0,21565:0:0:0:50:soft-hitnormal6.wav
320,192,21114,1,0,0:0:0:0:
192,192,21565,128,0,21791:0:0:0:50:soft-hitnormal6.wav
320,192,21565,1,0,0:0:0:0:
320,192,21791,128,0,22242:0:0:0:0:
64,192,22017,128,0,23821:0:0:0:50:soft-hitnormal6.wav
192,192,22017,1,0,0:0:0:0:
448,192,22242,128,0,22355:0:0:0:0:
192,192,22468,1,0,0:0:0:50:soft-hitnormal6.wav
448,192,22468,128,0,22919:0:0:0:0:
192,192,22919,1,0,0:0:0:50:soft-hitnormal6.wav
192,192,23370,1,0,0:0:0:50:soft-hitnormal6.wav
320,192,23370,128,0,23596:0:0:0:0:
192,192,23596,128,0,24047:0:0:0:0:
320,192,23821,1,0,0:0:0:50:soft-hitnormal6.wav
448,192,23821,128,0,25626:0:0:0:0:
64,192,24047,128,0,24272:0:0:0:0:
320,192,24272,1,0,0:0:0:50:soft-hitnormal6.wav
192,192,24498,128,0,24611:0:0:0:0:
64,192,24723,1,0,0:0:0:50:soft-hitnormal6.wav
192,192,24723,128,0,24949:0:0:0:0:
320,192,24949,128,0,25626:0:0:0:0:
64,192,25175,1,0,0:0:0:50:soft-hitnormal6.wav
64,192,25626,128,0,27430:0:0:0:50:soft-hitnormal6.wav
192,192,25626,1,0,0:0:0:0:
192,192,26077,1,0,0:0:0:50:soft-hitnormal6.wav
448,192,26077,128,0,26190:0:0:0:0:
448,192,26302,128,0,26415:0:0:0:0:
192,192,26528,1,0,0:0:0:50:soft-hitnormal6.wav
448,192,26528,128,0,26979:0:0:0:0:
192,192,26979,1,0,0:0:0:50:soft-hitnormal6.wav
320,192,26979,128,0,27205:0:0:0:0:
192,192,27205,128,0,27430:0:0:0:0:
320,192,27430,1,0,0:0:0:50:soft-hitnormal6.wav
448,192,27430,128,0,29235:0:0:0:0:
64,192,27656,128,0,27768:0:0:0:0:
64,192,27881,128,0,27994:0:0:0:50:soft-hitnormal6.wav
320,192,27881,1,0,0:0:0:0:
64,192,28107,128,0,28220:0:0:0:0:
64,192,28332,128,0,28784:0:0:0:50:soft-hitnormal6.wav
320,192,28332,1,0,0:0:0:0:
192,192,28784,128,0,29009:0:0:0:50:soft-hitnormal6.wav
320,192,28784,1,0,0:0:0:0:
320,192,29009,128,0,29460:0:0:0:0:
64,192,29235,128,0,30588:0:0:0:50:soft-hitnormal6.wav
192,192,29235,1,0,0:0:0:0:
448,192,29460,128,0,29573:0:0:0:0:
192,192,29686,1,0,0:0:0:50:soft-hitnormal6.wav
448,192,29686,128,0,30137:0:0:0:0:
192,192,30137,1,0,0:0:0:50:soft-hitnormal6.wav
192,192,30588,1,0,0:0:0:50:soft-hitnormal6.wav
320,192,30588,128,0,30814:0:0:0:0:
448,192,30814,128,0,31152:0:0:0:0:
64,192,31039,128,0,31490:0:0:0:50:soft-hitnormal6.wav
192,192,31039,1,0,0:0:0:0:
448,192,31265,128,0,31490:0:0:0:0:
192,192,31490,1,0,0:0:0:50:soft-hitnormal6.wav
320,192,31490,128,0,31716:0:0:0:0:
192,192,31716,128,0,32054:0:0:0:0:
448,192,31716,1,0,0:0:0:0:
320,192,31829,1,0,0:0:0:0:
64,192,31941,128,0,32731:0:0:0:50:soft-hitnormal6.wav
448,192,31941,128,0,32167:0:0:0:0:
192,192,32167,128,0,32280:0:0:0:0:
320,192,32167,1,0,0:0:0:0:
448,192,32280,1,0,0:0:0:0:
192,192,32393,128,0,32731:0:0:0:50:soft-hitnormal6.wav
320,192,32393,1,0,0:0:0:0:
320,192,32618,1,0,0:0:0:50:soft-hitnormal6.wav
64,192,32844,128,0,33069:0:0:0:70:electronic04.wav
192,192,32844,1,0,0:0:0:50:cymbal05.wav
320,192,32844,1,0,0:0:0:30:punchy snare 43.wav
448,192,32844,128,0,32956:0:0:0:50:soft-hitnormal6.wav
192,192,33069,128,0,33182:0:0:0:0:
192,192,33295,128,0,33633:0:0:0:30:punchy snare 43.wav
320,192,33295,128,0,33408:0:0:0:0:
448,192,33295,128,0,33520:0:0:0:0:
64,192,33520,128,0,33633:0:0:0:0:
64,192,33746,128,0,33971:0:0:0:70:electronic04.wav
192,192,33746,1,0,0:0:0:0:
320,192,33746,128,0,33859:0:0:0:0:
320,192,33971,128,0,34197:0:0:0:0:
448,192,33971,128,0,34084:0:0:0:0:
64,192,34197,1,0,0:0:0:30:punchy snare 43.wav
192,192,34197,128,0,34310:0:0:0:0:
448,192,34197,1,0,0:0:0:0:
192,192,34423,128,0,34874:0:0:0:0:
320,192,34423,128,0,34535:0:0:0:0:
64,192,34648,1,0,0:0:0:70:electronic04.wav
320,192,34648,1,0,0:0:0:0:
448,192,34648,1,0,0:0:0:0:
64,192,34874,128,0,34987:0:0:0:0:
448,192,34874,128,0,34987:0:0:0:0:
64,192,35099,128,0,35212:0:0:0:30:punchy snare 43.wav
192,192,35099,1,0,0:0:0:0:
448,192,35099,128,0,35212:0:0:0:0:
64,192,35325,128,0,35438:0:0:0:0:
448,192,35325,128,0,35438:0:0:0:0:
320,192,35438,1,0,0:0:0:0:
192,192,35494,1,0,0:0:0:0:
64,192,35550,1,0,0:0:0:70:electronic04.wav
320,192,35550,1,0,0:0:0:0:
448,192,35550,128,0,35663:0:0:0:0:
192,192,35776,128,0,35889:0:0:0:0:
64,192,36002,1,0,0:0:0:30:punchy snare 43.wav
192,192,36002,128,0,36114:0:0:0:0:
320,192,36002,128,0,36114:0:0:0:0:
64,192,36227,128,0,36340:0:0:0:0:
448,192,36227,128,0,36678:0:0:0:0:
64,192,36453,128,0,36565:0:0:0:70:electronic04.wav
192,192,36453,1,0,0:0:0:0:
320,192,36453,128,0,36678:0:0:0:0:
192,192,36678,128,0,36904:0:0:0:0:
64,192,36904,128,0,37129:0:0:0:30:punchy snare 43.wav
320,192,36904,128,0,37017:0:0:0:0:
448,192,36904,128,0,37017:0:0:0:0:
448,192,37129,128,0,37242:0:0:0:0:
192,192,37242,1,0,0:0:0:0:
320,192,37299,1,0,0:0:0:0:
64,192,37355,128,0,37468:0:0:0:70:electronic04.wav
192,192,37355,128,0,37581:0:0:0:0:
448,192,37355,1,0,0:0:0:0:
64,192,37581,128,0,37693:0:0:0:0:
320,192,37581,1,0,0:0:0:0:
320,192,37693,128,0,37919:0:0:0:0:
64,192,37806,1,0,0:0:0:30:punchy snare 43.wav
192,192,37806,128,0,37919:0:0:0:0:
448,192,37806,1,0,0:0:0:0:
320,192,38032,128,0,38144:0:0:0:0:
448,192,38032,128,0,38370:0:0:0:0:
64,192,38257,1,0,0:0:0:70:electronic04.wav
192,192,38257,1,0,0:0:0:0:
320,192,38257,1,0,0:0:0:0:
64,192,38483,128,0,38596:0:0:0:0:
448,192,38483,128,0,38596:0:0:0:0:
320,192,38596,128,0,38708:0:0:0:0:
64,192,38708,128,0,38821:0:0:0:30:punchy snare 43.wav
192,192,38708,128,0,38821:0:0:0:0:
448,192,38708,128,0,39047:0:0:0:0:
64,192,38934,128,0,39159:0:0:0:0:
192,192,39159,1,0,0:0:0:70:electronic04.wav
320,192,39159,1,0,0:0:0:0:
448,192,39159,1,0,0:0:0:0:
64,192,39385,128,0,39498:0:0:0:0:
448,192,39385,128,0,39949:0:0:0:0:
64,192,39611,1,0,0:0:0:30:punchy snare 43.wav
192,192,39611,128,0,39723:0:0:0:0:
320,192,39611,1,0,0:0:0:0:
320,192,39836,128,0,39949:0:0:0:0:
64,192,40062,128,0,40175:0:0:0:70:electronic04.wav
192,192,40062,1,0,0:0:0:50:cymbal05.wav
320,192,40062,1,0,0:0:0:0:
448,192,40062,128,0,40175:0:0:0:0:
64,192,40513,128,0,40851:0:0:0:30:punchy snare 43.wav
192,192,40513,1,0,0:0:0:0:
448,192,40513,128,0,40738:0:0:0:0:
192,192,40851,1,0,0:0:0:0:
320,192,40908,1,0,0:0:0:0:
64,192,40964,1,0,0:0:0:70:electronic04.wav
192,192,40964,128,0,41190:0:0:0:0:
448,192,40964,128,0,41077:0:0:0:0:
64,192,41190,128,0,41415:0:0:0:0:
320,192,41190,128,0,41302:0:0:0:0:
192,192,41415,128,0,41528:0:0:0:30:punchy snare 43.wav
320,192,41415,1,0,0:0:0:0:
448,192,41415,1,0,0:0:0:0:
64,192,41641,128,0,41753:0:0:0:0:
320,192,41641,128,0,42092:0:0:0:0:
64,192,41866,1,0,0:0:0:70:electronic04.wav
192,192,41866,1,0,0:0:0:0:
448,192,41866,1,0,0:0:0:0:
192,192,42092,128,0,42543:0:0:0:0:
448,192,42092,128,0,42205:0:0:0:0:
64,192,42317,1,0,0:0:0:30:punchy snare 43.wav
320,192,42317,1,0,0:0:0:0:
448,192,42317,128,0,42543:0:0:0:0:
64,192,42543,1,0,0:0:0:0:
320,192,42599,1,0,0:0:0:0:
192,192,42656,1,0,0:0:0:0:
448,192,42712,1,0,0:0:0:0:
64,192,42768,128,0,42994:0:0:0:70:electronic04.wav
192,192,42768,128,0,42881:0:0:0:0:
320,192,42768,1,0,0:0:0:0:
320,192,42994,128,0,43107:0:0:0:0:
448,192,42994,128,0,43220:0:0:0:0:
64,192,43220,128,0,43332:0:0:0:70:electronic04.wav
192,192,43220,1,0,0:0:0:30:punchy snare 43.wav
320,192,43220,1,0,0:0:0:0:
64,192,43445,1,0,0:0:0:30:punchy snare 43.wav
192,192,43445,1,0,0:0:0:0:
448,192,43445,128,0,43558:0:0:0:0:
192,192,43558,1,0,0:0:0:30:punchy snare 43.wav
320,192,43558,1,0,0:0:0:0:
64,192,43671,128,0,43896:0:0:0:70:electronic04.wav
320,192,43671,1,0,0:0:0:70:cymbal05.wav
448,192,43671,1,0,0:0:0:0:
192,192,43896,128,0,44122:0:0:0:0:
64,192,44122,1,0,0:0:0:50:TMKD_Snare3_14x6-Brass_hard_05.wav
320,192,44122,128,0,44347:0:0:0:0:
448,192,44347,1,0,0:0:0:0:
448,192,44460,128,0,44911:0:0:0:0:
64,192,44573,1,0,0:0:0:50:TMKD_Snare3_14x6-Brass_hard_05.wav
320,192,44799,128,0,44911:0:0:0:0:
64,192,45024,1,0,0:0:0:50:TMKD_Snare3_14x6-Brass_hard_05.wav
64,192,45250,1,0,0:0:0:50:TMKD_Snare3_14x6-Brass_hard_05.wav
448,192,45250,128,0,45475:0:0:0:0:
192,192,45362,1,0,0:0:0:50:TMKD_Snare3_14x6-Brass_hard_05.wav
64,192,45475,1,0,0:0:0:50:TMKD_Snare3_14x6-Brass_hard_05.wav
320,192,45475,128,0,45701:0:0:0:0:
192,192,45701,128,0,45926:0:0:0:50:TMKD_Snare3_14x6-Brass_hard_05.wav
448,192,45701,1,0,0:0:0:0:
320,192,45926,1,0,0:0:0:50:TMKD_Snare3_14x6-Brass_hard_05.wav
448,192,45926,128,0,46152:0:0:0:0:
64,192,46152,1,0,0:0:0:50:TMKD_Snare3_14x6-Brass_hard_05.wav
192,192,46152,1,0,0:0:0:0:
64,192,46265,128,0,46490:0:0:0:50:TMKD_Snare3_14x6-Brass_hard_05.wav
320,192,46265,1,0,0:0:0:0:
320,192,46490,1,0,0:0:0:50:TMKD_Snare3_14x6-Brass_hard_05.wav
64,192,46603,1,0,0:0:0:70:tom02.wav
192,192,46603,128,0,46716:0:0:0:0:
448,192,46716,1,0,0:0:0:70:tom02.wav
192,192,46829,1,0,0:0:0:70:tom03.wav
320,192,46829,128,0,46941:0:0:0:0:
64,192,46941,1,0,0:0:0:70:tom03.wav
320,192,47054,1,0,0:0:0:70:tom04.wav
448,192,47054,128,0,47167:0:0:0:0:
192,192,47167,1,0,0:0:0:70:tom04.wav
64,192,47280,128,0,47505:0:0:0:70:electronic04.wav
320,192,47280,128,0,47505:0:0:0:30:cymbal05short.wav
448,192,47280,128,0,47844:0:0:0:0:
64,192,47956,128,0,48069:0:0:0:70:electronic04.wav
320,192,47956,128,0,48182:0:0:0:30:cymbal05short.wav
448,192,47956,128,0,48182:0:0:0:0:
64,192,48182,128,0,48859:0:0:0:0:
192,192,48633,128,0,48859:0:0:0:70:electronic04.wav
320,192,48633,128,0,48859:0:0:0:30:cymbal05short.wav
448,192,48633,128,0,48859:0:0:0:0:
64,192,49310,128,0,49423:0:0:0:70:electronic04.wav
192,192,49310,128,0,49423:0:0:0:35:cymbal05short.wav
448,192,49310,128,0,49423:0:0:0:0:
64,192,49535,128,0,49987:0:0:0:70:electronic04.wav
192,192,49535,128,0,49874:0:0:0:50:cymbal05.wav
448,192,49535,128,0,49761:0:0:0:0:
448,192,50212,128,0,50438:0:0:0:0:
320,192,50438,128,0,50663:0:0:0:0:
192,192,50663,128,0,50889:0:0:0:0:
64,192,50889,128,0,51227:0:0:0:70:electronic04.wav
320,192,50889,1,0,0:0:0:70:cymbal05.wav
448,192,50889,1,0,0:0:0:0:
192,192,51114,1,0,0:0:0:0:
448,192,51227,128,0,51453:0:0:0:0:
64,192,51340,1,0,0:0:0:70:electronic04.wav
192,192,51340,1,0,0:0:0:0:
320,192,51340,1,0,0:0:0:0:
64,192,51565,128,0,51678:0:0:0:0:
320,192,51622,128,0,51735:0:0:0:0:
64,192,51791,1,0,0:0:0:70:electronic04.wav
192,192,51791,1,0,0:0:0:0:
448,192,51791,128,0,52129:0:0:0:0:
320,192,52017,1,0,0:0:0:0:
192,192,52129,128,0,52355:0:0:0:0:
64,192,52242,1,0,0:0:0:30:punchy snare 43.wav
320,192,52242,1,0,0:0:0:0:
448,192,52242,1,0,0:0:0:0:
192,192,52468,1,0,0:0:0:0:
448,192,52468,128,0,52581:0:0:0:0:
64,192,52693,128,0,52806:0:0:0:70:electronic04.wav
192,192,52693,1,0,0:0:0:0:
320,192,52693,1,0,0:0:0:0:
64,192,52919,128,0,53032:0:0:0:0:
320,192,52919,1,0,0:0:0:0:
64,192,53144,1,0,0:0:0:30:punchy snare 43.wav
192,192,53144,1,0,0:0:0:0:
448,192,53144,128,0,53257:0:0:0:0:
192,192,53370,128,0,53483:0:0:0:0:
448,192,53370,1,0,0:0:0:0:
448,192,53483,128,0,53708:0:0:0:0:
64,192,53596,1,0,0:0:0:70:electronic04.wav
192,192,53596,1,0,0:0:0:0:
320,192,53596,1,0,0:0:0:0:
64,192,53821,128,0,54047:0:0:0:0:
320,192,53821,1,0,0:0:0:0:
192,192,54047,1,0,0:0:0:30:punchy snare 43.wav
320,192,54047,1,0,0:0:0:0:
448,192,54047,1,0,0:0:0:0:
192,192,54272,128,0,54385:0:0:0:0:
448,192,54272,1,0,0:0:0:0:
64,192,54498,128,0,54611:0:0:0:70:electronic04.wav
192,192,54498,1,0,0:0:0:0:
448,192,54498,1,0,0:0:0:0:
64,192,54723,1,0,0:0:0:0:
320,192,54723,128,0,54836:0:0:0:0:
64,192,54836,128,0,54949:0:0:0:0:
192,192,54949,1,0,0:0:0:30:punchy snare 43.wav
320,192,54949,1,0,0:0:0:0:
448,192,54949,1,0,0:0:0:0:
64,192,55062,128,0,55175:0:0:0:0:
192,192,55175,128,0,55287:0:0:0:0:
320,192,55175,1,0,0:0:0:0:
448,192,55287,128,0,55400:0:0:0:0:
64,192,55400,1,0,0:0:0:70:electronic04.wav
192,192,55400,1,0,0:0:0:0:
320,192,55400,128,0,55513:0:0:0:0:
64,192,55626,128,0,55738:0:0:0:0:
320,192,55626,1,0,0:0:0:0:
320,192,55738,128,0,55851:0:0:0:0:
64,192,55851,1,0,0:0:0:30:punchy snare 43.wav
192,192,55851,1,0,0:0:0:0:
448,192,55851,1,0,0:0:0:0:
64,192,56077,1,0,0:0:0:0:
448,192,56077,128,0,56302:0:0:0:0:
64,192,56302,1,0,0:0:0:70:electronic04.wav
192,192,56302,128,0,56415:0:0:0:0:
320,192,56302,1,0,0:0:0:0:
192,192,56528,1,0,0:0:0:0:
448,192,56528,128,0,56641:0:0:0:0:
192,192,56641,128,0,56753:0:0:0:0:
64,192,56753,1,0,0:0:0:30:punchy snare 43.wav
320,192,56753,1,0,0:0:0:0:
448,192,56753,1,0,0:0:0:0:
192,192,56866,128,0,56979:0:0:0:0:
320,192,56979,128,0,57092:0:0:0:0:
448,192,56979,1,0,0:0:0:0:
64,192,57092,128,0,57205:0:0:0:0:
192,192,57205,1,0,0:0:0:70:electronic04.wav
320,192,57205,128,0,57317:0:0:0:0:
448,192,57205,1,0,0:0:0:0:
64,192,57317,1,0,0:0:0:30:punchy snare 43.wav
448,192,57317,128,0,57430:0:0:0:0:
192,192,57430,128,0,57543:0:0:0:0:
320,192,57543,128,0,57656:0:0:0:0:
64,192,57656,128,0,57768:0:0:0:30:punchy snare 43.wav
192,192,57656,1,0,0:0:0:0:
448,192,57656,1,0,0:0:0:0:
320,192,57768,128,0,57881:0:0:0:0:
192,192,57881,128,0,57994:0:0:0:0:
64,192,57994,1,0,0:0:0:30:punchy snare 43.wav
448,192,57994,128,0,58107:0:0:0:0:
64,192,58107,1,0,0:0:0:70:electronic04.wav
192,192,58107,128,0,58445:0:0:0:70:cymbal05.wav
320,192,58107,1,0,0:0:0:0:
320,192,58332,1,0,0:0:0:0:
64,192,58445,128,0,58671:0:0:0:0:
192,192,58558,1,0,0:0:0:30:punchy snare 43.wav
320,192,58558,1,0,0:0:0:0:
448,192,58558,1,0,0:0:0:0:
192,192,58784,1,0,0:0:0:0:
448,192,58784,128,0,58896:0:0:0:0:
64,192,59009,1,0,0:0:0:70:electronic04.wav
192,192,59009,128,0,59347:0:0:0:0:
320,192,59009,1,0,0:0:0:0:
64,192,59235,1,0,0:0:0:0:
320,192,59347,128,0,59573:0:0:0:0:
64,192,59460,1,0,0:0:0:30:punchy snare 43.wav
192,192,59460,1,0,0:0:0:0:
448,192,59460,1,0,0:0:0:0:
192,192,59686,128,0,59799:0:0:0:0:
448,192,59686,1,0,0:0:0:0:
64,192,59911,128,0,60024:0:0:0:70:electronic04.wav
320,192,59911,1,0,0:0:0:0:
448,192,59911,1,0,0:0:0:0:
64,192,60137,128,0,60250:0:0:0:0:
320,192,60137,1,0,0:0:0:0:
192,192,60362,1,0,0:0:0:30:punchy snare 43.wav
320,192,60362,1,0,0:0:0:0:
448,192,60362,128,0,60475:0:0:0:0:
192,192,60588,128,0,60701:0:0:0:0:
448,192,60588,1,0,0:0:0:0:
448,192,60701,128,0,60926:0:0:0:0:
64,192,60814,1,0,0:0:0:70:electronic04.wav
192,192,60814,1,0,0:0:0:0:
320,192,60814,1,0,0:0:0:0:
64,192,61039,1,0,0:0:0:30:punchy snare 43.wav
320,192,61039,128,0,61265:0:0:0:0:
448,192,61039,1,0,0:0:0:0:
64,192,61265,1,0,0:0:0:50:punchy snare 43.wav
192,192,61265,1,0,0:0:0:0:
448,192,61265,1,0,0:0:0:0:
192,192,61490,128,0,61603:0:0:0:0:
448,192,61490,1,0,0:0:0:0:
64,192,61716,1,0,0:0:0:70:electronic04.wav
192,192,61716,1,0,0:0:0:0:
320,192,61716,128,0,61829:0:0:0:0:
64,192,61941,128,0,62054:0:0:0:0:
320,192,61941,1,0,0:0:0:0:
192,192,62167,1,0,0:0:0:30:punchy snare 43.wav
320,192,62167,1,0,0:0:0:0:
448,192,62167,128,0,62280:0:0:0:0:
192,192,62280,128,0,62393:0:0:0:0:
448,192,62393,1,0,0:0:0:0:
64,192,62505,128,0,62731:0:0:0:0:
192,192,62618,1,0,0:0:0:70:electronic04.wav
320,192,62618,1,0,0:0:0:0:
448,192,62618,1,0,0:0:0:0:
192,192,62844,128,0,63069:0:0:0:0:
320,192,62844,1,0,0:0:0:0:
64,192,63069,1,0,0:0:0:30:punchy snare 43.wav
320,192,63069,128,0,63295:0:0:0:0:
448,192,63069,1,0,0:0:0:0:
192,192,63295,1,0,0:0:0:0:
448,192,63295,128,0,63520:0:0:0:0:
64,192,63520,128,0,64197:0:0:0:70:electronic04.wav
192,192,63520,1,0,0:0:0:0:
320,192,63520,1,0,0:0:0:0:
320,192,63746,1,0,0:0:0:30:punchy snare 43.wav
448,192,63746,128,0,63859:0:0:0:0:
192,192,63971,128,0,64084:0:0:0:30:punchy snare 43.wav
448,192,63971,1,0,0:0:0:0:
320,192,64197,128,0,64310:0:0:0:30:punchy snare 43.wav
448,192,64197,1,0,0:0:0:0:
64,192,64310,1,0,0:0:0:70:electronic04.wav
192,192,64310,1,0,0:0:0:0:
448,192,64310,1,0,0:0:0:0:
320,192,64423,128,0,64535:0:0:0:70:nevertom.wav
64,192,64535,1,0,0:0:0:30:punchy snare 43.wav
192,192,64535,128,0,64648:0:0:0:70:nevertom.wav
448,192,64648,128,0,64761:0:0:0:0:
64,192,64761,1,0,0:0:0:70:electronic04.wav
192,192,64761,1,0,0:0:0:0:
320,192,64761,128,0,64874:0:0:0:0:
64,192,64874,128,0,64987:0:0:0:30:punchy snare 43.wav
448,192,64874,1,0,0:0:0:70:nevertom.wav
320,192,64987,128,0,65099:0:0:0:0:
64,192,65099,1,0,0:0:0:30:punchy snare 43.wav
192,192,65099,128,0,65212:0:0:0:70:nevertom.wav
448,192,65212,128,0,65325:0:0:0:70:nevertom.wav
64,192,65325,1,0,0:0:0:70:electronic04.wav
192,192,65325,128,0,65663:0:0:0:70:cymbal05.wav
320,192,65325,1,0,0:0:0:0:
320,192,65550,1,0,0:0:0:0:
64,192,65663,128,0,65889:0:0:0:0:
192,192,65776,1,0,0:0:0:70:electronic04.wav
320,192,65776,1,0,0:0:0:0:
448,192,65776,1,0,0:0:0:0:
192,192,66002,1,0,0:0:0:0:
448,192,66002,128,0,66114:0:0:0:0:
64,192,66227,1,0,0:0:0:70:electronic04.wav
320,192,66227,128,0,66340:0:0:0:0:
448,192,66227,1,0,0:0:0:0:
64,192,66453,128,0,66565:0:0:0:0:
320,192,66453,1,0,0:0:0:0:
320,192,66565,128,0,66791:0:0:0:0:
64,192,66678,1,0,0:0:0:30:punchy snare 43.wav
192,192,66678,1,0,0:0:0:0:
448,192,66678,1,0,0:0:0:0:
192,192,66904,1,0,0:0:0:0:
448,192,66904,128,0,67017:0:0:0:0:
64,192,67129,128,0,67242:0:0:0:70:electronic04.wav
192,192,67129,1,0,0:0:0:0:
320,192,67129,1,0,0:0:0:0:
64,192,67355,128,0,67468:0:0:0:0:
320,192,67355,1,0,0:0:0:0:
64,192,67581,1,0,0:0:0:30:punchy snare 43.wav
192,192,67581,128,0,67693:0:0:0:0:
448,192,67581,1,0,0:0:0:0:
192,192,67806,1,0,0:0:0:0:
448,192,67806,128,0,67919:0:0:0:0:
192,192,67919,128,0,68144:0:0:0:0:
64,192,68032,1,0,0:0:0:70:electronic04.wav
320,192,68032,1,0,0:0:0:0:
448,192,68032,1,0,0:0:0:0:
64,192,68257,1,0,0:0:0:0:
320,192,68257,128,0,68483:0:0:0:0:
64,192,68483,1,0,0:0:0:30:punchy snare 43.wav
192,192,68483,1,0,0:0:0:0:
448,192,68483,1,0,0:0:0:0:
192,192,68708,1,0,0:0:0:0:
320,192,68708,128,0,68821:0:0:0:0:
64,192,68934,1,0,0:0:0:70:electronic04.wav
320,192,68934,1,0,0:0:0:0:
448,192,68934,128,0,69047:0:0:0:0:
192,192,69159,128,0,69272:0:0:0:0:
448,192,69159,1,0,0:0:0:0:
448,192,69272,128,0,69385:0:0:0:0:
64,192,69385,1,0,0:0:0:30:punchy snare 43.wav
192,192,69385,1,0,0:0:0:0:
320,192,69385,1,0,0:0:0:0:
448,192,69498,128,0,69611:0:0:0:0:
64,192,69611,1,0,0:0:0:0:
192,192,69611,128,0,69723:0:0:0:0:
320,192,69723,128,0,69836:0:0:0:0:
64,192,69836,128,0,69949:0:0:0:70:electronic04.wav
192,192,69836,1,0,0:0:0:0:
448,192,69836,1,0,0:0:0:0:
64,192,70062,1,0,0:0:0:0:
320,192,70062,128,0,70175:0:0:0:0:
64,192,70175,128,0,70287:0:0:0:0:
192,192,70287,1,0,0:0:0:30:punchy snare 43.wav
320,192,70287,1,0,0:0:0:0:
448,192,70287,1,0,0:0:0:0:
192,192,70513,128,0,70738:0:0:0:0:
448,192,70513,1,0,0:0:0:0:
64,192,70738,1,0,0:0:0:70:electronic04.wav
320,192,70738,128,0,70851:0:0:0:0:
448,192,70738,1,0,0:0:0:0:
64,192,70964,128,0,71077:0:0:0:30:punchy snare 43.wav
320,192,70964,1,0,0:0:0:0:
320,192,71077,128,0,71190:0:0:0:0:
64,192,71190,1,0,0:0:0:70:electronic04.wav
192,192,71190,1,0,0:0:0:0:
448,192,71190,1,0,0:0:0:0:
320,192,71302,128,0,71415:0:0:0:0:
64,192,71415,1,0,0:0:0:30:punchy snare 43.wav
192,192,71415,128,0,71528:0:0:0:0:
448,192,71528,128,0,71641:0:0:0:0:
64,192,71641,128,0,71866:0:0:0:70:electronic04.wav
192,192,71641,128,0,71753:0:0:0:0:
320,192,71641,1,0,0:0:0:0:
448,192,71753,128,0,71866:0:0:0:0:
192,192,71866,1,0,0:0:0:30:punchy snare 43.wav
320,192,71866,128,0,71979:0:0:0:0:
64,192,71979,128,0,72092:0:0:0:0:
192,192,72092,1,0,0:0:0:70:electronic04.wav
320,192,72092,128,0,72205:0:0:0:0:
448,192,72092,1,0,0:0:0:0:
64,192,72205,128,0,72317:0:0:0:0:
320,192,72317,1,0,0:0:0:30:punchy snare 43.wav
448,192,72317,128,0,72430:0:0:0:0:
192,192,72430,128,0,72543:0:0:0:0:
64,192,72543,1,0,0:0:0:70:electronic04.wav
320,192,72543,1,0,0:0:0:70:cymbal05.wav
448,192,72543,128,0,72881:0:0:0:0:
64,192,72768,1,0,0:0:0:0:
320,192,72881,128,0,73107:0:0:0:0:
64,192,72994,1,0,0:0:0:30:punchy snare 43.wav
192,192,72994,1,0,0:0:0:0:
448,192,72994,1,0,0:0:0:0:
192,192,73220,128,0,73332:0:0:0:0:
448,192,73220,1,0,0:0:0:0:
64,192,73445,128,0,73558:0:0:0:70:electronic04.wav
320,192,73445,1,0,0:0:0:0:
448,192,73445,1,0,0:0:0:0:
64,192,73671,1,0,0:0:0:0:
320,192,73671,128,0,73784:0:0:0:0:
64,192,73784,128,0,74009:0:0:0:0:
192,192,73896,1,0,0:0:0:30:punchy snare 43.wav
320,192,73896,1,0,0:0:0:0:
448,192,73896,1,0,0:0:0:0:
192,192,74122,1,0,0:0:0:0:
448,192,74122,128,0,74235:0:0:0:0:
64,192,74347,128,0,74460:0:0:0:70:electronic04.wav
192,192,74347,1,0,0:0:0:0:
320,192,74347,1,0,0:0:0:0:
64,192,74573,128,0,74686:0:0:0:0:
320,192,74573,1,0,0:0:0:0:
192,192,74799,1,0,0:0:0:30:punchy snare 43.wav
320,192,74799,1,0,0:0:0:0:
448,192,74799,128,0,74911:0:0:0:0:
192,192,75024,128,0,75137:0:0:0:0:
448,192,75024,1,0,0:0:0:0:
448,192,75137,128,0,75362:0:0:0:0:
64,192,75250,1,0,0:0:0:70:electronic04.wav
192,192,75250,1,0,0:0:0:0:
320,192,75250,1,0,0:0:0:0:
64,192,75475,128,0,75701:0:0:0:30:punchy snare 43.wav
320,192,75475,1,0,0:0:0:0:
448,192,75475,1,0,0:0:0:0:
192,192,75701,1,0,0:0:0:30:punchy snare 43.wav
320,192,75701,1,0,0:0:0:0:
448,192,75701,1,0,0:0:0:0:
192,192,75926,1,0,0:0:0:0:
448,192,75926,128,0,76152:0:0:0:0:
64,192,76152,1,0,0:0:0:70:electronic04.wav
192,192,76152,128,0,76378:0:0:0:0:
320,192,76152,1,0,0:0:0:0:
64,192,76378,1,0,0:0:0:0:
320,192,76378,128,0,76603:0:0:0:0:
64,192,76603,1,0,0:0:0:30:punchy snare 43.wav
192,192,76603,1,0,0:0:0:0:
448,192,76603,128,0,76716:0:0:0:0:
192,192,76716,128,0,76829:0:0:0:0:
448,192,76829,1,0,0:0:0:0:
64,192,76941,128,0,77167:0:0:0:0:
192,192,77054,1,0,0:0:0:70:electronic04.wav
320,192,77054,1,0,0:0:0:0:
448,192,77054,1,0,0:0:0:0:
64,192,77280,1,0,0:0:0:0:
320,192,77280,128,0,77505:0:0:0:0:
64,192,77505,1,0,0:0:0:30:punchy snare 43.wav
192,192,77505,128,0,77731:0:0:0:0:
448,192,77505,1,0,0:0:0:0:
320,192,77731,1,0,0:0:0:0:
448,192,77731,128,0,77956:0:0:0:0:
64,192,77956,128,0,78746:0:0:0:70:electronic04.wav
192,192,77956,1,0,0:0:0:0:
320,192,77956,1,0,0:0:0:0:
192,192,78069,1,0,0:0:0:70:TMKD_Snare3_14x6-Brass_hard_05.wav
448,192,78182,1,0,0:0:0:50:tom04.wav
192,192,78408,1,0,0:0:0:70:electronic04.wav
320,192,78408,1,0,0:0:0:30:punchy snare 43.wav
448,192,78408,1,0,0:0:0:0:
320,192,78520,1,0,0:0:0:50:tom03.wav
192,192,78633,1,0,0:0:0:50:tom02.wav
320,192,78746,1,0,0:0:0:30:punchy snare 43.wav
448,192,78746,1,0,0:0:0:50:tom01.wav
64,192,78859,128,0,79197:0:0:0:70:electronic04.wav
192,192,78859,128,0,79197:0:0:0:70:cymbal05.wav
448,192,78859,128,0,79197:0:0:0:0:
64,192,79310,128,0,79648:0:0:0:70:electronic04.wav
320,192,79310,128,0,79648:0:0:0:70:cymbal05.wav
448,192,79310,128,0,79648:0:0:0:0:
192,192,79535,128,0,79648:0:0:0:0:
192,192,79761,128,0,80550:0:0:0:70:electronic04.wav
320,192,79761,128,0,81227:0:0:0:70:cymbal05.wav
448,192,79761,128,0,79987:0:0:0:0:
448,192,80099,128,0,80325:0:0:0:0:
64,192,80438,128,0,80550:0:0:0:0:
448,192,80550,128,0,80663:0:0:0:0:
64,192,80663,128,0,81453:0:0:0:0:
192,192,80663,128,0,80889:0:0:0:0:
192,192,81002,128,0,81453:0:0:0:0:
320,192,81340,128,0,81453:0:0:0:0:
192,192,81565,128,0,81791:0:0:0:70:electronic04.wav
320,192,81565,128,0,81791:0:0:0:30:punchy snare 43.wav
448,192,81565,128,0,81791:0:0:0:30:cymbal05short.wav
64,192,81904,128,0,82129:0:0:0:70:electronic04.wav
192,192,81904,128,0,82129:0:0:0:30:punchy snare 43.wav
448,192,81904,128,0,82129:0:0:0:30:cymbal05short.wav
64,192,82242,128,0,82355:0:0:0:70:electronic04.wav
320,192,82242,128,0,82355:0:0:0:30:punchy snare 43.wav
448,192,82242,128,0,82355:0:0:0:30:cymbal05short.wav
64,192,82468,128,0,82693:0:0:0:70:electronic04.wav
192,192,82468,128,0,82693:0:0:0:30:punchy snare 43.wav
320,192,82468,128,0,82693:0:0:0:30:cymbal05short.wav
320,192,82919,1,0,0:0:0:0:
448,192,82975,1,0,0:0:0:0:
192,192,83032,1,0,0:0:0:0:
320,192,83088,1,0,0:0:0:0:
64,192,83144,1,0,0:0:0:0:
192,192,83201,1,0,0:0:0:0:
320,192,83257,1,0,0:0:0:0:
64,192,83370,1,0,0:0:0:70:electronic04.wav
192,192,83370,1,0,0:0:0:70:cymbal05.wav
448,192,83370,128,0,83596:0:0:0:0:
64,192,83520,128,0,83596:0:0:0:0:
192,192,83596,128,0,83671:0:0:0:0:
320,192,83596,1,0,0:0:0:0:
192,192,83746,128,0,83821:0:0:0:0:
64,192,83821,1,0,0:0:0:30:punchy snare 43.wav
320,192,83821,1,0,0:0:0:0:
448,192,83821,1,0,0:0:0:0:
448,192,83971,128,0,84047:0:0:0:0:
192,192,84047,1,0,0:0:0:0:
320,192,84047,128,0,84122:0:0:0:0:
320,192,84197,128,0,84272:0:0:0:0:
64,192,84272,1,0,0:0:0:70:electronic04.wav
192,192,84272,1,0,0:0:0:0:
448,192,84272,1,0,0:0:0:0:
192,192,84423,128,0,84498:0:0:0:0:
320,192,84498,128,0,84573:0:0:0:0:
64,192,84723,1,0,0:0:0:30:punchy snare 43.wav
192,192,84723,1,0,0:0:0:0:
448,192,84723,128,0,84949:0:0:0:0:
64,192,84949,1,0,0:0:0:0:
320,192,84949,128,0,85175:0:0:0:0:
64,192,85175,1,0,0:0:0:70:electronic04.wav
192,192,85175,128,0,85626:0:0:0:0:
448,192,85175,1,0,0:0:0:0:
320,192,85400,1,0,0:0:0:0:
64,192,85626,128,0,86002:0:0:0:30:punchy snare 43.wav
320,192,85626,1,0,0:0:0:0:
448,192,85626,1,0,0:0:0:0:
448,192,85851,1,0,0:0:0:0:
192,192,86002,128,0,86077:0:0:0:0:
64,192,86077,1,0,0:0:0:70:electronic04.wav
320,192,86077,128,0,86152:0:0:0:0:
448,192,86077,1,0,0:0:0:0:
192,192,86227,128,0,86302:0:0:0:0:
320,192,86302,1,0,0:0:0:0:
448,192,86453,128,0,86753:0:0:0:0:
64,192,86528,1,0,0:0:0:30:punchy snare 43.wav
192,192,86528,1,0,0:0:0:0:
320,192,86528,1,0,0:0:0:0:
64,192,86753,1,0,0:0:0:0:
320,192,86753,128,0,86979:0:0:0:0:
64,192,86979,128,0,87129:0:0:0:70:electronic04.wav
192,192,86979,1,0,0:0:0:0:
448,192,86979,1,0,0:0:0:0:
192,192,87205,128,0,87280:0:0:0:0:
448,192,87205,1,0,0:0:0:0:
64,192,87430,1,0,0:0:0:30:punchy snare 43.wav
320,192,87430,1,0,0:0:0:0:
448,192,87430,128,0,87505:0:0:0:0:
64,192,87656,1,0,0:0:0:0:
320,192,87656,128,0,87731:0:0:0:0:
192,192,87881,128,0,87956:0:0:0:70:electronic04.wav
320,192,87881,1,0,0:0:0:0:
448,192,87881,1,0,0:0:0:0:
64,192,88107,1,0,0:0:0:0:
448,192,88107,128,0,88182:0:0:0:0:
320,192,88257,128,0,88332:0:0:0:0:
64,192,88332,1,0,0:0:0:30:punchy snare 43.wav
192,192,88332,1,0,0:0:0:0:
448,192,88332,1,0,0:0:0:0:
192,192,88483,128,0,88558:0:0:0:0:
64,192,88558,128,0,88633:0:0:0:0:
320,192,88558,1,0,0:0:0:0:
64,192,88784,1,0,0:0:0:70:electronic04.wav
192,192,88784,1,0,0:0:0:0:
448,192,88784,128,0,88859:0:0:0:0:
320,192,88859,128,0,89235:0:0:0:0:
192,192,89009,1,0,0:0:0:0:
64,192,89235,1,0,0:0:0:30:punchy snare 43.wav
192,192,89235,128,0,89611:0:0:0:70:cymbal05.wav
448,192,89235,1,0,0:0:0:0:
448,192,89460,1,0,0:0:0:0:
64,192,89611,128,0,89686:0:0:0:0:
192,192,89686,1,0,0:0:0:70:electronic04.wav
320,192,89686,128,0,89761:0:0:0:0:
448,192,89686,1,0,0:0:0:0:
64,192,89836,128,0,89911:0:0:0:0:
448,192,89911,128,0,89987:0:0:0:0:
192,192,90062,128,0,90137:0:0:0:0:
64,192,90137,1,0,0:0:0:30:punchy snare 43.wav
320,192,90137,1,0,0:0:0:70:cymbal05.wav
448,192,90137,1,0,0:0:0:0:
320,192,90287,128,0,90362:0:0:0:0:
64,192,90362,1,0,0:0:0:0:
448,192,90362,128,0,90513:0:0:0:0:
192,192,90513,128,0,90588:0:0:0:0:
64,192,90588,128,0,90814:0:0:0:70:electronic04.wav
320,192,90588,1,0,0:0:0:0:
448,192,90588,1,0,0:0:0:0:
448,192,90738,128,0,90814:0:0:0:0:
192,192,90814,1,0,0:0:0:0:
320,192,90814,128,0,90889:0:0:0:0:
320,192,90964,128,0,91039:0:0:0:0:
64,192,91039,1,0,0:0:0:30:punchy snare 43.wav
192,192,91039,1,0,0:0:0:70:cymbal05.wav
448,192,91039,1,0,0:0:0:0:
64,192,91190,128,0,91265:0:0:0:0:
192,192,91265,128,0,91340:0:0:0:0:
320,192,91265,1,0,0:0:0:0:
192,192,91415,128,0,91490:0:0:0:0:
64,192,91490,1,0,0:0:0:70:electronic04.wav
320,192,91490,1,0,0:0:0:0:
448,192,91490,1,0,0:0:0:0:
320,192,91641,128,0,91716:0:0:0:0:
192,192,91716,1,0,0:0:0:0:
64,192,91941,128,0,92167:0:0:0:30:punchy snare 43.wav
320,192,91941,1,0,0:0:0:0:
448,192,91941,1,0,0:0:0:0:
192,192,92167,128,0,92393:0:0:0:0:
448,192,92167,1,0,0:0:0:0:
64,192,92393,1,0,0:0:0:70:electronic04.wav
320,192,92393,128,0,92844:0:0:0:0:
448,192,92393,1,0,0:0:0:0:
192,192,92618,1,0,0:0:0:0:
64,192,92844,1,0,0:0:0:30:punchy snare 43.wav
192,192,92844,1,0,0:0:0:0:
448,192,92844,128,0,93220:0:0:0:0:
64,192,93069,1,0,0:0:0:0:
320,192,93220,128,0,93295:0:0:0:0:
64,192,93295,1,0,0:0:0:70:electronic04.wav
192,192,93295,128,0,93370:0:0:0:0:
448,192,93295,1,0,0:0:0:0:
320,192,93445,128,0,93520:0:0:0:0:
192,192,93520,1,0,0:0:0:0:
64,192,93671,128,0,93971:0:0:0:0:
192,192,93746,1,0,0:0:0:30:punchy snare 43.wav
320,192,93746,1,0,0:0:0:0:
448,192,93746,1,0,0:0:0:0:
192,192,93971,128,0,94197:0:0:0:0:
448,192,93971,1,0,0:0:0:0:
64,192,94197,1,0,0:0:0:70:electronic04.wav
320,192,94197,1,0,0:0:0:0:
448,192,94197,128,0,94347:0:0:0:0:
64,192,94423,1,0,0:0:0:0:
320,192,94423,128,0,94498:0:0:0:0:
64,192,94648,128,0,94723:0:0:0:30:punchy snare 43.wav
192,192,94648,1,0,0:0:0:0:
448,192,94648,1,0,0:0:0:0:
192,192,94874,1,0,0:0:0:0:
448,192,94874,128,0,94949:0:0:0:0:
192,192,95099,128,0,95175:0:0:0:70:electronic04.wav
320,192,95099,1,0,0:0:0:0:
448,192,95099,1,0,0:0:0:0:
64,192,95175,128,0,95550:0:0:0:0:
320,192,95325,1,0,0:0:0:0:
192,192,95550,1,0,0:0:0:30:punchy snare 43.wav
320,192,95550,1,0,0:0:0:0:
448,192,95550,128,0,96002:0:0:0:0:
192,192,95776,1,0,0:0:0:0:
192,192,96002,1,0,0:0:0:30:punchy snare 43.wav
320,192,96002,1,0,0:0:0:0:
192,192,96340,1,0,0:0:0:30:punchy snare 43.wav
320,192,96340,1,0,0:0:0:0:
192,192,96678,1,0,0:0:0:30:punchy snare 43.wav
320,192,96678,1,0,0:0:0:0:
192,192,97017,1,0,0:0:0:30:punchy snare 43.wav
320,192,97017,1,0,0:0:0:0:
64,192,97242,1,0,0:0:0:70:electronic04.wav
192,192,97242,1,0,0:0:0:0:
320,192,97242,1,0,0:0:0:0:
64,192,97355,1,0,0:0:0:30:punchy snare 43.wav
448,192,97355,1,0,0:0:0:0:
192,192,97468,1,0,0:0:0:30:punchy snare 43.wav
320,192,97468,1,0,0:0:0:0:
320,192,97581,1,0,0:0:0:30:punchy snare 43.wav
448,192,97581,1,0,0:0:0:0:
64,192,97693,1,0,0:0:0:30:punchy snare 43.wav
192,192,97693,1,0,0:0:0:0:
