osu file format v14

[General]
AudioFilename: audio.mp3
AudioLeadIn: 0
PreviewTime: 41990
Countdown: 0
SampleSet: Normal
StackLeniency: 0.7
Mode: 1
LetterboxInBreaks: 0
WidescreenStoryboard: 0

[Editor]
DistanceSpacing: 1.1
BeatDivisor: 4
GridSize: 32
TimelineZoom: 3.499998

[Metadata]
Title:Neunt Praeludium (yzrin Edit)
TitleUnicode:Neunt Praeludium (yzrin Edit)
Artist:Hitotsuyanagi-tai
ArtistUnicode:一柳隊
Creator:Ideal
Version:Last Bullet
Source:アサルトリリィ BOUQUET
Tags:hardcore bootleg yuzurin yuzu__rinrin frenchcore electronic japanese assault lily asaruto riri anime lilycore remix 一柳梨璃 白井夢結 赤尾ひかる 夏吉ゆうこ Hitotsuyanagi Riri Shirai Yuyu Akao Hikaru Natsuyoshi Yuuko Kaede Johan Nouvel 楓・J・ヌーベル Izawa Mikako 井澤 美香子 Kuo Shenlin 郭神琳 Hoshimori Sana 星守 紗凪 Wang Yujia 王雨嘉 Tono Hikaru 遠野ひかる Futagawa Fumi 二川二水 Nishimoto Rimi 西本りみ Miriam Hildegard von Gropius ミリアム・ヒルデガルド・v・グロピウス Takahashi Karin 高橋花林 Yoshimura Thi Mai 吉村・Thi・梅 Iwata Haruki 岩田陽葵 Ando Tazusa 安藤鶴紗 Tsumugi Risa 紡木吏佐
BeatmapID:3615285
BeatmapSetID:1766179

[Difficulty]
HPDrainRate:6
CircleSize:5
OverallDifficulty:8
ApproachRate:5
SliderMultiplier:1.4
SliderTickRate:1

[Events]
//Background and Video events
0,0,"86725348_p0_master1200.jpg",0,100
//Break Periods
//Storyboard Layer 0 (Background)
//Storyboard Layer 1 (Fail)
//Storyboard Layer 2 (Pass)
//Storyboard Layer 3 (Foreground)
//Storyboard Layer 4 (Overlay)
//Storyboard Sound Samples

[TimingPoints]
1738,517.241379310345,4,1,0,65,1,0
7427,-100,4,1,0,75,0,0
7944,250,4,1,0,85,1,8
7990,250,4,1,0,85,1,0
16240,-111.111111111111,4,1,0,75,0,0
23240,-108.108108108108,4,1,0,85,0,0
23490,-105.263157894737,4,1,0,85,0,0
23740,-102.564102564103,4,1,0,85,0,0
23990,-100,4,1,0,85,0,0
27969,-95.2380952380952,4,1,0,85,0,0
28073,-100,4,1,0,85,0,0
28448,-95.2380952380952,4,1,0,85,0,0
28531,-100,4,1,0,85,0,0
28969,-95.2380952380952,4,1,0,85,0,0
29469,-100,4,1,0,85,0,0
29969,-95.2380952380952,4,1,0,85,0,0
31094,-100,4,1,0,85,0,0
31156,-95.2380952380952,4,1,0,85,0,0
31281,-100,4,1,0,85,0,0
31344,-95.2380952380952,4,1,0,85,0,0
31469,-100,4,1,0,85,0,0
31719,-95.2380952380952,4,1,0,85,0,0
31990,-90.9090909090909,4,1,0,85,0,0
32010,-93.0232558139535,4,1,0,85,0,0
32052,-95.2380952380952,4,1,0,85,0,0
32094,-97.5609756097561,4,1,0,85,0,0
32177,-90.9090909090909,4,1,0,85,0,0
32197,-93.0232558139535,4,1,0,85,0,0
32239,-95.2380952380952,4,1,0,85,0,0
32281,-97.5609756097561,4,1,0,85,0,0
32344,-100,4,1,0,85,0,0
32490,-102.564102564103,4,1,0,85,0,0
32531,-105.263157894737,4,1,0,85,0,0
32573,-108.108108108108,4,1,0,85,0,0
32760,-97.0873786407767,4,1,0,85,0,0
32802,-95.2380952380952,4,1,0,85,0,0
32844,-92.5925925925926,4,1,0,85,0,0
32990,-90.9090909090909,4,1,0,85,0,0
33010,-93.0232558139535,4,1,0,85,0,0
33052,-95.2380952380952,4,1,0,85,0,0
33094,-97.5609756097561,4,1,0,85,0,0
33177,-90.9090909090909,4,1,0,85,0,0
33197,-93.0232558139535,4,1,0,85,0,0
33239,-95.2380952380952,4,1,0,85,0,0
33281,-97.5609756097561,4,1,0,85,0,0
33344,-100,4,1,0,85,0,0
33469,-102.040816326531,4,1,0,85,0,0
33531,-104.166666666667,4,1,0,85,0,0
33594,-106.382978723404,4,1,0,85,0,0
33656,-108.695652173913,4,1,0,85,0,0
33719,-111.111111111111,4,1,0,85,0,0
33844,-105.263157894737,4,1,0,85,0,0
33969,-100,4,1,0,85,0,0
35990,-90.9090909090909,4,1,0,85,0,0
36010,-93.0232558139535,4,1,0,85,0,0
36052,-95.2380952380952,4,1,0,85,0,0
36094,-97.5609756097561,4,1,0,85,0,0
36177,-90.9090909090909,4,1,0,85,0,0
36197,-93.0232558139535,4,1,0,85,0,0
36239,-95.2380952380952,4,1,0,85,0,0
36281,-97.5609756097561,4,1,0,85,0,0
36344,-100,4,1,0,85,0,0
36490,-102.564102564103,4,1,0,85,0,0
36531,-105.263157894737,4,1,0,85,0,0
36573,-108.108108108108,4,1,0,85,0,0
36760,-97.0873786407767,4,1,0,85,0,0
36802,-95.2380952380952,4,1,0,85,0,0
36844,-92.5925925925926,4,1,0,85,0,0
36990,-90.9090909090909,4,1,0,85,0,0
37010,-93.0232558139535,4,1,0,85,0,0
37052,-95.2380952380952,4,1,0,85,0,0
37094,-97.5609756097561,4,1,0,85,0,0
37177,-90.9090909090909,4,1,0,85,0,0
37197,-93.0232558139535,4,1,0,85,0,0
37239,-95.2380952380952,4,1,0,85,0,0
37281,-97.5609756097561,4,1,0,85,0,0
37344,-100,4,1,0,85,0,0
37469,-102.040816326531,4,1,0,85,0,0
37531,-104.166666666667,4,1,0,85,0,0
37594,-106.382978723404,4,1,0,85,0,0
37656,-108.695652173913,4,1,0,85,0,0
37719,-111.111111111111,4,1,0,85,0,0
37844,-105.263157894737,4,1,0,85,0,0
37969,-100,4,1,0,85,0,0
39969,-95.2380952380952,4,1,0,85,0,0
41469,-100,4,1,0,85,0,0
41719,-95.2380952380952,4,1,0,85,0,0
41990,-90.9090909090909,4,1,0,90,0,1
48990,-90.9090909090909,4,1,0,90,0,0
49469,-100,4,1,0,85,0,0
49719,-90.9090909090909,4,1,0,90,0,0
49990,-90.9090909090909,4,1,0,90,0,1
53969,-86.9565217391304,4,1,0,90,0,1
54094,-90.9090909090909,4,1,0,90,0,1
54969,-86.9565217391304,4,1,0,90,0,1
55094,-90.9090909090909,4,1,0,90,0,1
55969,-86.9565217391304,4,1,0,90,0,1
56073,-90.9090909090909,4,1,0,90,0,1
57990,-100,4,1,0,90,0,0
58240,-90.9090909090909,4,1,0,90,0,1
58490,-100,4,1,0,90,0,0
58740,-90.9090909090909,4,1,0,90,0,1
58990,-90.9090909090909,4,1,0,90,0,0
59240,-90.9090909090909,4,1,0,90,0,1
59490,-83.3333333333333,4,1,0,90,0,0
59740,-83.3333333333333,4,1,0,90,0,1
59865,-90.9090909090909,4,1,0,90,0,1
59990,-100,4,1,0,85,0,0
74990,-95.2380952380952,4,1,0,85,0,0
75990,-100,4,1,0,85,0,0
79969,-95.2380952380952,4,1,0,85,0,0
80010,-100,4,1,0,85,0,0
80469,-95.2380952380952,4,1,0,85,0,0
80510,-100,4,1,0,85,0,0
80969,-95.2380952380952,4,1,0,85,0,0
81469,-100,4,1,0,85,0,0
81719,-95.2380952380952,4,1,0,85,0,0
83093,-100,4,1,0,85,0,0
83135,-95.2380952380952,4,1,0,85,0,0
83281,-100,4,1,0,85,0,0
83323,-95.2380952380952,4,1,0,85,0,0
83469,-100,4,1,0,85,0,0
83719,-95.2380952380952,4,1,0,85,0,0
83990,-90.9090909090909,4,1,0,85,0,0
84010,-93.0232558139535,4,1,0,85,0,0
84052,-95.2380952380952,4,1,0,85,0,0
84094,-97.5609756097561,4,1,0,85,0,0
84177,-90.9090909090909,4,1,0,85,0,0
84197,-93.0232558139535,4,1,0,85,0,0
84239,-95.2380952380952,4,1,0,85,0,0
84281,-97.5609756097561,4,1,0,85,0,0
84344,-100,4,1,0,85,0,0
84490,-102.564102564103,4,1,0,85,0,0
84531,-105.263157894737,4,1,0,85,0,0
84573,-108.108108108108,4,1,0,85,0,0
84760,-97.0873786407767,4,1,0,85,0,0
84802,-95.2380952380952,4,1,0,85,0,0
84844,-92.5925925925926,4,1,0,85,0,0
84990,-90.9090909090909,4,1,0,85,0,0
85010,-93.0232558139535,4,1,0,85,0,0
85052,-95.2380952380952,4,1,0,85,0,0
85094,-97.5609756097561,4,1,0,85,0,0
85177,-90.9090909090909,4,1,0,85,0,0
85197,-93.0232558139535,4,1,0,85,0,0
85239,-95.2380952380952,4,1,0,85,0,0
85281,-97.5609756097561,4,1,0,85,0,0
85344,-100,4,1,0,85,0,0
85469,-102.040816326531,4,1,0,85,0,0
85531,-104.166666666667,4,1,0,85,0,0
85594,-106.382978723404,4,1,0,85,0,0
85656,-108.695652173913,4,1,0,85,0,0
85719,-111.111111111111,4,1,0,85,0,0
85844,-105.263157894737,4,1,0,85,0,0
85969,-100,4,1,0,85,0,0
87990,-90.9090909090909,4,1,0,85,0,0
88010,-93.0232558139535,4,1,0,85,0,0
88052,-95.2380952380952,4,1,0,85,0,0
88094,-97.5609756097561,4,1,0,85,0,0
88177,-90.9090909090909,4,1,0,85,0,0
88197,-93.0232558139535,4,1,0,85,0,0
88239,-95.2380952380952,4,1,0,85,0,0
88281,-97.5609756097561,4,1,0,85,0,0
88344,-100,4,1,0,85,0,0
88490,-102.564102564103,4,1,0,85,0,0
88531,-105.263157894737,4,1,0,85,0,0
88573,-108.108108108108,4,1,0,85,0,0
88760,-97.0873786407767,4,1,0,85,0,0
88802,-95.2380952380952,4,1,0,85,0,0
88844,-92.5925925925926,4,1,0,85,0,0
88990,-90.9090909090909,4,1,0,85,0,0
89010,-93.0232558139535,4,1,0,85,0,0
89052,-95.2380952380952,4,1,0,85,0,0
89094,-97.5609756097561,4,1,0,85,0,0
89177,-90.9090909090909,4,1,0,85,0,0
89197,-93.0232558139535,4,1,0,85,0,0
89239,-95.2380952380952,4,1,0,85,0,0
89281,-97.5609756097561,4,1,0,85,0,0
89344,-100,4,1,0,85,0,0
89469,-102.040816326531,4,1,0,85,0,0
89531,-104.166666666667,4,1,0,85,0,0
89594,-106.382978723404,4,1,0,85,0,0
89656,-108.695652173913,4,1,0,85,0,0
89719,-111.111111111111,4,1,0,85,0,0
89844,-105.263157894737,4,1,0,85,0,0
89969,-100,4,1,0,85,0,0
92969,-83.3333333333333,4,1,0,85,0,0
93344,-84.3881856540084,4,1,0,85,0,0
93469,-85.4700854700855,4,1,0,85,0,0
93594,-86.5800865800866,4,1,0,85,0,0
93719,-88.4955752212389,4,1,0,85,0,0
93844,-89.6860986547085,4,1,0,85,0,0
93990,-90.9090909090909,4,1,0,90,0,1
100990,-90.9090909090909,4,1,0,90,0,0
101469,-100,4,1,0,85,0,0
101719,-90.9090909090909,4,1,0,90,0,0
101990,-90.9090909090909,4,1,0,90,0,1
105969,-86.9565217391304,4,1,0,90,0,1
106010,-90.9090909090909,4,1,0,90,0,1
106969,-86.9565217391304,4,1,0,90,0,1
107010,-90.9090909090909,4,1,0,90,0,1
107969,-86.9565217391304,4,1,0,90,0,1
108010,-90.9090909090909,4,1,0,90,0,1
109990,-100,4,1,0,90,0,0
110240,-90.9090909090909,4,1,0,90,0,1
110490,-100,4,1,0,90,0,0
110740,-90.9090909090909,4,1,0,90,0,1
110990,-90.9090909090909,4,1,0,90,0,0
111240,-90.9090909090909,4,1,0,90,0,1
111490,-83.3333333333333,4,1,0,90,0,0
111740,-83.3333333333333,4,1,0,90,0,1
111865,-90.9090909090909,4,1,0,90,0,1
111990,-89.6860986547085,4,1,0,85,0,0
112115,-88.4955752212389,4,1,0,85,0,0
112240,-87.3362445414847,4,1,0,85,0,0
112365,-86.2068965517241,4,1,0,85,0,0
112490,-85.1063829787234,4,1,0,85,0,0
112615,-84.0336134453781,4,1,0,85,0,0
112740,-82.9875518672199,4,1,0,85,0,0
112865,-81.9672131147541,4,1,0,85,0,0
112990,-80.9716599190283,4,1,0,85,0,0
113021,-50,4,1,0,85,0,0
113958,-66.6666666666667,4,1,0,85,0,0
115458,-83.3333333333333,4,1,0,85,0,0
117240,-76.9230769230769,4,1,0,85,0,0
117490,-71.4285714285714,4,1,0,85,0,0
117740,-66.6666666666667,4,1,0,85,0,0
117958,-83.3333333333333,4,1,0,85,0,0
121490,-84.7457627118644,4,1,0,85,0,0
121552,-86.2068965517241,4,1,0,85,0,0
121615,-87.719298245614,4,1,0,85,0,0
121677,-89.2857142857143,4,1,0,85,0,0
121740,-90.9090909090909,4,1,0,85,0,0
121958,-83.3333333333333,4,1,0,85,0,0
122208,-90.9090909090909,4,1,0,85,0,0
122333,-83.3333333333333,4,1,0,85,0,0
123583,-90.9090909090909,4,1,0,85,0,0
123708,-83.3333333333333,4,1,0,85,0,0
124208,-90.9090909090909,4,1,0,85,0,0
124302,-83.3333333333333,4,1,0,85,0,0
125583,-90.9090909090909,4,1,0,85,0,0
125708,-83.3333333333333,4,1,0,85,0,0
125958,-100,4,1,0,85,0,0
129990,500,4,1,0,65,1,0
129990,-50,4,1,0,65,0,0
130177,-51.2820512820513,4,1,0,65,0,0
130365,-52.6315789473684,4,1,0,65,0,0
130490,-54.054054054054,4,1,0,65,0,0
130740,-55.5555555555556,4,1,0,65,0,0
130990,-58.8235294117647,4,1,0,65,0,0
131427,-62.5,4,1,0,65,0,0
131990,-66.6666666666667,4,1,0,65,0,0
132177,-68.9655172413793,4,1,0,65,0,0
132365,-71.4285714285714,4,1,0,65,0,0
132490,-74.0740740740741,4,1,0,65,0,0
132677,-76.9230769230769,4,1,0,65,0,0
132927,-83.3333333333333,4,1,0,65,0,0
133490,-90.9090909090909,4,1,0,65,0,0
133990,250,4,1,0,85,1,0
133990,-90.9090909090909,4,1,0,85,0,0
134010,-93.0232558139535,4,1,0,85,0,0
134052,-95.2380952380952,4,1,0,85,0,0
134094,-97.5609756097561,4,1,0,85,0,0
134177,-90.9090909090909,4,1,0,85,0,0
134197,-93.0232558139535,4,1,0,85,0,0
134239,-95.2380952380952,4,1,0,85,0,0
134281,-97.5609756097561,4,1,0,85,0,0
134344,-100,4,1,0,85,0,0
134490,-102.564102564103,4,1,0,85,0,0
134531,-105.263157894737,4,1,0,85,0,0
134573,-108.108108108108,4,1,0,85,0,0
134760,-97.0873786407767,4,1,0,85,0,0
134802,-95.2380952380952,4,1,0,85,0,0
134844,-92.5925925925926,4,1,0,85,0,0
134990,-90.9090909090909,4,1,0,85,0,0
135010,-93.0232558139535,4,1,0,85,0,0
135052,-95.2380952380952,4,1,0,85,0,0
135094,-97.5609756097561,4,1,0,85,0,0
135177,-90.9090909090909,4,1,0,85,0,0
135197,-93.0232558139535,4,1,0,85,0,0
135239,-95.2380952380952,4,1,0,85,0,0
135281,-97.5609756097561,4,1,0,85,0,0
135344,-100,4,1,0,85,0,0
135469,-102.040816326531,4,1,0,85,0,0
135531,-104.166666666667,4,1,0,85,0,0
135594,-106.382978723404,4,1,0,85,0,0
135656,-108.695652173913,4,1,0,85,0,0
135719,-111.111111111111,4,1,0,85,0,0
135844,-105.263157894737,4,1,0,85,0,0
135969,-100,4,1,0,85,0,0
137990,-90.9090909090909,4,1,0,85,0,0
138010,-93.0232558139535,4,1,0,85,0,0
138052,-95.2380952380952,4,1,0,85,0,0
138094,-97.5609756097561,4,1,0,85,0,0
138177,-90.9090909090909,4,1,0,85,0,0
138197,-93.0232558139535,4,1,0,85,0,0
138239,-95.2380952380952,4,1,0,85,0,0
138281,-97.5609756097561,4,1,0,85,0,0
138344,-100,4,1,0,85,0,0
138490,-102.564102564103,4,1,0,85,0,0
138531,-105.263157894737,4,1,0,85,0,0
138573,-108.108108108108,4,1,0,85,0,0
138760,-97.0873786407767,4,1,0,85,0,0
138802,-95.2380952380952,4,1,0,85,0,0
138844,-92.5925925925926,4,1,0,85,0,0
138990,-90.9090909090909,4,1,0,85,0,0
139010,-93.0232558139535,4,1,0,85,0,0
139052,-95.2380952380952,4,1,0,85,0,0
139094,-97.5609756097561,4,1,0,85,0,0
139177,-90.9090909090909,4,1,0,85,0,0
139197,-93.0232558139535,4,1,0,85,0,0
139239,-95.2380952380952,4,1,0,85,0,0
139281,-97.5609756097561,4,1,0,85,0,0
139344,-100,4,1,0,85,0,0
139469,-102.040816326531,4,1,0,85,0,0
139531,-104.166666666667,4,1,0,85,0,0
139594,-106.382978723404,4,1,0,85,0,0
139656,-108.695652173913,4,1,0,85,0,0
139719,-111.111111111111,4,1,0,85,0,0
139844,-105.263157894737,4,1,0,85,0,0
139969,-100,4,1,0,85,0,0
141958,-95.2380952380952,4,1,0,85,0,0
142208,-100,4,1,0,85,0,0
142458,-95.2380952380952,4,1,0,85,0,0
142708,-100,4,1,0,85,0,0
142958,-95.2380952380952,4,1,0,85,0,0
143458,-100,4,1,0,85,0,0
143958,-66.6666666666667,4,1,0,85,0,0
144990,-111.111111111111,4,1,0,75,0,0
148958,-95.2380952380952,4,1,0,85,0,0
149490,-100,4,1,0,85,0,0
149740,-95.2380952380952,4,1,0,85,0,0
149865,-100,4,1,0,85,0,0
149990,-95.2380952380952,4,1,0,85,0,0
150490,-100,4,1,0,85,0,0
151958,-95.2380952380952,4,1,0,85,0,0
152083,-100,4,1,0,85,0,0
152146,-95.2380952380952,4,1,0,85,0,0
152271,-100,4,1,0,85,0,0
152333,-95.2380952380952,4,1,0,85,0,0
152490,-99.009900990099,4,1,0,85,0,0
152531,-98.0392156862745,4,1,0,85,0,0
152573,-97.0873786407767,4,1,0,85,0,0
152615,-96.1538461538461,4,1,0,85,0,0
152656,-95.2380952380952,4,1,0,85,0,0
152698,-94.3396226415094,4,1,0,85,0,0
152740,-93.4579439252336,4,1,0,85,0,0
152990,-90.9090909090909,4,1,0,90,0,1
156948,-86.9565217391304,4,1,0,90,0,1
157031,-90.9090909090909,4,1,0,90,0,1
157948,-86.9565217391304,4,1,0,90,0,1
158031,-90.9090909090909,4,1,0,90,0,1
158948,-86.9565217391304,4,1,0,90,0,1
159031,-90.9090909090909,4,1,0,90,0,1
160990,-100,4,1,0,90,0,0
161240,-90.9090909090909,4,1,0,90,0,1
161490,-100,4,1,0,90,0,0
161740,-90.9090909090909,4,1,0,90,0,1
161990,-90.9090909090909,4,1,0,90,0,0
162240,-90.9090909090909,4,1,0,90,0,1
162490,-83.3333333333333,4,1,0,90,0,0
162740,-83.3333333333333,4,1,0,90,0,1
162990,-83.3333333333333,4,1,0,90,0,0
163031,-66.6666666666667,4,1,0,90,0,0
163949,-83.3333333333333,4,1,0,90,0,0
164490,-83.3333333333333,4,1,0,85,0,0
164740,-83.3333333333333,4,1,0,90,0,0
164990,-100,4,1,0,85,0,0
170948,-95.2380952380952,4,1,0,85,0,0
171031,-100,4,1,0,85,0,0
171448,-95.2380952380952,4,1,0,85,0,0
171531,-100,4,1,0,85,0,0
171948,-95.2380952380952,4,1,0,85,0,0
172448,-100,4,1,0,85,0,0
172948,-95.2380952380952,4,1,0,85,0,0
173031,-66.6666666666667,4,1,0,85,0,0

[HitObjects]
253,181,3548,5,0,0:0:0:0:
253,181,3806,1,8,0:0:0:0:
253,181,4000,1,0,0:0:0:0:
253,181,4194,1,0,0:0:0:0:
253,181,4324,1,8,0:0:0:0:
253,181,4582,1,0,0:0:0:0:
253,181,4841,1,8,0:0:0:0:
253,181,5294,1,0,0:0:0:0:
253,181,5358,1,8,0:0:0:0:
257,182,5875,1,8,0:0:0:0:
257,182,6005,1,8,0:0:0:0:
257,182,6134,1,0,0:0:0:0:
257,182,6263,1,0,0:0:0:0:
253,181,6393,1,8,0:0:0:0:
257,182,6651,1,8,0:0:0:0:
257,182,6910,1,0,0:0:0:0:
256,192,7039,12,0,7815,0:0:0:0:
255,190,7990,5,12,0:0:0:0:
255,190,8115,1,0,0:0:0:0:
255,190,8177,1,0,0:0:0:0:
255,190,8240,1,8,0:0:0:0:
255,190,8365,1,0,0:0:0:0:
248,189,8490,1,8,0:0:0:0:
249,189,8615,1,0,0:0:0:0:
249,189,8677,1,0,0:0:0:0:
249,189,8740,1,8,0:0:0:0:
249,189,8865,1,0,0:0:0:0:
249,189,8990,1,8,0:0:0:0:
249,189,9052,1,8,0:0:0:0:
249,189,9115,1,0,0:0:0:0:
249,189,9177,1,0,0:0:0:0:
249,189,9240,1,8,0:0:0:0:
249,189,9302,1,0,0:0:0:0:
249,189,9365,1,8,0:0:0:0:
248,189,9490,1,0,0:0:0:0:
249,189,9615,1,8,0:0:0:0:
249,189,9677,1,8,0:0:0:0:
249,189,9740,1,0,0:0:0:0:
249,189,9865,1,0,0:0:0:0:
249,189,9990,1,8,0:0:0:0:
249,189,10115,1,0,0:0:0:0:
249,189,10177,1,0,0:0:0:0:
249,189,10240,1,8,0:0:0:0:
249,189,10365,1,0,0:0:0:0:
248,189,10490,1,8,0:0:0:0:
249,189,10615,1,8,0:0:0:0:
249,189,10677,1,8,0:0:0:0:
249,189,10740,1,0,0:0:0:0:
249,189,10865,1,0,0:0:0:0:
249,189,10990,1,8,0:0:0:0:
249,189,11052,1,8,0:0:0:0:
249,189,11115,1,0,0:0:0:0:
249,189,11177,1,0,0:0:0:0:
249,189,11240,1,8,0:0:0:0:
249,189,11302,1,0,0:0:0:0:
249,189,11365,1,8,0:0:0:0:
248,189,11427,1,8,0:0:0:0:
248,189,11490,1,8,0:0:0:0:
249,189,11615,1,0,0:0:0:0:
249,189,11677,1,0,0:0:0:0:
249,189,11740,1,8,0:0:0:0:
249,189,11865,1,0,0:0:0:0:
249,189,11990,1,8,0:0:0:0:
249,189,12115,1,0,0:0:0:0:
249,189,12177,1,0,0:0:0:0:
249,189,12240,1,8,0:0:0:0:
249,189,12365,1,0,0:0:0:0:
248,189,12490,1,8,0:0:0:0:
249,189,12615,1,0,0:0:0:0:
249,189,12677,1,0,0:0:0:0:
249,189,12740,1,8,0:0:0:0:
249,189,12865,1,0,0:0:0:0:
249,189,12990,1,8,0:0:0:0:
249,189,13052,1,8,0:0:0:0:
249,189,13115,1,0,0:0:0:0:
249,189,13177,1,0,0:0:0:0:
249,189,13240,1,8,0:0:0:0:
249,189,13302,1,0,0:0:0:0:
249,189,13365,1,8,0:0:0:0:
248,189,13490,1,0,0:0:0:0:
256,187,13615,1,0,0:0:0:0:
256,187,13677,1,0,0:0:0:0:
256,187,13740,1,8,0:0:0:0:
256,187,13865,1,0,0:0:0:0:
256,187,13990,1,8,0:0:0:0:
250,180,14115,1,0,0:0:0:0:
250,180,14177,1,0,0:0:0:0:
250,180,14240,1,8,0:0:0:0:
250,180,14365,1,0,0:0:0:0:
250,180,14490,1,8,0:0:0:0:
250,180,14615,1,8,0:0:0:0:
250,180,14677,1,8,0:0:0:0:
250,180,14740,1,0,0:0:0:0:
250,180,14865,1,0,0:0:0:0:
250,182,14927,1,0,0:0:0:0:
250,182,14990,1,8,0:0:0:0:
250,180,15115,1,8,0:0:0:0:
250,180,15240,1,8,0:0:0:0:
250,180,15365,1,8,0:0:0:0:
250,180,15490,1,0,0:0:0:0:
250,180,15552,1,0,0:0:0:0:
250,180,15615,1,0,0:0:0:0:
250,180,15677,1,0,0:0:0:0:
250,180,15740,1,8,0:0:0:0:
250,180,15802,1,8,0:0:0:0:
250,180,15865,1,8,0:0:0:0:
250,182,15927,1,8,0:0:0:0:
250,182,15990,1,4,0:0:0:0:
250,180,16365,1,0,0:0:0:0:
250,180,16427,1,0,0:0:0:0:
250,180,16490,1,8,0:0:0:0:
250,180,16677,1,8,0:0:0:0:
250,180,16865,1,8,0:0:0:0:
250,182,16990,1,0,0:0:0:0:
250,180,17240,1,8,0:0:0:0:
250,180,17490,1,0,0:0:0:0:
250,182,17990,1,8,0:0:0:0:
250,180,18365,1,8,0:0:0:0:
250,180,18427,1,8,0:0:0:0:
250,180,18490,1,0,0:0:0:0:
250,182,18677,1,0,0:0:0:0:
250,182,18865,1,8,0:0:0:0:
250,182,18990,1,0,0:0:0:0:
252,170,19240,1,0,0:0:0:0:
252,170,19490,1,8,0:0:0:0:
252,170,19990,1,0,0:0:0:0:
252,170,20177,1,0,0:0:0:0:
252,170,20240,1,8,0:0:0:0:
252,170,20490,1,8,0:0:0:0:
252,170,20865,1,8,0:0:0:0:
252,170,20927,1,8,0:0:0:0:
252,170,20990,1,0,0:0:0:0:
246,171,21240,1,0,0:0:0:0:
246,171,21490,1,8,0:0:0:0:
256,166,21990,1,8,0:0:0:0:
256,166,22115,1,0,0:0:0:0:
256,166,22177,1,8,0:0:0:0:
256,166,22365,1,8,0:0:0:0:
256,166,22490,1,0,0:0:0:0:
256,166,22615,1,8,0:0:0:0:
256,166,22677,1,0,0:0:0:0:
256,166,22865,1,8,0:0:0:0:
256,166,22990,1,0,0:0:0:0:
256,166,23240,1,12,0:0:0:0:
256,166,23490,1,12,0:0:0:0:
254,158,23740,1,12,0:0:0:0:
254,158,23990,1,4,0:0:0:0:
253,158,24115,1,8,0:0:0:0:
253,158,24177,1,8,0:0:0:0:
253,158,24240,1,0,0:0:0:0:
253,158,24302,1,0,0:0:0:0:
253,158,24365,1,8,0:0:0:0:
253,158,24490,1,0,0:0:0:0:
254,158,24615,1,8,0:0:0:0:
254,158,24677,1,0,0:0:0:0:
254,158,24740,1,8,0:0:0:0:
254,158,24802,1,8,0:0:0:0:
254,158,24865,1,0,0:0:0:0:
254,158,24990,1,8,0:0:0:0:
253,158,25115,1,0,0:0:0:0:
253,158,25177,1,8,0:0:0:0:
253,158,25240,1,0,0:0:0:0:
253,158,25302,1,0,0:0:0:0:
253,158,25365,1,8,0:0:0:0:
262,159,25427,1,8,0:0:0:0:
253,158,25490,1,8,0:0:0:0:
262,159,25615,1,0,0:0:0:0:
262,159,25677,1,0,0:0:0:0:
262,159,25740,1,8,0:0:0:0:
262,159,25802,1,8,0:0:0:0:
262,159,25865,1,0,0:0:0:0:
262,159,25990,1,8,0:0:0:0:
246,151,26115,1,0,0:0:0:0:
246,151,26177,1,0,0:0:0:0:
246,151,26240,1,8,0:0:0:0:
246,151,26302,1,0,0:0:0:0:
246,151,26365,1,8,0:0:0:0:
240,148,26490,1,0,0:0:0:0:
246,150,26615,1,8,0:0:0:0:
246,150,26677,1,0,0:0:0:0:
246,150,26740,1,8,0:0:0:0:
246,150,26802,1,8,0:0:0:0:
246,150,26865,1,0,0:0:0:0:
246,150,26990,1,8,0:0:0:0:
262,154,27115,1,0,0:0:0:0:
262,154,27177,1,0,0:0:0:0:
262,154,27240,1,8,0:0:0:0:
261,154,27302,1,0,0:0:0:0:
261,154,27365,1,8,0:0:0:0:
261,154,27427,1,0,0:0:0:0:
261,154,27490,1,8,0:0:0:0:
261,154,27552,1,8,0:0:0:0:
261,154,27615,1,0,0:0:0:0:
261,154,27677,1,0,0:0:0:0:
261,154,27740,1,8,0:0:0:0:
263,150,27865,1,0,0:0:0:0:
263,150,27990,1,12,0:0:0:0:
262,154,28115,1,8,0:0:0:0:
262,154,28177,1,0,0:0:0:0:
262,154,28240,1,8,0:0:0:0:
261,154,28365,1,0,0:0:0:0:
261,154,28490,1,12,0:0:0:0:
264,147,28615,1,8,0:0:0:0:
264,147,28677,1,8,0:0:0:0:
264,147,28740,1,0,0:0:0:0:
263,150,28802,1,0,0:0:0:0:
263,150,28865,1,8,0:0:0:0:
263,150,28990,1,12,0:0:0:0:
264,147,29115,1,4,0:0:0:0:
264,147,29240,1,4,0:0:0:0:
264,147,29365,1,4,0:0:0:0:
264,147,29490,1,8,0:0:0:0:
264,147,29552,1,0,0:0:0:0:
264,147,29615,1,0,0:0:0:0:
264,147,29677,1,0,0:0:0:0:
264,147,29740,1,12,0:0:0:0:
263,150,29990,1,12,0:0:0:0:
264,147,30115,1,4,0:0:0:0:
264,147,30240,1,4,0:0:0:0:
264,147,30365,1,4,0:0:0:0:
264,147,30490,1,4,0:0:0:0:
264,147,30615,1,4,0:0:0:0:
264,147,30740,1,4,0:0:0:0:
263,150,30865,1,4,0:0:0:0:
263,150,30990,1,12,0:0:0:0:
264,147,31115,1,0,0:0:0:0:
264,147,31177,1,12,0:0:0:0:
264,147,31302,1,0,0:0:0:0:
264,147,31365,1,12,0:0:0:0:
264,147,31490,1,0,0:0:0:0:
272,147,31552,1,0,0:0:0:0:
272,147,31615,1,0,0:0:0:0:
272,147,31677,1,0,0:0:0:0:
272,147,31740,1,12,0:0:0:0:
272,147,31990,1,0,0:0:0:0:
272,147,32031,1,0,0:0:0:0:
272,147,32073,1,8,0:0:0:0:
272,147,32115,1,8,0:0:0:0:
272,147,32177,1,0,0:0:0:0:
272,147,32219,1,0,0:0:0:0:
272,147,32260,1,8,0:0:0:0:
272,147,32302,1,8,0:0:0:0:
264,147,32365,1,0,0:0:0:0:
270,141,32490,1,8,0:0:0:0:
270,141,32531,1,8,0:0:0:0:
272,147,32573,1,8,0:0:0:0:
272,147,32781,1,0,0:0:0:0:
265,147,32823,1,0,0:0:0:0:
272,147,32865,1,0,0:0:0:0:
278,142,32990,1,8,0:0:0:0:
278,142,33031,1,8,0:0:0:0:
278,142,33073,1,0,0:0:0:0:
278,142,33115,1,0,0:0:0:0:
278,142,33177,1,8,0:0:0:0:
278,142,33219,1,8,0:0:0:0:
278,142,33260,1,0,0:0:0:0:
278,142,33302,1,0,0:0:0:0:
278,142,33365,1,8,0:0:0:0:
266,151,33490,1,0,0:0:0:0:
266,151,33552,1,8,0:0:0:0:
266,151,33615,1,0,0:0:0:0:
266,151,33677,1,0,0:0:0:0:
266,151,33740,1,8,0:0:0:0:
266,151,33865,1,0,0:0:0:0:
266,151,33990,1,12,0:0:0:0:
276,148,34115,1,0,0:0:0:0:
276,148,34177,1,0,0:0:0:0:
276,148,34240,1,8,0:0:0:0:
276,148,34365,1,8,0:0:0:0:
276,148,34427,1,0,0:0:0:0:
276,148,34490,1,8,0:0:0:0:
276,148,34552,1,8,0:0:0:0:
276,148,34615,1,0,0:0:0:0:
266,151,34677,1,0,0:0:0:0:
276,148,34740,1,8,0:0:0:0:
276,148,34865,1,0,0:0:0:0:
276,148,34927,1,0,0:0:0:0:
276,148,34990,1,8,0:0:0:0:
276,148,35052,1,0,0:0:0:0:
276,148,35115,1,8,0:0:0:0:
283,144,35177,1,8,0:0:0:0:
283,144,35240,1,0,0:0:0:0:
283,144,35365,1,8,0:0:0:0:
283,144,35490,1,8,0:0:0:0:
283,144,35552,1,0,0:0:0:0:
283,144,35615,1,8,0:0:0:0:
283,144,35677,1,8,0:0:0:0:
283,144,35740,1,0,0:0:0:0:
283,144,35802,1,0,0:0:0:0:
283,144,35865,1,8,0:0:0:0:
283,144,35990,1,0,0:0:0:0:
283,144,36032,1,0,0:0:0:0:
283,144,36073,1,8,0:0:0:0:
283,144,36115,1,8,0:0:0:0:
282,142,36177,1,0,0:0:0:0:
282,142,36219,1,0,0:0:0:0:
282,142,36261,1,8,0:0:0:0:
283,144,36302,1,8,0:0:0:0:
283,144,36365,1,0,0:0:0:0:
276,141,36490,1,8,0:0:0:0:
276,141,36531,1,8,0:0:0:0:
283,144,36573,1,8,0:0:0:0:
276,141,36781,1,0,0:0:0:0:
276,141,36823,1,0,0:0:0:0:
276,141,36865,1,0,0:0:0:0:
271,145,36990,1,8,0:0:0:0:
271,145,37031,1,8,0:0:0:0:
271,145,37073,1,0,0:0:0:0:
271,145,37115,1,0,0:0:0:0:
271,145,37177,1,8,0:0:0:0:
271,145,37219,1,8,0:0:0:0:
271,145,37260,1,0,0:0:0:0:
271,145,37302,1,0,0:0:0:0:
271,145,37365,1,8,0:0:0:0:
281,147,37490,1,0,0:0:0:0:
281,147,37552,1,8,0:0:0:0:
281,147,37615,1,0,0:0:0:0:
281,147,37677,1,0,0:0:0:0:
281,147,37740,1,8,0:0:0:0:
281,147,37865,1,0,0:0:0:0:
281,147,37990,1,12,0:0:0:0:
271,145,38115,1,0,0:0:0:0:
271,145,38177,1,0,0:0:0:0:
271,145,38240,1,8,0:0:0:0:
271,145,38302,1,0,0:0:0:0:
271,145,38365,1,8,0:0:0:0:
269,141,38490,1,0,0:0:0:0:
272,140,38615,1,8,0:0:0:0:
272,140,38656,1,8,0:0:0:0:
272,140,38698,1,8,0:0:0:0:
272,140,38740,1,0,0:0:0:0:
272,140,38802,1,0,0:0:0:0:
272,140,38865,1,8,0:0:0:0:
274,140,38990,1,8,0:0:0:0:
274,140,39031,1,8,0:0:0:0:
274,140,39073,1,0,0:0:0:0:
274,140,39115,1,0,0:0:0:0:
274,140,39177,1,0,0:0:0:0:
274,140,39240,1,8,0:0:0:0:
274,139,39365,1,0,0:0:0:0:
274,139,39490,1,8,0:0:0:0:
272,140,39552,1,0,0:0:0:0:
272,140,39615,1,8,0:0:0:0:
272,140,39677,1,8,0:0:0:0:
272,140,39740,1,0,0:0:0:0:
272,140,39802,1,0,0:0:0:0:
272,140,39865,1,8,0:0:0:0:
274,140,39990,1,12,0:0:0:0:
263,147,40490,1,4,0:0:0:0:
256,149,40990,1,12,0:0:0:0:
256,149,41115,1,4,0:0:0:0:
256,149,41240,1,4,0:0:0:0:
256,149,41365,1,12,0:0:0:0:
255,139,41490,1,0,0:0:0:0:
256,139,41552,1,0,0:0:0:0:
256,139,41615,1,0,0:0:0:0:
256,139,41677,1,0,0:0:0:0:
256,139,41740,1,12,0:0:0:0:
248,156,41990,1,12,0:0:0:0:
248,156,42115,1,0,0:0:0:0:
248,156,42177,1,0,0:0:0:0:
248,156,42240,1,8,0:0:0:0:
248,156,42365,1,0,0:0:0:0:
248,156,42490,1,8,0:0:0:0:
246,139,42552,1,8,0:0:0:0:
248,156,42615,1,0,0:0:0:0:
248,156,42677,1,0,0:0:0:0:
248,156,42740,1,8,0:0:0:0:
248,156,42865,1,0,0:0:0:0:
248,156,42990,1,8,0:0:0:0:
248,156,43052,1,0,0:0:0:0:
260,155,43115,1,8,0:0:0:0:
261,155,43177,1,8,0:0:0:0:
261,155,43240,1,0,0:0:0:0:
261,155,43302,1,0,0:0:0:0:
261,155,43365,1,8,0:0:0:0:
261,155,43427,1,0,0:0:0:0:
261,155,43490,1,8,0:0:0:0:
252,148,43615,1,0,0:0:0:0:
252,148,43677,1,0,0:0:0:0:
252,148,43740,1,8,0:0:0:0:
252,148,43802,1,8,0:0:0:0:
252,149,43865,1,0,0:0:0:0:
252,149,43990,1,8,0:0:0:0:
252,149,44115,1,0,0:0:0:0:
252,149,44177,1,8,0:0:0:0:
252,149,44240,1,0,0:0:0:0:
252,149,44302,1,0,0:0:0:0:
252,149,44365,1,8,0:0:0:0:
252,149,44490,1,0,0:0:0:0:
242,146,44615,1,8,0:0:0:0:
242,146,44677,1,0,0:0:0:0:
242,146,44740,1,8,0:0:0:0:
242,146,44802,1,8,0:0:0:0:
242,146,44865,1,0,0:0:0:0:
242,146,44927,1,0,0:0:0:0:
242,146,44990,1,8,0:0:0:0:
242,146,45115,1,0,0:0:0:0:
242,146,45177,1,0,0:0:0:0:
242,146,45240,1,8,0:0:0:0:
242,146,45302,1,0,0:0:0:0:
242,146,45365,1,8,0:0:0:0:
242,146,45427,1,8,0:0:0:0:
242,146,45490,1,0,0:0:0:0:
242,146,45552,1,0,0:0:0:0:
242,146,45615,1,8,0:0:0:0:
242,146,45677,1,0,0:0:0:0:
242,146,45740,1,8,0:0:0:0:
242,146,45865,1,0,0:0:0:0:
242,146,45990,1,12,0:0:0:0:
242,146,46115,1,8,0:0:0:0:
242,146,46177,1,0,0:0:0:0:
242,146,46240,1,8,0:0:0:0:
242,146,46302,1,8,0:0:0:0:
242,146,46365,1,0,0:0:0:0:
242,146,46427,1,0,0:0:0:0:
242,146,46490,1,8,0:0:0:0:
242,146,46615,1,0,0:0:0:0:
242,146,46677,1,0,0:0:0:0:
242,146,46740,1,8,0:0:0:0:
242,146,46802,1,8,0:0:0:0:
242,146,46865,1,0,0:0:0:0:
242,146,46990,1,12,0:0:0:0:
242,146,47115,1,8,0:0:0:0:
242,146,47177,1,0,0:0:0:0:
242,146,47240,1,8,0:0:0:0:
242,146,47302,1,8,0:0:0:0:
242,146,47365,1,0,0:0:0:0:
242,146,47490,1,8,0:0:0:0:
239,141,47615,1,0,0:0:0:0:
239,141,47677,1,8,0:0:0:0:
239,141,47740,1,0,0:0:0:0:
239,141,47802,1,0,0:0:0:0:
239,141,47865,1,8,0:0:0:0:
239,141,47927,1,0,0:0:0:0:
239,141,47990,1,12,0:0:0:0:
239,141,48115,1,0,0:0:0:0:
239,141,48177,1,0,0:0:0:0:
239,141,48240,1,8,0:0:0:0:
239,141,48365,1,0,0:0:0:0:
239,141,48490,1,12,0:0:0:0:
239,141,48615,1,8,0:0:0:0:
239,141,48677,1,8,0:0:0:0:
239,141,48740,1,0,0:0:0:0:
239,141,48865,1,0,0:0:0:0:
239,141,48990,1,12,0:0:0:0:
239,141,49177,1,12,0:0:0:0:
239,141,49365,1,12,0:0:0:0:
229,137,49490,1,0,0:0:0:0:
229,137,49552,1,0,0:0:0:0:
229,137,49615,1,0,0:0:0:0:
229,137,49677,1,0,0:0:0:0:
229,137,49740,1,12,0:0:0:0:
239,141,49990,1,12,0:0:0:0:
239,141,50115,1,0,0:0:0:0:
239,141,50177,1,0,0:0:0:0:
239,141,50240,1,8,0:0:0:0:
239,141,50365,1,0,0:0:0:0:
239,141,50490,1,8,0:0:0:0:
231,141,50552,1,8,0:0:0:0:
231,141,50615,1,0,0:0:0:0:
231,141,50677,1,0,0:0:0:0:
231,141,50740,1,8,0:0:0:0:
231,141,50865,1,0,0:0:0:0:
231,141,50990,1,8,0:0:0:0:
231,141,51052,1,8,0:0:0:0:
231,141,51115,1,0,0:0:0:0:
231,141,51177,1,0,0:0:0:0:
231,141,51240,1,8,0:0:0:0:
231,141,51302,1,0,0:0:0:0:
231,141,51365,1,8,0:0:0:0:
231,141,51427,1,8,0:0:0:0:
231,141,51490,1,0,0:0:0:0:
231,141,51615,1,0,0:0:0:0:
231,141,51677,1,0,0:0:0:0:
231,141,51740,1,8,0:0:0:0:
231,141,51802,1,0,0:0:0:0:
231,141,51865,1,8,0:0:0:0:
231,141,51990,1,0,0:0:0:0:
231,141,52115,1,8,0:0:0:0:
231,141,52177,1,8,0:0:0:0:
231,141,52240,1,0,0:0:0:0:
231,141,52365,1,0,0:0:0:0:
231,141,52490,1,8,0:0:0:0:
201,137,52552,1,0,0:0:0:0:
197,131,52615,1,8,0:0:0:0:
231,141,52677,1,8,0:0:0:0:
231,141,52740,1,0,0:0:0:0:
231,141,52802,1,0,0:0:0:0:
231,141,52865,1,8,0:0:0:0:
231,141,52990,1,8,0:0:0:0:
231,141,53052,1,0,0:0:0:0:
231,141,53115,1,0,0:0:0:0:
231,141,53177,1,0,0:0:0:0:
231,141,53240,1,8,0:0:0:0:
197,131,53302,1,8,0:0:0:0:
197,131,53365,1,0,0:0:0:0:
197,131,53427,1,8,0:0:0:0:
197,131,53490,1,0,0:0:0:0:
204,134,53615,1,0,0:0:0:0:
204,134,53677,1,0,0:0:0:0:
204,134,53740,1,8,0:0:0:0:
204,134,53802,1,8,0:0:0:0:
204,134,53865,1,0,0:0:0:0:
204,134,53990,1,12,0:0:0:0:
204,134,54115,1,8,0:0:0:0:
204,134,54177,1,0,0:0:0:0:
204,134,54240,1,8,0:0:0:0:
204,134,54302,1,8,0:0:0:0:
204,134,54365,1,0,0:0:0:0:
180,132,54490,1,8,0:0:0:0:
180,132,54552,1,0,0:0:0:0:
180,132,54615,1,0,0:0:0:0:
180,132,54677,1,0,0:0:0:0:
180,132,54740,1,8,0:0:0:0:
180,132,54865,1,0,0:0:0:0:
180,132,54990,1,12,0:0:0:0:
180,132,55115,1,0,0:0:0:0:
180,132,55177,1,8,0:0:0:0:
180,131,55240,1,0,0:0:0:0:
180,131,55302,1,0,0:0:0:0:
180,131,55365,1,8,0:0:0:0:
180,132,55490,1,8,0:0:0:0:
180,132,55552,1,0,0:0:0:0:
180,132,55615,1,8,0:0:0:0:
180,132,55677,1,8,0:0:0:0:
180,132,55740,1,0,0:0:0:0:
180,132,55802,1,0,0:0:0:0:
180,132,55865,1,8,0:0:0:0:
180,132,55990,1,12,0:0:0:0:
180,132,56115,1,0,0:0:0:0:
180,132,56177,1,0,0:0:0:0:
180,131,56240,1,8,0:0:0:0:
180,131,56365,1,0,0:0:0:0:
180,132,56490,1,8,0:0:0:0:
180,132,56552,1,0,0:0:0:0:
180,132,56615,1,8,0:0:0:0:
180,132,56677,1,0,0:0:0:0:
180,132,56740,1,8,0:0:0:0:
180,132,56802,1,8,0:0:0:0:
180,132,56865,1,0,0:0:0:0:
180,132,56927,1,0,0:0:0:0:
180,132,56990,1,8,0:0:0:0:
180,132,57115,1,8,0:0:0:0:
180,132,57177,1,0,0:0:0:0:
180,131,57240,1,8,0:0:0:0:
180,131,57302,1,8,0:0:0:0:
180,131,57365,1,0,0:0:0:0:
180,132,57427,1,0,0:0:0:0:
180,132,57490,1,8,0:0:0:0:
180,132,57615,1,0,0:0:0:0:
180,132,57677,1,8,0:0:0:0:
180,132,57740,1,8,0:0:0:0:
180,132,57865,1,8,0:0:0:0:
203,172,57990,5,0,0:0:0:0:
203,172,58052,1,0,0:0:0:0:
203,172,58115,1,0,0:0:0:0:
203,172,58177,1,0,0:0:0:0:
203,172,58240,1,12,0:0:0:0:
203,172,58490,1,0,0:0:0:0:
203,172,58552,1,0,0:0:0:0:
203,172,58615,1,0,0:0:0:0:
203,172,58677,1,0,0:0:0:0:
203,172,58740,1,12,0:0:0:0:
203,172,58990,1,8,0:0:0:0:
203,172,59031,1,0,0:0:0:0:
203,172,59073,1,0,0:0:0:0:
203,172,59115,1,8,0:0:0:0:
203,172,59156,1,0,0:0:0:0:
203,172,59198,1,0,0:0:0:0:
203,172,59240,1,8,0:0:0:0:
203,172,59490,1,8,0:0:0:0:
203,172,59521,1,8,0:0:0:0:
203,172,59552,1,0,0:0:0:0:
203,172,59583,1,0,0:0:0:0:
203,172,59615,1,8,0:0:0:0:
203,172,59646,1,8,0:0:0:0:
203,172,59677,1,0,0:0:0:0:
203,172,59708,1,0,0:0:0:0:
203,172,59740,1,8,0:0:0:0:
209,172,59865,1,0,0:0:0:0:
255,190,59990,5,12,0:0:0:0:
255,190,60115,1,0,0:0:0:0:
255,190,60177,1,0,0:0:0:0:
255,190,60240,1,8,0:0:0:0:
255,190,60365,1,0,0:0:0:0:
248,189,60490,1,8,0:0:0:0:
249,189,60615,1,0,0:0:0:0:
249,189,60677,1,0,0:0:0:0:
249,189,60740,1,8,0:0:0:0:
249,189,60865,1,0,0:0:0:0:
249,189,60990,1,8,0:0:0:0:
249,189,61052,1,8,0:0:0:0:
249,189,61115,1,0,0:0:0:0:
249,189,61177,1,0,0:0:0:0:
249,189,61240,1,8,0:0:0:0:
249,189,61302,1,0,0:0:0:0:
249,189,61365,1,8,0:0:0:0:
248,189,61490,1,0,0:0:0:0:
249,189,61615,1,8,0:0:0:0:
249,189,61677,1,8,0:0:0:0:
249,189,61740,1,0,0:0:0:0:
249,189,61865,1,0,0:0:0:0:
249,189,61990,1,8,0:0:0:0:
249,189,62115,1,0,0:0:0:0:
249,189,62177,1,0,0:0:0:0:
249,189,62240,1,8,0:0:0:0:
249,189,62365,1,0,0:0:0:0:
248,189,62490,1,8,0:0:0:0:
249,189,62615,1,8,0:0:0:0:
249,189,62677,1,8,0:0:0:0:
249,189,62740,1,0,0:0:0:0:
249,189,62865,1,0,0:0:0:0:
249,189,62990,1,8,0:0:0:0:
249,189,63052,1,8,0:0:0:0:
249,189,63115,1,0,0:0:0:0:
249,189,63177,1,0,0:0:0:0:
249,189,63240,1,8,0:0:0:0:
249,189,63302,1,0,0:0:0:0:
249,189,63365,1,8,0:0:0:0:
248,189,63427,1,8,0:0:0:0:
248,189,63490,1,8,0:0:0:0:
249,189,63615,1,0,0:0:0:0:
249,189,63677,1,0,0:0:0:0:
249,189,63740,1,8,0:0:0:0:
249,189,63865,1,0,0:0:0:0:
249,189,63990,1,8,0:0:0:0:
249,189,64115,1,0,0:0:0:0:
249,189,64177,1,0,0:0:0:0:
249,189,64240,1,8,0:0:0:0:
249,189,64365,1,0,0:0:0:0:
248,189,64490,1,8,0:0:0:0:
249,189,64615,1,0,0:0:0:0:
249,189,64677,1,0,0:0:0:0:
249,189,64740,1,8,0:0:0:0:
249,189,64865,1,0,0:0:0:0:
249,189,64990,1,8,0:0:0:0:
249,189,65052,1,8,0:0:0:0:
249,189,65115,1,0,0:0:0:0:
249,189,65177,1,0,0:0:0:0:
249,189,65240,1,8,0:0:0:0:
249,189,65302,1,0,0:0:0:0:
249,189,65365,1,8,0:0:0:0:
248,189,65490,1,0,0:0:0:0:
256,187,65615,1,0,0:0:0:0:
256,187,65677,1,0,0:0:0:0:
256,187,65740,1,8,0:0:0:0:
256,187,65865,1,0,0:0:0:0:
256,187,65990,1,8,0:0:0:0:
250,180,66115,1,0,0:0:0:0:
250,180,66177,1,0,0:0:0:0:
250,180,66240,1,8,0:0:0:0:
250,180,66365,1,0,0:0:0:0:
250,180,66490,1,8,0:0:0:0:
250,180,66615,1,8,0:0:0:0:
250,180,66677,1,8,0:0:0:0:
250,180,66740,1,0,0:0:0:0:
250,180,66865,1,0,0:0:0:0:
250,182,66927,1,0,0:0:0:0:
250,182,66990,1,8,0:0:0:0:
250,180,67115,1,8,0:0:0:0:
250,180,67240,1,8,0:0:0:0:
250,180,67365,1,8,0:0:0:0:
250,180,67490,1,0,0:0:0:0:
250,180,67552,1,0,0:0:0:0:
250,180,67615,1,0,0:0:0:0:
250,180,67677,1,0,0:0:0:0:
250,180,67740,1,8,0:0:0:0:
250,180,67802,1,8,0:0:0:0:
250,180,67865,1,8,0:0:0:0:
250,182,67927,1,8,0:0:0:0:
250,182,67990,1,4,0:0:0:0:
231,181,68115,1,0,0:0:0:0:
231,181,68177,1,0,0:0:0:0:
229,194,68240,1,8,0:0:0:0:
229,194,68365,1,8,0:0:0:0:
229,194,68427,1,0,0:0:0:0:
229,194,68490,1,8,0:0:0:0:
233,190,68552,1,8,0:0:0:0:
233,190,68615,1,0,0:0:0:0:
233,190,68677,1,0,0:0:0:0:
233,190,68740,1,8,0:0:0:0:
231,181,68865,1,0,0:0:0:0:
231,181,68990,1,8,0:0:0:0:
236,188,69052,1,0,0:0:0:0:
231,181,69115,1,8,0:0:0:0:
231,181,69177,1,0,0:0:0:0:
231,181,69240,1,8,0:0:0:0:
231,181,69302,1,8,0:0:0:0:
231,181,69365,1,8,0:0:0:0:
231,181,69427,1,0,0:0:0:0:
231,181,69490,1,8,0:0:0:0:
232,180,69615,1,0,0:0:0:0:
232,180,69677,1,8,0:0:0:0:
232,180,69740,1,0,0:0:0:0:
231,181,69802,1,0,0:0:0:0:
231,181,69865,1,8,0:0:0:0:
231,181,69990,1,0,0:0:0:0:
231,181,70115,1,0,0:0:0:0:
231,181,70177,1,0,0:0:0:0:
231,181,70240,1,8,0:0:0:0:
231,181,70365,1,8,0:0:0:0:
231,181,70427,1,0,0:0:0:0:
231,181,70490,1,8,0:0:0:0:
232,180,70552,1,8,0:0:0:0:
232,180,70615,1,0,0:0:0:0:
232,180,70677,1,0,0:0:0:0:
232,180,70740,1,8,0:0:0:0:
221,169,70865,1,8,0:0:0:0:
221,169,70927,1,8,0:0:0:0:
221,169,70990,1,0,0:0:0:0:
221,169,71115,1,8,0:0:0:0:
221,169,71177,1,0,0:0:0:0:
221,169,71240,1,8,0:0:0:0:
221,169,71302,1,8,0:0:0:0:
221,169,71365,1,0,0:0:0:0:
221,169,71490,1,8,0:0:0:0:
221,169,71615,1,0,0:0:0:0:
221,169,71677,1,0,0:0:0:0:
221,169,71740,1,8,0:0:0:0:
221,169,71802,1,0,0:0:0:0:
221,169,71865,1,8,0:0:0:0:
221,169,71927,1,8,0:0:0:0:
221,169,71990,1,0,0:0:0:0:
221,169,72115,1,0,0:0:0:0:
221,169,72177,1,0,0:0:0:0:
221,169,72240,1,8,0:0:0:0:
221,169,72302,1,8,0:0:0:0:
221,169,72365,1,0,0:0:0:0:
221,169,72490,1,8,0:0:0:0:
220,160,72615,1,8,0:0:0:0:
221,169,72677,1,8,0:0:0:0:
221,169,72740,1,0,0:0:0:0:
220,160,72802,1,0,0:0:0:0:
220,160,72865,1,8,0:0:0:0:
220,160,72990,1,0,0:0:0:0:
216,163,73115,1,8,0:0:0:0:
216,163,73177,1,0,0:0:0:0:
216,163,73240,1,8,0:0:0:0:
216,163,73302,1,8,0:0:0:0:
216,163,73365,1,0,0:0:0:0:
216,163,73490,1,8,0:0:0:0:
216,163,73615,1,8,0:0:0:0:
216,163,73677,1,0,0:0:0:0:
216,163,73740,1,0,0:0:0:0:
216,163,73802,1,0,0:0:0:0:
216,163,73865,1,8,0:0:0:0:
216,163,73990,1,0,0:0:0:0:
216,163,74115,1,0,0:0:0:0:
216,163,74177,1,0,0:0:0:0:
216,163,74240,1,8,0:0:0:0:
216,163,74302,1,0,0:0:0:0:
216,163,74365,1,8,0:0:0:0:
216,163,74490,1,8,0:0:0:0:
216,163,74552,1,8,0:0:0:0:
216,163,74615,1,0,0:0:0:0:
216,163,74677,1,8,0:0:0:0:
216,163,74740,1,0,0:0:0:0:
216,163,74802,1,0,0:0:0:0:
216,163,74865,1,8,0:0:0:0:
216,163,74990,1,4,0:0:0:0:
216,163,75240,1,12,0:0:0:0:
216,163,75490,1,12,0:0:0:0:
216,163,75740,1,12,0:0:0:0:
216,163,75990,1,4,0:0:0:0:
207,167,76115,1,0,0:0:0:0:
207,167,76177,1,0,0:0:0:0:
207,167,76240,1,8,0:0:0:0:
207,167,76302,1,8,0:0:0:0:
207,167,76365,1,0,0:0:0:0:
207,167,76490,1,8,0:0:0:0:
207,167,76552,1,0,0:0:0:0:
207,167,76615,1,0,0:0:0:0:
207,167,76677,1,8,0:0:0:0:
207,167,76740,1,0,0:0:0:0:
207,167,76802,1,0,0:0:0:0:
207,167,76865,1,8,0:0:0:0:
183,171,76990,1,0,0:0:0:0:
194,171,77115,1,8,0:0:0:0:
194,171,77177,1,0,0:0:0:0:
194,171,77240,1,8,0:0:0:0:
194,171,77302,1,8,0:0:0:0:
194,171,77365,1,0,0:0:0:0:
194,171,77427,1,0,0:0:0:0:
194,171,77490,1,8,0:0:0:0:
200,174,77615,1,0,0:0:0:0:
200,174,77677,1,8,0:0:0:0:
200,174,77740,1,0,0:0:0:0:
200,174,77802,1,0,0:0:0:0:
200,174,77865,1,8,0:0:0:0:
200,174,77990,1,8,0:0:0:0:
200,174,78115,1,0,0:0:0:0:
200,174,78177,1,0,0:0:0:0:
200,174,78240,1,8,0:0:0:0:
200,174,78365,1,8,0:0:0:0:
200,174,78427,1,0,0:0:0:0:
200,174,78490,1,8,0:0:0:0:
200,174,78552,1,8,0:0:0:0:
200,174,78615,1,0,0:0:0:0:
200,174,78677,1,8,0:0:0:0:
200,174,78740,1,0,0:0:0:0:
200,174,78802,1,0,0:0:0:0:
200,174,78865,1,8,0:0:0:0:
200,174,78990,1,0,0:0:0:0:
200,174,79115,1,0,0:0:0:0:
200,174,79177,1,0,0:0:0:0:
200,174,79240,1,8,0:0:0:0:
200,174,79302,1,8,0:0:0:0:
200,174,79365,1,8,0:0:0:0:
200,174,79427,1,8,0:0:0:0:
200,174,79490,1,0,0:0:0:0:
200,174,79615,1,8,0:0:0:0:
200,174,79677,1,0,0:0:0:0:
200,174,79740,1,8,0:0:0:0:
200,174,79802,1,8,0:0:0:0:
200,174,79865,1,0,0:0:0:0:
200,174,79990,1,12,0:0:0:0:
200,174,80115,1,0,0:0:0:0:
200,174,80177,1,0,0:0:0:0:
200,174,80240,1,8,0:0:0:0:
200,174,80365,1,0,0:0:0:0:
200,174,80490,1,12,0:0:0:0:
200,174,80615,1,8,0:0:0:0:
200,174,80677,1,8,0:0:0:0:
200,174,80740,1,0,0:0:0:0:
200,174,80865,1,0,0:0:0:0:
200,174,80990,1,12,0:0:0:0:
200,174,81115,1,4,0:0:0:0:
200,174,81240,1,4,0:0:0:0:
200,174,81365,1,4,0:0:0:0:
187,171,81490,1,8,0:0:0:0:
196,170,81552,1,0,0:0:0:0:
196,170,81615,1,0,0:0:0:0:
196,170,81677,1,0,0:0:0:0:
196,170,81740,1,12,0:0:0:0:
205,178,81990,1,12,0:0:0:0:
205,178,82115,1,4,0:0:0:0:
205,178,82240,1,4,0:0:0:0:
205,178,82365,1,4,0:0:0:0:
205,178,82490,1,4,0:0:0:0:
205,178,82615,1,4,0:0:0:0:
205,178,82740,1,4,0:0:0:0:
205,178,82865,1,4,0:0:0:0:
205,178,82990,1,12,0:0:0:0:
205,178,83115,1,0,0:0:0:0:
205,178,83177,1,12,0:0:0:0:
205,178,83302,1,0,0:0:0:0:
205,178,83365,1,12,0:0:0:0:
212,172,83490,1,0,0:0:0:0:
212,172,83552,1,0,0:0:0:0:
212,172,83615,1,0,0:0:0:0:
212,172,83677,1,0,0:0:0:0:
212,172,83740,1,12,0:0:0:0:
272,147,83990,1,0,0:0:0:0:
272,147,84032,1,0,0:0:0:0:
272,147,84073,1,8,0:0:0:0:
272,147,84115,1,8,0:0:0:0:
272,147,84177,1,0,0:0:0:0:
272,147,84219,1,0,0:0:0:0:
272,147,84261,1,8,0:0:0:0:
272,147,84302,1,8,0:0:0:0:
264,147,84365,1,0,0:0:0:0:
270,141,84490,1,8,0:0:0:0:
270,141,84531,1,8,0:0:0:0:
239,182,84573,1,8,0:0:0:0:
272,147,84781,1,0,0:0:0:0:
265,147,84823,1,0,0:0:0:0:
272,147,84865,1,0,0:0:0:0:
278,142,84990,1,8,0:0:0:0:
278,142,85031,1,8,0:0:0:0:
278,142,85073,1,0,0:0:0:0:
278,142,85115,1,0,0:0:0:0:
278,142,85177,1,8,0:0:0:0:
278,142,85219,1,8,0:0:0:0:
278,142,85260,1,0,0:0:0:0:
278,142,85302,1,0,0:0:0:0:
278,142,85365,1,8,0:0:0:0:
266,151,85490,1,0,0:0:0:0:
266,151,85552,1,8,0:0:0:0:
266,151,85615,1,0,0:0:0:0:
266,151,85677,1,0,0:0:0:0:
266,151,85740,1,8,0:0:0:0:
266,151,85865,1,0,0:0:0:0:
266,151,85990,1,12,0:0:0:0:
276,148,86115,1,0,0:0:0:0:
276,148,86177,1,0,0:0:0:0:
276,148,86240,1,8,0:0:0:0:
276,148,86365,1,8,0:0:0:0:
276,148,86427,1,0,0:0:0:0:
276,148,86490,1,8,0:0:0:0:
276,148,86552,1,8,0:0:0:0:
276,148,86615,1,0,0:0:0:0:
266,151,86677,1,0,0:0:0:0:
276,148,86740,1,8,0:0:0:0:
276,148,86865,1,0,0:0:0:0:
276,148,86927,1,0,0:0:0:0:
276,148,86990,1,8,0:0:0:0:
276,148,87052,1,0,0:0:0:0:
276,148,87115,1,8,0:0:0:0:
283,144,87177,1,8,0:0:0:0:
283,144,87240,1,0,0:0:0:0:
283,144,87365,1,8,0:0:0:0:
283,144,87490,1,8,0:0:0:0:
283,144,87552,1,0,0:0:0:0:
283,144,87615,1,8,0:0:0:0:
283,144,87677,1,8,0:0:0:0:
283,144,87740,1,0,0:0:0:0:
283,144,87802,1,0,0:0:0:0:
283,144,87865,1,8,0:0:0:0:
283,144,87990,1,0,0:0:0:0:
283,144,88032,1,0,0:0:0:0:
283,144,88073,1,8,0:0:0:0:
283,144,88115,1,8,0:0:0:0:
282,142,88177,1,0,0:0:0:0:
282,142,88219,1,0,0:0:0:0:
282,142,88261,1,8,0:0:0:0:
283,144,88302,1,8,0:0:0:0:
283,144,88365,1,0,0:0:0:0:
276,141,88490,1,8,0:0:0:0:
276,141,88531,1,8,0:0:0:0:
275,139,88573,1,8,0:0:0:0:
276,141,88781,1,0,0:0:0:0:
276,141,88823,1,0,0:0:0:0:
276,141,88865,1,0,0:0:0:0:
271,145,88990,1,8,0:0:0:0:
271,145,89031,1,8,0:0:0:0:
271,145,89073,1,0,0:0:0:0:
271,145,89115,1,0,0:0:0:0:
271,145,89177,1,8,0:0:0:0:
271,145,89219,1,8,0:0:0:0:
271,145,89260,1,0,0:0:0:0:
271,145,89302,1,0,0:0:0:0:
271,145,89365,1,8,0:0:0:0:
281,147,89490,1,0,0:0:0:0:
281,147,89552,1,8,0:0:0:0:
281,147,89615,1,0,0:0:0:0:
281,147,89677,1,0,0:0:0:0:
281,147,89740,1,8,0:0:0:0:
281,147,89865,1,0,0:0:0:0:
281,147,89990,1,12,0:0:0:0:
271,145,90115,1,0,0:0:0:0:
271,145,90177,1,0,0:0:0:0:
271,145,90240,1,8,0:0:0:0:
271,145,90302,1,0,0:0:0:0:
271,145,90365,1,8,0:0:0:0:
269,141,90490,1,0,0:0:0:0:
272,140,90615,1,8,0:0:0:0:
272,140,90656,1,8,0:0:0:0:
272,140,90698,1,8,0:0:0:0:
272,140,90740,1,0,0:0:0:0:
272,140,90802,1,0,0:0:0:0:
272,140,90865,1,8,0:0:0:0:
274,140,90990,1,8,0:0:0:0:
274,140,91031,1,8,0:0:0:0:
274,140,91073,1,0,0:0:0:0:
274,140,91115,1,0,0:0:0:0:
274,140,91177,1,0,0:0:0:0:
274,140,91240,1,8,0:0:0:0:
274,139,91365,1,0,0:0:0:0:
274,139,91490,1,8,0:0:0:0:
272,140,91552,1,0,0:0:0:0:
272,140,91615,1,8,0:0:0:0:
272,140,91677,1,8,0:0:0:0:
272,140,91740,1,0,0:0:0:0:
272,140,91802,1,0,0:0:0:0:
272,140,91865,1,8,0:0:0:0:
274,140,91990,1,8,0:0:0:0:
263,147,92490,1,0,0:0:0:0:
256,149,92990,1,8,0:0:0:0:
264,142,93021,1,8,0:0:0:0:
263,147,93052,1,0,0:0:0:0:
263,147,93083,1,0,0:0:0:0:
263,147,93115,1,8,0:0:0:0:
263,147,93146,1,8,0:0:0:0:
263,147,93177,1,0,0:0:0:0:
263,147,93208,1,0,0:0:0:0:
263,147,93240,1,8,0:0:0:0:
267,152,93365,1,8,0:0:0:0:
256,149,93490,1,0,0:0:0:0:
256,149,93615,1,0,0:0:0:0:
256,149,93740,1,0,0:0:0:0:
256,149,93865,1,0,0:0:0:0:
248,156,93990,1,12,0:0:0:0:
248,156,94115,1,0,0:0:0:0:
248,156,94177,1,0,0:0:0:0:
248,156,94240,1,8,0:0:0:0:
248,156,94365,1,0,0:0:0:0:
248,156,94490,1,8,0:0:0:0:
246,139,94552,1,8,0:0:0:0:
248,156,94615,1,0,0:0:0:0:
248,156,94677,1,0,0:0:0:0:
248,156,94740,1,8,0:0:0:0:
248,156,94865,1,0,0:0:0:0:
248,156,94990,1,8,0:0:0:0:
248,156,95052,1,8,0:0:0:0:
260,155,95115,1,8,0:0:0:0:
261,155,95177,1,8,0:0:0:0:
261,155,95240,1,0,0:0:0:0:
261,155,95302,1,0,0:0:0:0:
261,155,95365,1,8,0:0:0:0:
261,155,95427,1,0,0:0:0:0:
261,155,95490,1,8,0:0:0:0:
252,148,95615,1,0,0:0:0:0:
252,148,95677,1,8,0:0:0:0:
252,148,95740,1,0,0:0:0:0:
252,148,95802,1,0,0:0:0:0:
252,149,95865,1,8,0:0:0:0:
252,149,95990,1,0,0:0:0:0:
252,149,96115,1,8,0:0:0:0:
252,149,96177,1,8,0:0:0:0:
252,149,96240,1,0,0:0:0:0:
252,149,96302,1,0,0:0:0:0:
252,149,96365,1,8,0:0:0:0:
252,149,96490,1,0,0:0:0:0:
242,146,96615,1,8,0:0:0:0:
242,146,96677,1,8,0:0:0:0:
242,146,96740,1,0,0:0:0:0:
242,146,96802,1,8,0:0:0:0:
242,146,96865,1,0,0:0:0:0:
242,146,96927,1,0,0:0:0:0:
242,146,96990,1,8,0:0:0:0:
242,146,97115,1,0,0:0:0:0:
242,146,97177,1,0,0:0:0:0:
242,146,97240,1,8,0:0:0:0:
242,146,97302,1,0,0:0:0:0:
242,146,97365,1,8,0:0:0:0:
242,146,97427,1,8,0:0:0:0:
242,146,97490,1,0,0:0:0:0:
242,146,97552,1,0,0:0:0:0:
242,146,97615,1,8,0:0:0:0:
242,146,97677,1,0,0:0:0:0:
242,146,97740,1,8,0:0:0:0:
242,146,97865,1,0,0:0:0:0:
242,146,97990,1,12,0:0:0:0:
242,146,98115,1,0,0:0:0:0:
242,146,98177,1,8,0:0:0:0:
242,146,98240,1,0,0:0:0:0:
242,146,98302,1,0,0:0:0:0:
242,146,98365,1,8,0:0:0:0:
242,146,98427,1,0,0:0:0:0:
242,146,98490,1,8,0:0:0:0:
242,146,98615,1,8,0:0:0:0:
242,146,98677,1,0,0:0:0:0:
242,146,98740,1,8,0:0:0:0:
242,146,98802,1,8,0:0:0:0:
242,146,98865,1,0,0:0:0:0:
242,146,98990,1,12,0:0:0:0:
242,146,99115,1,8,0:0:0:0:
242,146,99177,1,8,0:0:0:0:
242,146,99240,1,0,0:0:0:0:
242,146,99302,1,0,0:0:0:0:
242,146,99365,1,8,0:0:0:0:
242,146,99490,1,0,0:0:0:0:
239,141,99615,1,8,0:0:0:0:
239,141,99677,1,0,0:0:0:0:
239,141,99740,1,8,0:0:0:0:
239,141,99802,1,8,0:0:0:0:
239,141,99865,1,0,0:0:0:0:
239,141,99927,1,0,0:0:0:0:
239,141,99990,1,12,0:0:0:0:
239,141,100115,1,8,0:0:0:0:
239,141,100177,1,8,0:0:0:0:
239,141,100240,1,0,0:0:0:0:
239,141,100365,1,0,0:0:0:0:
239,141,100490,1,12,0:0:0:0:
239,141,100615,1,8,0:0:0:0:
239,141,100677,1,8,0:0:0:0:
239,141,100740,1,0,0:0:0:0:
239,141,100865,1,0,0:0:0:0:
239,141,100990,1,12,0:0:0:0:
239,141,101177,1,12,0:0:0:0:
239,141,101365,1,12,0:0:0:0:
229,137,101490,1,0,0:0:0:0:
229,137,101552,1,0,0:0:0:0:
229,137,101615,1,0,0:0:0:0:
229,137,101677,1,0,0:0:0:0:
229,137,101740,1,12,0:0:0:0:
239,141,101990,1,12,0:0:0:0:
239,141,102115,1,0,0:0:0:0:
239,141,102177,1,0,0:0:0:0:
239,141,102240,1,8,0:0:0:0:
239,141,102365,1,0,0:0:0:0:
239,141,102490,1,8,0:0:0:0:
231,141,102552,1,0,0:0:0:0:
231,141,102615,1,0,0:0:0:0:
231,141,102677,1,0,0:0:0:0:
231,141,102740,1,8,0:0:0:0:
231,141,102865,1,0,0:0:0:0:
231,141,102990,1,8,0:0:0:0:
231,141,103052,1,0,0:0:0:0:
231,141,103115,1,8,0:0:0:0:
231,141,103177,1,8,0:0:0:0:
231,141,103240,1,0,0:0:0:0:
231,141,103302,1,0,0:0:0:0:
231,141,103365,1,8,0:0:0:0:
231,141,103427,1,0,0:0:0:0:
231,141,103490,1,8,0:0:0:0:
231,141,103615,1,0,0:0:0:0:
231,141,103677,1,8,0:0:0:0:
231,141,103740,1,0,0:0:0:0:
231,141,103802,1,0,0:0:0:0:
231,141,103865,1,8,0:0:0:0:
231,141,103990,1,0,0:0:0:0:
231,141,104115,1,8,0:0:0:0:
231,141,104177,1,8,0:0:0:0:
231,141,104240,1,0,0:0:0:0:
231,141,104365,1,0,0:0:0:0:
231,141,104490,1,8,0:0:0:0:
201,137,104552,1,8,0:0:0:0:
197,131,104615,1,0,0:0:0:0:
231,141,104677,1,8,0:0:0:0:
231,141,104740,1,0,0:0:0:0:
231,141,104802,1,0,0:0:0:0:
231,141,104865,1,8,0:0:0:0:
231,141,104990,1,8,0:0:0:0:
231,141,105052,1,0,0:0:0:0:
231,141,105115,1,0,0:0:0:0:
231,141,105177,1,0,0:0:0:0:
231,141,105240,1,8,0:0:0:0:
197,131,105302,1,8,0:0:0:0:
197,131,105365,1,0,0:0:0:0:
197,131,105427,1,8,0:0:0:0:
197,131,105490,1,0,0:0:0:0:
204,134,105615,1,0,0:0:0:0:
204,134,105677,1,0,0:0:0:0:
204,134,105740,1,8,0:0:0:0:
204,134,105802,1,8,0:0:0:0:
204,134,105865,1,0,0:0:0:0:
204,134,105990,1,12,0:0:0:0:
204,134,106115,1,0,0:0:0:0:
204,134,106177,1,8,0:0:0:0:
204,134,106240,1,0,0:0:0:0:
204,134,106302,1,0,0:0:0:0:
204,134,106365,1,8,0:0:0:0:
180,132,106490,1,8,0:0:0:0:
180,132,106552,1,8,0:0:0:0:
180,132,106615,1,0,0:0:0:0:
180,132,106677,1,0,0:0:0:0:
180,132,106740,1,8,0:0:0:0:
180,132,106865,1,0,0:0:0:0:
180,132,106990,1,12,0:0:0:0:
180,132,107115,1,0,0:0:0:0:
180,132,107177,1,8,0:0:0:0:
180,131,107240,1,0,0:0:0:0:
180,131,107302,1,0,0:0:0:0:
180,131,107365,1,8,0:0:0:0:
180,132,107490,1,8,0:0:0:0:
180,132,107552,1,0,0:0:0:0:
180,132,107615,1,8,0:0:0:0:
180,132,107677,1,8,0:0:0:0:
180,132,107740,1,0,0:0:0:0:
180,132,107802,1,8,0:0:0:0:
180,132,107865,1,0,0:0:0:0:
180,132,107990,1,12,0:0:0:0:
180,132,108115,1,0,0:0:0:0:
180,132,108177,1,0,0:0:0:0:
180,131,108240,1,8,0:0:0:0:
180,131,108365,1,0,0:0:0:0:
180,132,108490,1,8,0:0:0:0:
180,132,108552,1,0,0:0:0:0:
180,132,108615,1,8,0:0:0:0:
180,132,108677,1,8,0:0:0:0:
180,132,108740,1,0,0:0:0:0:
180,132,108802,1,8,0:0:0:0:
180,132,108865,1,0,0:0:0:0:
180,132,108927,1,0,0:0:0:0:
180,132,108990,1,8,0:0:0:0:
180,132,109115,1,8,0:0:0:0:
180,132,109177,1,8,0:0:0:0:
180,131,109240,1,0,0:0:0:0:
180,131,109302,1,0,0:0:0:0:
180,131,109365,1,8,0:0:0:0:
180,132,109427,1,8,0:0:0:0:
180,132,109490,1,0,0:0:0:0:
180,132,109615,1,0,0:0:0:0:
180,132,109677,1,8,0:0:0:0:
180,132,109740,1,8,0:0:0:0:
180,132,109865,1,8,0:0:0:0:
203,172,109990,5,0,0:0:0:0:
203,172,110052,1,0,0:0:0:0:
203,172,110115,1,0,0:0:0:0:
203,172,110177,1,0,0:0:0:0:
203,172,110240,1,12,0:0:0:0:
203,172,110490,1,0,0:0:0:0:
203,172,110552,1,0,0:0:0:0:
203,172,110615,1,0,0:0:0:0:
203,172,110677,1,0,0:0:0:0:
203,172,110740,1,12,0:0:0:0:
203,172,110990,1,8,0:0:0:0:
203,172,111031,1,0,0:0:0:0:
203,172,111073,1,0,0:0:0:0:
203,172,111115,1,8,0:0:0:0:
203,172,111156,1,0,0:0:0:0:
203,172,111198,1,0,0:0:0:0:
203,172,111240,1,8,0:0:0:0:
203,172,111490,1,8,0:0:0:0:
203,172,111521,1,8,0:0:0:0:
203,172,111552,1,0,0:0:0:0:
203,172,111583,1,0,0:0:0:0:
203,172,111615,1,8,0:0:0:0:
203,172,111646,1,8,0:0:0:0:
203,172,111677,1,0,0:0:0:0:
203,172,111708,1,0,0:0:0:0:
203,172,111740,1,8,0:0:0:0:
209,172,111865,1,0,0:0:0:0:
255,190,111990,5,12,0:0:0:0:
251,177,112115,1,12,0:0:0:0:
251,177,112240,1,12,0:0:0:0:
251,177,112365,1,12,0:0:0:0:
251,177,112490,1,12,0:0:0:0:
251,177,112615,1,12,0:0:0:0:
251,177,112740,1,12,0:0:0:0:
251,177,112865,1,12,0:0:0:0:
251,177,112990,1,4,0:0:0:0:
256,192,113052,12,4,113740,0:0:0:0:
251,177,113990,5,4,0:0:0:0:
248,165,114240,1,4,0:0:0:0:
248,165,114490,1,4,0:0:0:0:
248,165,114740,1,4,0:0:0:0:
248,165,114990,1,4,0:0:0:0:
248,165,115240,1,4,0:0:0:0:
248,165,115490,1,8,0:0:0:0:
248,165,115552,1,8,0:0:0:0:
252,162,115677,1,0,0:0:0:0:
252,162,115740,1,12,0:0:0:0:
252,162,115990,1,0,0:0:0:0:
252,162,116115,1,0,0:0:0:0:
252,162,116177,1,0,0:0:0:0:
252,162,116240,1,0,0:0:0:0:
252,162,116365,1,0,0:0:0:0:
252,162,116490,1,8,0:0:0:0:
252,162,116552,1,0,0:0:0:0:
252,162,116677,1,8,0:0:0:0:
252,162,116740,1,0,0:0:0:0:
252,162,116865,1,0,0:0:0:0:
252,162,116990,1,8,0:0:0:0:
252,162,117073,1,0,0:0:0:0:
252,162,117156,1,0,0:0:0:0:
252,162,117240,1,8,0:0:0:0:
252,162,117323,1,0,0:0:0:0:
252,162,117406,1,0,0:0:0:0:
252,162,117490,1,8,0:0:0:0:
252,162,117573,1,8,0:0:0:0:
252,162,117656,1,8,0:0:0:0:
252,162,117740,1,0,0:0:0:0:
252,162,117990,1,0,0:0:0:0:
252,162,118177,1,8,0:0:0:0:
252,162,118240,1,0,0:0:0:0:
244,183,118365,1,8,0:0:0:0:
247,169,118490,1,0,0:0:0:0:
246,169,118615,1,8,0:0:0:0:
246,169,118677,1,8,0:0:0:0:
246,169,118740,1,0,0:0:0:0:
246,169,118865,1,8,0:0:0:0:
246,169,118990,1,0,0:0:0:0:
246,169,119052,1,8,0:0:0:0:
246,169,119177,1,8,0:0:0:0:
246,169,119240,1,0,0:0:0:0:
246,169,119365,1,8,0:0:0:0:
247,169,119427,1,8,0:0:0:0:
247,169,119490,1,0,0:0:0:0:
246,169,119615,1,8,0:0:0:0:
246,169,119677,1,0,0:0:0:0:
246,169,119740,1,8,0:0:0:0:
246,169,119802,1,8,0:0:0:0:
246,169,119865,1,0,0:0:0:0:
246,169,119927,1,0,0:0:0:0:
246,169,119990,1,8,0:0:0:0:
246,169,120052,1,0,0:0:0:0:
246,169,120115,1,0,0:0:0:0:
246,169,120177,1,0,0:0:0:0:
246,169,120240,1,8,0:0:0:0:
246,169,120302,1,0,0:0:0:0:
246,169,120365,1,0,0:0:0:0:
247,169,120427,1,0,0:0:0:0:
247,169,120490,1,8,0:0:0:0:
246,169,120552,1,0,0:0:0:0:
246,169,120615,1,0,0:0:0:0:
246,169,120677,1,0,0:0:0:0:
246,169,120740,1,8,0:0:0:0:
246,169,120802,1,0,0:0:0:0:
246,169,120865,1,0,0:0:0:0:
246,169,120927,1,0,0:0:0:0:
246,169,120990,1,8,0:0:0:0:
246,169,121052,1,0,0:0:0:0:
246,169,121115,1,8,0:0:0:0:
246,169,121177,1,0,0:0:0:0:
246,169,121240,1,8,0:0:0:0:
246,169,121302,1,0,0:0:0:0:
246,169,121365,1,8,0:0:0:0:
247,169,121427,1,0,0:0:0:0:
247,169,121490,1,8,0:0:0:0:
246,169,121552,1,8,0:0:0:0:
246,169,121615,1,8,0:0:0:0:
246,169,121677,1,8,0:0:0:0:
246,169,121740,1,4,0:0:0:0:
235,168,121990,1,4,0:0:0:0:
235,168,122240,1,8,0:0:0:0:
235,168,122365,1,4,0:0:0:0:
235,168,122615,1,4,0:0:0:0:
235,168,122865,1,4,0:0:0:0:
243,165,123240,1,4,0:0:0:0:
243,165,123365,1,4,0:0:0:0:
241,170,123490,1,4,0:0:0:0:
235,168,123615,1,0,0:0:0:0:
235,168,123677,1,0,0:0:0:0:
235,168,123740,1,12,0:0:0:0:
232,164,123990,1,4,0:0:0:0:
232,164,124240,1,8,0:0:0:0:
232,164,124365,1,4,0:0:0:0:
235,168,124615,1,4,0:0:0:0:
232,164,124865,1,4,0:0:0:0:
229,157,125240,1,4,0:0:0:0:
230,157,125365,1,4,0:0:0:0:
230,157,125490,1,4,0:0:0:0:
230,157,125615,1,0,0:0:0:0:
230,157,125677,1,0,0:0:0:0:
230,157,125740,1,12,0:0:0:0:
229,157,125990,1,4,0:0:0:0:
219,152,126115,1,0,0:0:0:0:
219,152,126177,1,0,0:0:0:0:
219,152,126240,1,8,0:0:0:0:
219,152,126365,1,0,0:0:0:0:
219,152,126490,1,8,0:0:0:0:
219,152,126552,1,8,0:0:0:0:
219,152,126615,1,0,0:0:0:0:
219,152,126677,1,0,0:0:0:0:
219,152,126740,1,8,0:0:0:0:
219,152,126865,1,0,0:0:0:0:
219,152,126990,1,8,0:0:0:0:
219,152,127052,1,0,0:0:0:0:
219,152,127115,1,8,0:0:0:0:
219,152,127177,1,8,0:0:0:0:
219,152,127240,1,0,0:0:0:0:
219,152,127302,1,0,0:0:0:0:
219,152,127365,1,8,0:0:0:0:
219,152,127490,1,0,0:0:0:0:
219,152,127615,1,0,0:0:0:0:
219,152,127677,1,8,0:0:0:0:
219,152,127740,1,0,0:0:0:0:
219,152,127802,1,0,0:0:0:0:
219,152,127865,1,8,0:0:0:0:
219,152,127990,1,0,0:0:0:0:
219,152,128115,1,8,0:0:0:0:
219,152,128177,1,8,0:0:0:0:
219,152,128240,1,0,0:0:0:0:
219,152,128302,1,0,0:0:0:0:
219,152,128365,1,8,0:0:0:0:
219,152,128427,1,0,0:0:0:0:
219,152,128490,1,8,0:0:0:0:
218,142,128615,1,0,0:0:0:0:
218,142,128740,1,8,0:0:0:0:
223,143,128802,1,0,0:0:0:0:
223,143,128865,1,0,0:0:0:0:
223,143,128927,1,0,0:0:0:0:
223,143,128990,1,8,0:0:0:0:
223,143,129115,1,0,0:0:0:0:
223,143,129240,1,0,0:0:0:0:
223,143,129365,1,0,0:0:0:0:
227,143,129490,1,8,0:0:0:0:
227,143,129615,1,0,0:0:0:0:
227,143,129740,1,0,0:0:0:0:
227,143,129865,1,0,0:0:0:0:
223,143,129990,1,8,0:0:0:0:
223,143,130177,1,0,0:0:0:0:
223,143,130365,1,0,0:0:0:0:
227,143,130490,1,8,0:0:0:0:
227,143,130740,1,0,0:0:0:0:
223,143,130990,1,8,0:0:0:0:
221,144,131427,1,0,0:0:0:0:
221,144,131490,1,8,0:0:0:0:
223,143,131990,1,0,0:0:0:0:
221,144,132177,1,8,0:0:0:0:
221,144,132365,1,8,0:0:0:0:
221,144,132490,1,0,0:0:0:0:
223,143,132740,1,0,0:0:0:0:
223,143,132990,1,8,0:0:0:0:
221,144,133490,1,0,0:0:0:0:
272,147,133990,1,0,0:0:0:0:
272,147,134032,1,0,0:0:0:0:
272,147,134073,1,8,0:0:0:0:
272,147,134115,1,8,0:0:0:0:
272,147,134177,1,0,0:0:0:0:
272,147,134219,1,0,0:0:0:0:
272,147,134261,1,8,0:0:0:0:
272,147,134302,1,8,0:0:0:0:
264,147,134365,1,0,0:0:0:0:
270,141,134490,1,8,0:0:0:0:
270,141,134531,1,8,0:0:0:0:
268,150,134573,1,8,0:0:0:0:
272,147,134781,1,0,0:0:0:0:
265,147,134823,1,0,0:0:0:0:
272,147,134865,1,0,0:0:0:0:
278,142,134990,1,8,0:0:0:0:
278,142,135031,1,8,0:0:0:0:
278,142,135073,1,0,0:0:0:0:
278,142,135115,1,0,0:0:0:0:
278,142,135177,1,8,0:0:0:0:
278,142,135219,1,8,0:0:0:0:
278,142,135260,1,0,0:0:0:0:
278,142,135302,1,0,0:0:0:0:
278,142,135365,1,8,0:0:0:0:
266,151,135490,1,0,0:0:0:0:
266,151,135552,1,8,0:0:0:0:
266,151,135615,1,0,0:0:0:0:
266,151,135677,1,0,0:0:0:0:
266,151,135740,1,8,0:0:0:0:
266,151,135865,1,0,0:0:0:0:
266,151,135990,1,12,0:0:0:0:
276,148,136115,1,0,0:0:0:0:
276,148,136177,1,0,0:0:0:0:
276,148,136240,1,8,0:0:0:0:
276,148,136365,1,8,0:0:0:0:
276,148,136427,1,0,0:0:0:0:
276,148,136490,1,8,0:0:0:0:
276,148,136552,1,8,0:0:0:0:
276,148,136615,1,0,0:0:0:0:
266,151,136677,1,0,0:0:0:0:
276,148,136740,1,8,0:0:0:0:
276,148,136865,1,0,0:0:0:0:
276,148,136927,1,0,0:0:0:0:
276,148,136990,1,8,0:0:0:0:
276,148,137052,1,0,0:0:0:0:
276,148,137115,1,8,0:0:0:0:
283,144,137177,1,8,0:0:0:0:
283,144,137240,1,0,0:0:0:0:
283,144,137365,1,8,0:0:0:0:
283,144,137490,1,8,0:0:0:0:
283,144,137552,1,0,0:0:0:0:
283,144,137615,1,8,0:0:0:0:
283,144,137677,1,8,0:0:0:0:
283,144,137740,1,0,0:0:0:0:
283,144,137802,1,0,0:0:0:0:
283,144,137865,1,8,0:0:0:0:
283,144,137990,1,0,0:0:0:0:
283,144,138032,1,0,0:0:0:0:
283,144,138073,1,8,0:0:0:0:
283,144,138115,1,8,0:0:0:0:
282,142,138177,1,0,0:0:0:0:
282,142,138219,1,0,0:0:0:0:
282,142,138261,1,8,0:0:0:0:
283,144,138302,1,8,0:0:0:0:
283,144,138365,1,0,0:0:0:0:
277,142,138490,1,8,0:0:0:0:
277,142,138531,1,8,0:0:0:0:
277,142,138573,1,8,0:0:0:0:
276,141,138781,1,0,0:0:0:0:
276,141,138823,1,0,0:0:0:0:
276,141,138865,1,0,0:0:0:0:
271,145,138990,1,8,0:0:0:0:
271,145,139031,1,8,0:0:0:0:
271,145,139073,1,0,0:0:0:0:
271,145,139115,1,0,0:0:0:0:
271,145,139177,1,8,0:0:0:0:
271,145,139219,1,8,0:0:0:0:
271,145,139260,1,0,0:0:0:0:
271,145,139302,1,0,0:0:0:0:
271,145,139365,1,8,0:0:0:0:
281,147,139490,1,0,0:0:0:0:
281,147,139552,1,8,0:0:0:0:
281,147,139615,1,0,0:0:0:0:
281,147,139677,1,0,0:0:0:0:
281,147,139740,1,8,0:0:0:0:
281,147,139865,1,0,0:0:0:0:
281,147,139990,1,12,0:0:0:0:
271,145,140115,1,0,0:0:0:0:
271,145,140177,1,0,0:0:0:0:
271,145,140240,1,8,0:0:0:0:
271,145,140302,1,0,0:0:0:0:
271,145,140365,1,8,0:0:0:0:
269,141,140490,1,0,0:0:0:0:
272,140,140615,1,8,0:0:0:0:
272,140,140656,1,8,0:0:0:0:
272,140,140698,1,8,0:0:0:0:
272,140,140740,1,0,0:0:0:0:
272,140,140802,1,0,0:0:0:0:
272,140,140865,1,8,0:0:0:0:
274,140,140990,1,8,0:0:0:0:
274,140,141031,1,8,0:0:0:0:
274,140,141073,1,0,0:0:0:0:
274,140,141115,1,0,0:0:0:0:
274,140,141177,1,0,0:0:0:0:
274,140,141240,1,8,0:0:0:0:
274,139,141365,1,0,0:0:0:0:
274,139,141490,1,8,0:0:0:0:
272,140,141552,1,0,0:0:0:0:
272,140,141615,1,8,0:0:0:0:
272,140,141677,1,8,0:0:0:0:
272,140,141740,1,0,0:0:0:0:
272,140,141802,1,0,0:0:0:0:
272,140,141865,1,8,0:0:0:0:
274,140,141990,1,12,0:0:0:0:
262,139,142240,1,8,0:0:0:0:
263,147,142490,1,4,0:0:0:0:
262,139,142740,1,0,0:0:0:0:
256,149,142990,1,12,0:0:0:0:
256,149,143115,1,4,0:0:0:0:
256,149,143240,1,4,0:0:0:0:
256,149,143365,1,12,0:0:0:0:
255,139,143490,1,0,0:0:0:0:
256,139,143552,1,0,0:0:0:0:
256,139,143615,1,0,0:0:0:0:
256,139,143677,1,0,0:0:0:0:
256,139,143740,1,8,0:0:0:0:
256,149,143802,1,8,0:0:0:0:
256,149,143865,1,8,0:0:0:0:
256,149,143927,1,8,0:0:0:0:
256,192,143990,12,8,144740,0:0:0:0:
257,188,144990,5,8,0:0:0:0:
257,188,145177,1,0,0:0:0:0:
257,188,145365,1,0,0:0:0:0:
257,188,145490,1,8,0:0:0:0:
257,188,145740,1,8,0:0:0:0:
257,188,145990,1,8,0:0:0:0:
257,188,146365,1,8,0:0:0:0:
257,188,146427,1,8,0:0:0:0:
257,188,146490,1,0,0:0:0:0:
257,188,146865,1,0,0:0:0:0:
257,188,146990,1,8,0:0:0:0:
257,188,147177,1,0,0:0:0:0:
257,188,147365,1,0,0:0:0:0:
257,188,147490,1,8,0:0:0:0:
257,188,147740,1,8,0:0:0:0:
257,188,147990,1,8,0:0:0:0:
261,184,148365,1,0,0:0:0:0:
261,184,148427,1,0,0:0:0:0:
261,184,148490,1,8,0:0:0:0:
266,166,148865,1,8,0:0:0:0:
266,166,148927,1,8,0:0:0:0:
266,166,148990,1,4,0:0:0:0:
266,166,149177,1,4,0:0:0:0:
266,166,149365,1,4,0:0:0:0:
270,172,149490,1,8,0:0:0:0:
270,172,149552,1,0,0:0:0:0:
270,172,149615,1,0,0:0:0:0:
270,172,149677,1,0,0:0:0:0:
270,172,149740,1,12,0:0:0:0:
270,172,149865,1,0,0:0:0:0:
270,172,149927,1,0,0:0:0:0:
270,172,149990,1,12,0:0:0:0:
270,172,150177,1,12,0:0:0:0:
270,172,150365,1,12,0:0:0:0:
270,172,150490,1,8,0:0:0:0:
270,172,150531,1,8,0:0:0:0:
270,172,150573,1,8,0:0:0:0:
270,172,150615,1,0,0:0:0:0:
264,176,150677,1,0,0:0:0:0:
270,172,150740,1,8,0:0:0:0:
275,176,150865,1,8,0:0:0:0:
263,185,150927,1,8,0:0:0:0:
275,176,150990,1,0,0:0:0:0:
275,176,151115,1,0,0:0:0:0:
275,176,151240,1,0,0:0:0:0:
275,176,151365,1,0,0:0:0:0:
275,176,151490,1,0,0:0:0:0:
275,176,151615,1,0,0:0:0:0:
275,176,151740,1,0,0:0:0:0:
275,176,151865,1,0,0:0:0:0:
275,176,151927,1,0,0:0:0:0:
275,176,151990,1,12,0:0:0:0:
259,166,152115,1,0,0:0:0:0:
275,176,152177,1,12,0:0:0:0:
259,166,152302,1,0,0:0:0:0:
275,176,152365,1,12,0:0:0:0:
259,166,152490,1,0,0:0:0:0:
259,166,152531,1,0,0:0:0:0:
259,166,152573,1,0,0:0:0:0:
259,166,152615,1,0,0:0:0:0:
259,166,152656,1,0,0:0:0:0:
259,166,152698,1,0,0:0:0:0:
259,166,152740,1,8,0:0:0:0:
239,141,152990,1,12,0:0:0:0:
239,141,153115,1,0,0:0:0:0:
239,141,153177,1,0,0:0:0:0:
239,141,153240,1,8,0:0:0:0:
239,141,153365,1,0,0:0:0:0:
239,141,153490,1,8,0:0:0:0:
231,141,153552,1,8,0:0:0:0:
231,141,153615,1,0,0:0:0:0:
231,141,153677,1,0,0:0:0:0:
231,141,153740,1,8,0:0:0:0:
231,141,153865,1,0,0:0:0:0:
231,141,153990,1,8,0:0:0:0:
231,141,154052,1,8,0:0:0:0:
231,141,154115,1,0,0:0:0:0:
231,141,154177,1,0,0:0:0:0:
231,141,154240,1,8,0:0:0:0:
231,141,154302,1,0,0:0:0:0:
231,141,154365,1,8,0:0:0:0:
231,141,154427,1,8,0:0:0:0:
231,141,154490,1,0,0:0:0:0:
231,141,154615,1,0,0:0:0:0:
231,141,154677,1,0,0:0:0:0:
231,141,154740,1,8,0:0:0:0:
231,141,154802,1,0,0:0:0:0:
231,141,154865,1,8,0:0:0:0:
231,141,154990,1,0,0:0:0:0:
231,141,155115,1,8,0:0:0:0:
231,141,155177,1,8,0:0:0:0:
231,141,155240,1,0,0:0:0:0:
231,141,155365,1,0,0:0:0:0:
231,141,155490,1,8,0:0:0:0:
201,137,155552,1,0,0:0:0:0:
197,131,155615,1,8,0:0:0:0:
231,141,155677,1,8,0:0:0:0:
231,141,155740,1,0,0:0:0:0:
231,141,155802,1,0,0:0:0:0:
231,141,155865,1,8,0:0:0:0:
231,141,155990,1,8,0:0:0:0:
231,141,156052,1,0,0:0:0:0:
231,141,156115,1,0,0:0:0:0:
231,141,156177,1,0,0:0:0:0:
231,141,156240,1,8,0:0:0:0:
197,131,156302,1,8,0:0:0:0:
197,131,156365,1,0,0:0:0:0:
197,131,156427,1,8,0:0:0:0:
197,131,156490,1,0,0:0:0:0:
204,134,156615,1,0,0:0:0:0:
204,134,156677,1,0,0:0:0:0:
204,134,156740,1,8,0:0:0:0:
204,134,156802,1,8,0:0:0:0:
204,134,156865,1,0,0:0:0:0:
204,134,156990,1,12,0:0:0:0:
204,134,157115,1,8,0:0:0:0:
204,134,157177,1,8,0:0:0:0:
204,134,157240,1,0,0:0:0:0:
204,134,157302,1,8,0:0:0:0:
204,134,157365,1,0,0:0:0:0:
180,132,157490,1,8,0:0:0:0:
180,132,157552,1,0,0:0:0:0:
180,132,157615,1,0,0:0:0:0:
180,132,157677,1,0,0:0:0:0:
180,132,157740,1,8,0:0:0:0:
180,132,157865,1,0,0:0:0:0:
180,132,157990,1,12,0:0:0:0:
180,132,158115,1,0,0:0:0:0:
180,132,158177,1,8,0:0:0:0:
180,131,158240,1,0,0:0:0:0:
180,131,158302,1,0,0:0:0:0:
180,131,158365,1,8,0:0:0:0:
180,132,158490,1,8,0:0:0:0:
180,132,158552,1,0,0:0:0:0:
180,132,158615,1,8,0:0:0:0:
180,132,158677,1,8,0:0:0:0:
180,132,158740,1,0,0:0:0:0:
180,132,158802,1,0,0:0:0:0:
180,132,158865,1,8,0:0:0:0:
180,132,158990,1,12,0:0:0:0:
180,132,159115,1,0,0:0:0:0:
180,132,159177,1,0,0:0:0:0:
180,131,159240,1,8,0:0:0:0:
180,131,159365,1,0,0:0:0:0:
180,132,159490,1,8,0:0:0:0:
180,132,159552,1,0,0:0:0:0:
180,132,159615,1,8,0:0:0:0:
180,132,159677,1,0,0:0:0:0:
180,132,159740,1,8,0:0:0:0:
180,132,159802,1,8,0:0:0:0:
180,132,159865,1,0,0:0:0:0:
180,132,159927,1,0,0:0:0:0:
180,132,159990,1,8,0:0:0:0:
180,132,160115,1,8,0:0:0:0:
180,132,160177,1,0,0:0:0:0:
180,131,160240,1,8,0:0:0:0:
180,131,160302,1,8,0:0:0:0:
180,131,160365,1,0,0:0:0:0:
180,132,160427,1,0,0:0:0:0:
180,132,160490,1,8,0:0:0:0:
180,132,160615,1,0,0:0:0:0:
180,132,160677,1,8,0:0:0:0:
180,132,160740,1,8,0:0:0:0:
180,132,160865,1,8,0:0:0:0:
203,172,160990,5,0,0:0:0:0:
203,172,161052,1,0,0:0:0:0:
203,172,161115,1,0,0:0:0:0:
203,172,161177,1,0,0:0:0:0:
203,172,161240,1,12,0:0:0:0:
203,172,161490,1,0,0:0:0:0:
203,172,161552,1,0,0:0:0:0:
203,172,161615,1,0,0:0:0:0:
203,172,161677,1,0,0:0:0:0:
203,172,161740,1,12,0:0:0:0:
203,172,161990,1,8,0:0:0:0:
203,172,162031,1,0,0:0:0:0:
203,172,162073,1,0,0:0:0:0:
203,172,162115,1,8,0:0:0:0:
203,172,162156,1,0,0:0:0:0:
203,172,162198,1,0,0:0:0:0:
203,172,162240,1,8,0:0:0:0:
203,172,162490,1,8,0:0:0:0:
203,172,162521,1,8,0:0:0:0:
203,172,162552,1,0,0:0:0:0:
203,172,162583,1,0,0:0:0:0:
203,172,162615,1,8,0:0:0:0:
203,172,162646,1,8,0:0:0:0:
203,172,162677,1,0,0:0:0:0:
203,172,162708,1,0,0:0:0:0:
203,172,162740,1,8,0:0:0:0:
209,172,162865,1,0,0:0:0:0:
255,190,162990,5,12,0:0:0:0:
256,192,163052,12,0,163865,0:0:0:0:
255,190,163990,5,4,0:0:0:0:
245,183,164115,1,4,0:0:0:0:
245,183,164240,1,4,0:0:0:0:
245,183,164365,1,4,0:0:0:0:
245,183,164490,1,0,0:0:0:0:
245,183,164552,1,0,0:0:0:0:
245,183,164615,1,0,0:0:0:0:
245,183,164677,1,0,0:0:0:0:
245,183,164740,1,12,0:0:0:0:
255,190,164990,5,12,0:0:0:0:
255,190,165115,1,0,0:0:0:0:
255,190,165177,1,0,0:0:0:0:
255,190,165240,1,8,0:0:0:0:
255,190,165365,1,0,0:0:0:0:
248,189,165490,1,8,0:0:0:0:
249,189,165615,1,0,0:0:0:0:
249,189,165677,1,0,0:0:0:0:
249,189,165740,1,8,0:0:0:0:
249,189,165865,1,0,0:0:0:0:
249,189,165990,1,8,0:0:0:0:
249,189,166052,1,8,0:0:0:0:
249,189,166115,1,0,0:0:0:0:
249,189,166177,1,0,0:0:0:0:
249,189,166240,1,8,0:0:0:0:
249,189,166302,1,0,0:0:0:0:
249,189,166365,1,8,0:0:0:0:
248,189,166490,1,0,0:0:0:0:
249,189,166615,1,8,0:0:0:0:
249,189,166677,1,8,0:0:0:0:
249,189,166740,1,0,0:0:0:0:
249,189,166865,1,0,0:0:0:0:
249,189,166990,1,8,0:0:0:0:
249,189,167115,1,0,0:0:0:0:
249,189,167177,1,0,0:0:0:0:
249,189,167240,1,8,0:0:0:0:
249,189,167365,1,0,0:0:0:0:
248,189,167490,1,8,0:0:0:0:
249,189,167615,1,8,0:0:0:0:
249,189,167677,1,8,0:0:0:0:
249,189,167740,1,0,0:0:0:0:
249,189,167865,1,0,0:0:0:0:
249,189,167990,1,8,0:0:0:0:
249,189,168052,1,8,0:0:0:0:
249,189,168115,1,0,0:0:0:0:
249,189,168177,1,0,0:0:0:0:
249,189,168240,1,8,0:0:0:0:
249,189,168302,1,0,0:0:0:0:
249,189,168365,1,8,0:0:0:0:
248,189,168427,1,8,0:0:0:0:
248,189,168490,1,8,0:0:0:0:
249,189,168615,1,0,0:0:0:0:
249,189,168677,1,0,0:0:0:0:
249,189,168740,1,8,0:0:0:0:
249,189,168865,1,0,0:0:0:0:
249,189,168990,1,8,0:0:0:0:
249,189,169115,1,0,0:0:0:0:
249,189,169177,1,0,0:0:0:0:
249,189,169240,1,8,0:0:0:0:
249,189,169365,1,0,0:0:0:0:
248,189,169490,1,8,0:0:0:0:
249,189,169615,1,0,0:0:0:0:
249,189,169677,1,0,0:0:0:0:
249,189,169740,1,8,0:0:0:0:
249,189,169865,1,0,0:0:0:0:
249,189,169990,1,8,0:0:0:0:
249,189,170052,1,8,0:0:0:0:
249,189,170115,1,0,0:0:0:0:
249,189,170177,1,0,0:0:0:0:
249,189,170240,1,8,0:0:0:0:
249,189,170302,1,0,0:0:0:0:
249,189,170365,1,8,0:0:0:0:
248,189,170490,1,0,0:0:0:0:
256,187,170615,1,0,0:0:0:0:
256,187,170677,1,0,0:0:0:0:
256,187,170740,1,8,0:0:0:0:
256,187,170865,1,0,0:0:0:0:
256,187,170990,1,12,0:0:0:0:
250,180,171115,1,0,0:0:0:0:
250,180,171177,1,0,0:0:0:0:
250,180,171240,1,8,0:0:0:0:
250,180,171365,1,0,0:0:0:0:
250,180,171490,1,12,0:0:0:0:
250,180,171615,1,8,0:0:0:0:
250,180,171677,1,8,0:0:0:0:
250,180,171740,1,0,0:0:0:0:
250,180,171865,1,0,0:0:0:0:
250,182,171927,1,0,0:0:0:0:
250,182,171990,1,12,0:0:0:0:
250,180,172115,1,12,0:0:0:0:
250,180,172240,1,12,0:0:0:0:
250,180,172365,1,12,0:0:0:0:
250,180,172490,1,0,0:0:0:0:
250,180,172552,1,0,0:0:0:0:
250,180,172615,1,0,0:0:0:0:
250,180,172677,1,0,0:0:0:0:
250,180,172740,1,8,0:0:0:0:
250,180,172802,1,8,0:0:0:0:
250,180,172865,1,8,0:0:0:0:
250,182,172927,1,8,0:0:0:0:
250,182,172990,1,4,0:0:0:0:
256,192,173052,12,0,174990,0:0:0:0:
