osu file format v14

[General]
AudioFilename: audio.mp3
AudioLeadIn: 0
PreviewTime: 41990
Countdown: 0
SampleSet: Normal
StackLeniency: 0.7
Mode: 1
LetterboxInBreaks: 0
WidescreenStoryboard: 1

[Editor]
DistanceSpacing: 1.1
BeatDivisor: 4
GridSize: 32
TimelineZoom: 2.799999

[Metadata]
Title:Neunt Praeludium (yzrin Edit)
TitleUnicode:Neunt Praeludium (yzrin Edit)
Artist:Hitotsuyanagi-tai
ArtistUnicode:一柳隊
Creator:Ideal
Version:Futsuu
Source:アサルトリリィ BOUQUET
Tags:hardcore bootleg yuzurin yuzu__rinrin frenchcore electronic japanese assault lily asaruto riri anime lilycore remix 一柳梨璃 白井夢結 赤尾ひかる 夏吉ゆうこ Hitotsuyanagi Riri Shirai Yuyu Akao Hikaru Natsuyoshi Yuuko Kaede Johan Nouvel 楓・J・ヌーベル Izawa Mikako 井澤 美香子 Kuo Shenlin 郭神琳 Hoshimori Sana 星守 紗凪 Wang Yujia 王雨嘉 Tono Hikaru 遠野ひかる Futagawa Fumi 二川二水 Nishimoto Rimi 西本りみ Miriam Hildegard von Gropius ミリアム・ヒルデガルド・v・グロピウス Takahashi Karin 高橋花林 Yoshimura Thi Mai 吉村・Thi・梅 Iwata Haruki 岩田陽葵 Ando Tazusa 安藤鶴紗 Tsumugi Risa 紡木吏佐
BeatmapID:3615810
BeatmapSetID:1766179

[Difficulty]
HPDrainRate:7
CircleSize:5
OverallDifficulty:4.5
ApproachRate:5
SliderMultiplier:1.3
SliderTickRate:1

[Events]
//Background and Video events
0,0,"86725348_p0_master1200.jpg",0,100
//Break Periods
//Storyboard Layer 0 (Background)
//Storyboard Layer 1 (Fail)
//Storyboard Layer 2 (Pass)
//Storyboard Layer 3 (Foreground)
//Storyboard Layer 4 (Overlay)
//Storyboard Sound Samples

[TimingPoints]
1738,517.241379310345,4,1,0,65,1,0
1738,-62.5,4,1,0,65,0,0
7427,-100,4,1,0,75,0,0
7944,250,4,1,0,85,1,8
7990,250,4,1,0,85,1,0
23990,-100,4,1,0,85,0,0
37969,-100,4,1,0,85,0,0
39969,-100,4,1,0,85,0,0
41469,-100,4,1,0,85,0,0
41990,-100,4,1,0,90,0,1
48990,-100,4,1,0,90,0,0
49469,-100,4,1,0,85,0,0
49990,-100,4,1,0,90,0,1
57990,-100,4,1,0,90,0,0
58240,-100,4,1,0,90,0,0
58490,-100,4,1,0,90,0,0
58740,-100,4,1,0,90,0,0
58990,-100,4,1,0,90,0,0
59240,-100,4,1,0,90,0,0
59490,-100,4,1,0,90,0,0
59740,-100,4,1,0,90,0,0
59990,-100,4,1,0,85,0,0
74990,-100,4,1,0,85,0,0
75990,-100,4,1,0,85,0,0
93990,-100,4,1,0,90,0,1
100990,-100,4,1,0,90,0,0
101469,-100,4,1,0,85,0,0
101990,-100,4,1,0,90,0,1
109990,-100,4,1,0,90,0,0
110240,-100,4,1,0,90,0,0
110490,-100,4,1,0,90,0,0
110740,-100,4,1,0,90,0,0
110990,-100,4,1,0,90,0,0
111240,-100,4,1,0,90,0,0
111490,-100,4,1,0,90,0,0
111740,-100,4,1,0,90,0,0
111990,-100,4,1,0,90,0,0
113021,-50,4,1,0,85,0,0
113958,-90.9090909090909,4,1,0,85,0,0
115458,-100,4,1,0,85,0,0
129990,500,4,1,0,65,1,0
129990,-50,4,1,0,65,0,0
133990,250,4,1,0,85,1,0
144990,-100,4,1,0,75,0,0
148958,-100,4,1,0,85,0,0
152990,-100,4,1,0,90,0,1
160990,-100,4,1,0,90,0,0
161240,-100,4,1,0,90,0,0
161490,-100,4,1,0,90,0,0
161740,-100,4,1,0,90,0,0
161990,-100,4,1,0,90,0,0
162240,-100,4,1,0,90,0,0
162490,-100,4,1,0,90,0,0
162740,-100,4,1,0,90,0,0
162990,-100,4,1,0,90,0,0
163949,-100,4,1,0,90,0,0
164990,-100,4,1,0,85,0,0
172948,-100,4,1,0,85,0,0
173031,-100,4,1,0,85,0,0

[HitObjects]
253,181,3548,5,0,0:0:0:0:
253,181,3806,1,8,0:0:0:0:
253,181,4324,1,8,0:0:0:0:
253,181,4582,1,0,0:0:0:0:
253,181,4841,1,8,0:0:0:0:
253,181,5358,1,0,0:0:0:0:
257,182,5875,1,8,0:0:0:0:
257,182,6134,1,0,0:0:0:0:
253,181,6393,1,8,0:0:0:0:
257,182,6651,1,8,0:0:0:0:
257,182,6910,1,0,0:0:0:0:
256,192,7039,12,0,7815,0:0:0:0:
255,190,7990,5,12,0:0:0:0:
255,190,8240,1,0,0:0:0:0:
248,189,8490,1,8,0:0:0:0:
249,189,8615,1,0,0:0:0:0:
249,189,8740,1,0,0:0:0:0:
249,189,8990,1,8,0:0:0:0:
249,189,9115,1,0,0:0:0:0:
249,189,9240,1,8,0:0:0:0:
249,189,9365,1,0,0:0:0:0:
248,189,9490,1,8,0:0:0:0:
249,189,9990,1,8,0:0:0:0:
249,189,10240,1,0,0:0:0:0:
249,189,10365,1,0,0:0:0:0:
248,189,10490,1,8,0:0:0:0:
249,189,10615,1,8,0:0:0:0:
249,189,10740,1,0,0:0:0:0:
249,189,10990,1,8,0:0:0:0:
249,189,11240,1,8,0:0:0:0:
249,189,11365,1,0,0:0:0:0:
248,189,11490,1,8,0:0:0:0:
249,189,11740,1,0,0:0:0:0:
249,189,11990,1,8,0:0:0:0:
248,189,12490,1,8,0:0:0:0:
249,189,12615,1,0,0:0:0:0:
249,189,12740,1,0,0:0:0:0:
249,189,12990,1,8,0:0:0:0:
249,189,13115,1,0,0:0:0:0:
249,189,13240,1,8,0:0:0:0:
249,189,13365,1,0,0:0:0:0:
248,189,13490,1,8,0:0:0:0:
256,187,13740,1,0,0:0:0:0:
256,187,13990,1,8,0:0:0:0:
250,180,14490,1,8,0:0:0:0:
250,180,14740,1,0,0:0:0:0:
249,182,14865,1,0,0:0:0:0:
250,182,14990,1,8,0:0:0:0:
250,180,15115,1,8,0:0:0:0:
250,180,15240,1,8,0:0:0:0:
250,180,15365,1,8,0:0:0:0:
250,180,15490,1,0,0:0:0:0:
250,180,15740,1,8,0:0:0:0:
250,182,15990,1,4,0:0:0:0:
250,180,16490,1,0,0:0:0:0:
250,180,16740,1,8,0:0:0:0:
250,182,16990,1,0,0:0:0:0:
250,180,17240,1,8,0:0:0:0:
250,180,17490,1,8,0:0:0:0:
250,182,17990,1,8,0:0:0:0:
250,180,18490,1,8,0:0:0:0:
250,182,18740,1,0,0:0:0:0:
250,182,18990,1,0,0:0:0:0:
252,170,19490,1,8,0:0:0:0:
252,170,19990,1,0,0:0:0:0:
252,170,20240,1,8,0:0:0:0:
252,170,20490,1,8,0:0:0:0:
252,170,20990,1,8,0:0:0:0:
246,171,21240,1,0,0:0:0:0:
246,171,21490,1,8,0:0:0:0:
256,166,21990,1,8,0:0:0:0:
256,166,22240,1,8,0:0:0:0:
256,166,22490,1,0,0:0:0:0:
256,166,22990,1,0,0:0:0:0:
256,166,23240,1,12,0:0:0:0:
256,166,23490,1,12,0:0:0:0:
254,158,23740,1,12,0:0:0:0:
254,158,23990,1,4,0:0:0:0:
253,158,24490,1,0,0:0:0:0:
254,158,24740,1,8,0:0:0:0:
254,158,24865,1,0,0:0:0:0:
254,158,24990,1,8,0:0:0:0:
253,158,25115,1,0,0:0:0:0:
253,158,25240,1,0,0:0:0:0:
253,158,25490,1,8,0:0:0:0:
262,159,25740,1,0,0:0:0:0:
262,159,25990,1,8,0:0:0:0:
271,162,26490,1,0,0:0:0:0:
246,150,26615,1,8,0:0:0:0:
246,150,26740,1,0,0:0:0:0:
246,150,26865,1,8,0:0:0:0:
246,150,26990,1,8,0:0:0:0:
262,154,27240,1,8,0:0:0:0:
261,154,27490,1,0,0:0:0:0:
261,154,27740,1,0,0:0:0:0:
263,150,27990,1,12,0:0:0:0:
261,154,28490,1,12,0:0:0:0:
264,147,28740,1,0,0:0:0:0:
263,150,28865,1,0,0:0:0:0:
263,150,28990,1,12,0:0:0:0:
264,147,29240,1,8,0:0:0:0:
264,147,29365,1,0,0:0:0:0:
264,147,29490,1,0,0:0:0:0:
264,147,29615,1,0,0:0:0:0:
264,147,29740,1,8,0:0:0:0:
263,150,29990,1,12,0:0:0:0:
264,147,30490,1,0,0:0:0:0:
264,147,30615,1,0,0:0:0:0:
264,147,30740,1,0,0:0:0:0:
263,150,30990,1,12,0:0:0:0:
264,147,31365,1,8,0:0:0:0:
264,147,31490,1,0,0:0:0:0:
272,147,31740,1,8,0:0:0:0:
272,147,31990,1,8,0:0:0:0:
270,141,32490,1,0,0:0:0:0:
272,147,32740,1,8,0:0:0:0:
266,149,32865,1,8,0:0:0:0:
278,142,32990,1,0,0:0:0:0:
278,142,33240,1,8,0:0:0:0:
266,151,33490,1,0,0:0:0:0:
266,151,33615,1,0,0:0:0:0:
266,151,33740,1,8,0:0:0:0:
266,151,33990,1,12,0:0:0:0:
276,148,34490,1,8,0:0:0:0:
276,148,34615,1,0,0:0:0:0:
276,148,34740,1,8,0:0:0:0:
276,148,34865,1,0,0:0:0:0:
276,148,34990,1,0,0:0:0:0:
283,144,35240,1,0,0:0:0:0:
283,144,35365,1,0,0:0:0:0:
283,144,35490,1,8,0:0:0:0:
283,144,35615,1,8,0:0:0:0:
283,144,35740,1,0,0:0:0:0:
283,144,35990,1,8,0:0:0:0:
276,141,36490,1,0,0:0:0:0:
276,141,36740,1,8,0:0:0:0:
276,141,36865,1,8,0:0:0:0:
271,145,36990,1,0,0:0:0:0:
271,145,37240,1,8,0:0:0:0:
281,147,37490,1,0,0:0:0:0:
281,147,37615,1,0,0:0:0:0:
281,147,37740,1,8,0:0:0:0:
281,147,37990,1,12,0:0:0:0:
269,141,38490,1,0,0:0:0:0:
272,140,38615,1,8,0:0:0:0:
272,140,38740,1,8,0:0:0:0:
272,140,38865,1,0,0:0:0:0:
274,140,38990,1,8,0:0:0:0:
274,140,39240,1,0,0:0:0:0:
274,139,39365,1,8,0:0:0:0:
274,139,39490,1,0,0:0:0:0:
272,140,39740,1,0,0:0:0:0:
274,140,39990,1,12,0:0:0:0:
263,147,40490,1,4,0:0:0:0:
256,149,40990,1,8,0:0:0:0:
256,149,41240,1,0,0:0:0:0:
255,139,41490,1,0,0:0:0:0:
256,139,41615,1,0,0:0:0:0:
256,139,41740,1,12,0:0:0:0:
248,156,41990,1,12,0:0:0:0:
248,156,42240,1,0,0:0:0:0:
248,156,42365,1,0,0:0:0:0:
248,156,42490,1,8,0:0:0:0:
248,156,42615,1,0,0:0:0:0:
248,156,42740,1,8,0:0:0:0:
248,156,42990,1,8,0:0:0:0:
261,155,43240,1,8,0:0:0:0:
261,155,43365,1,0,0:0:0:0:
261,155,43490,1,0,0:0:0:0:
252,149,43990,1,8,0:0:0:0:
252,149,44240,1,0,0:0:0:0:
252,149,44365,1,8,0:0:0:0:
252,149,44490,1,0,0:0:0:0:
242,146,44615,1,0,0:0:0:0:
242,146,44740,1,8,0:0:0:0:
242,146,44990,1,8,0:0:0:0:
242,146,45240,1,0,0:0:0:0:
242,146,45365,1,8,0:0:0:0:
242,146,45490,1,8,0:0:0:0:
242,146,45990,1,12,0:0:0:0:
242,146,46240,1,8,0:0:0:0:
242,146,46365,1,0,0:0:0:0:
242,146,46490,1,8,0:0:0:0:
242,146,46615,1,0,0:0:0:0:
242,146,46740,1,0,0:0:0:0:
242,146,46990,1,12,0:0:0:0:
242,146,47240,1,0,0:0:0:0:
242,146,47365,1,8,0:0:0:0:
242,146,47490,1,0,0:0:0:0:
239,141,47615,1,0,0:0:0:0:
239,141,47740,1,8,0:0:0:0:
239,141,47990,1,12,0:0:0:0:
239,141,48490,1,12,0:0:0:0:
239,141,48990,1,8,0:0:0:0:
239,141,49177,1,8,0:0:0:0:
239,141,49365,1,8,0:0:0:0:
229,137,49490,1,0,0:0:0:0:
229,137,49740,1,12,0:0:0:0:
239,141,49990,1,12,0:0:0:0:
239,141,50490,1,8,0:0:0:0:
231,141,50615,1,8,0:0:0:0:
231,141,50740,1,0,0:0:0:0:
231,141,50865,1,0,0:0:0:0:
231,141,50990,1,8,0:0:0:0:
231,141,51240,1,0,0:0:0:0:
231,141,51365,1,0,0:0:0:0:
231,141,51490,1,8,0:0:0:0:
231,141,51990,1,8,0:0:0:0:
231,141,52240,1,8,0:0:0:0:
231,141,52365,1,0,0:0:0:0:
231,141,52490,1,8,0:0:0:0:
197,131,52615,1,8,0:0:0:0:
231,141,52740,1,0,0:0:0:0:
231,141,52990,1,0,0:0:0:0:
231,141,53240,1,0,0:0:0:0:
217,146,53365,1,8,0:0:0:0:
197,131,53490,1,8,0:0:0:0:
204,134,53990,1,12,0:0:0:0:
199,143,54240,1,0,0:0:0:0:
199,143,54365,1,0,0:0:0:0:
204,134,54490,1,8,0:0:0:0:
180,132,54615,1,8,0:0:0:0:
180,132,54740,1,0,0:0:0:0:
180,132,54990,1,12,0:0:0:0:
187,137,55240,1,8,0:0:0:0:
180,131,55365,1,8,0:0:0:0:
180,132,55490,1,0,0:0:0:0:
180,132,55615,1,8,0:0:0:0:
201,137,55740,1,0,0:0:0:0:
180,132,55990,1,12,0:0:0:0:
180,132,56490,1,8,0:0:0:0:
180,132,56615,1,0,0:0:0:0:
180,132,56740,1,0,0:0:0:0:
180,132,56865,1,0,0:0:0:0:
180,132,56990,1,8,0:0:0:0:
180,131,57240,1,0,0:0:0:0:
180,132,57490,1,8,0:0:0:0:
203,172,57990,5,0,0:0:0:0:
203,172,58115,1,0,0:0:0:0:
203,172,58240,1,8,0:0:0:0:
203,172,58490,1,0,0:0:0:0:
203,172,58615,1,0,0:0:0:0:
203,172,58740,1,8,0:0:0:0:
203,172,58990,1,8,0:0:0:0:
203,172,59115,1,8,0:0:0:0:
203,172,59240,1,0,0:0:0:0:
203,172,59490,1,8,0:0:0:0:
203,172,59615,1,8,0:0:0:0:
203,172,59740,1,0,0:0:0:0:
255,190,59990,5,12,0:0:0:0:
248,189,60490,1,8,0:0:0:0:
249,189,60615,1,0,0:0:0:0:
249,189,60740,1,0,0:0:0:0:
249,189,60990,1,8,0:0:0:0:
249,189,61115,1,0,0:0:0:0:
249,189,61240,1,8,0:0:0:0:
249,189,61365,1,0,0:0:0:0:
248,189,61490,1,8,0:0:0:0:
249,189,61990,1,8,0:0:0:0:
249,189,62240,1,0,0:0:0:0:
249,189,62365,1,0,0:0:0:0:
248,189,62490,1,8,0:0:0:0:
249,189,62615,1,8,0:0:0:0:
249,189,62740,1,0,0:0:0:0:
249,189,62990,1,8,0:0:0:0:
249,189,63240,1,8,0:0:0:0:
249,189,63365,1,0,0:0:0:0:
248,189,63490,1,8,0:0:0:0:
249,189,63740,1,0,0:0:0:0:
249,189,63990,1,8,0:0:0:0:
248,189,64490,1,8,0:0:0:0:
249,189,64615,1,0,0:0:0:0:
249,189,64740,1,0,0:0:0:0:
249,189,64990,1,8,0:0:0:0:
249,189,65115,1,0,0:0:0:0:
249,189,65240,1,8,0:0:0:0:
249,189,65365,1,0,0:0:0:0:
248,189,65490,1,8,0:0:0:0:
256,187,65740,1,0,0:0:0:0:
256,187,65990,1,8,0:0:0:0:
250,180,66490,1,8,0:0:0:0:
250,180,66740,1,0,0:0:0:0:
249,177,66865,1,0,0:0:0:0:
250,182,66990,1,8,0:0:0:0:
250,180,67115,1,8,0:0:0:0:
250,180,67240,5,8,0:0:0:0:
250,180,67365,1,8,0:0:0:0:
250,180,67490,1,0,0:0:0:0:
250,180,67740,1,8,0:0:0:0:
250,182,67990,1,4,0:0:0:0:
229,194,68490,1,8,0:0:0:0:
233,190,68740,1,8,0:0:0:0:
231,181,68865,1,0,0:0:0:0:
231,181,68990,1,8,0:0:0:0:
231,181,69115,1,0,0:0:0:0:
231,181,69240,1,0,0:0:0:0:
231,181,69490,1,8,0:0:0:0:
232,180,69740,1,0,0:0:0:0:
231,181,69865,1,0,0:0:0:0:
231,181,69990,1,8,0:0:0:0:
231,181,70490,1,0,0:0:0:0:
232,180,70615,1,0,0:0:0:0:
232,180,70740,1,8,0:0:0:0:
221,169,70865,1,8,0:0:0:0:
221,169,70990,1,0,0:0:0:0:
221,169,71240,1,0,0:0:0:0:
221,169,71490,1,8,0:0:0:0:
221,169,71990,1,0,0:0:0:0:
221,169,72240,1,8,0:0:0:0:
221,169,72490,1,8,0:0:0:0:
225,164,72740,1,0,0:0:0:0:
225,165,72865,1,0,0:0:0:0:
220,160,72990,1,8,0:0:0:0:
216,163,73240,1,8,0:0:0:0:
216,163,73490,1,0,0:0:0:0:
216,163,73990,1,8,0:0:0:0:
216,163,74240,1,8,0:0:0:0:
216,163,74365,1,0,0:0:0:0:
216,163,74490,1,0,0:0:0:0:
216,163,74615,1,0,0:0:0:0:
216,163,74740,1,8,0:0:0:0:
216,163,74990,1,4,0:0:0:0:
216,163,75240,1,12,0:0:0:0:
216,163,75490,1,12,0:0:0:0:
216,163,75740,1,12,0:0:0:0:
216,163,75990,1,4,0:0:0:0:
207,167,76490,1,8,0:0:0:0:
207,167,76740,1,0,0:0:0:0:
207,167,76865,1,8,0:0:0:0:
183,171,76990,1,0,0:0:0:0:
194,171,77115,1,0,0:0:0:0:
194,171,77240,1,8,0:0:0:0:
194,171,77490,1,0,0:0:0:0:
200,174,77740,1,0,0:0:0:0:
200,174,77990,1,8,0:0:0:0:
200,174,78490,1,8,0:0:0:0:
200,174,78615,1,0,0:0:0:0:
200,174,78740,1,8,0:0:0:0:
200,174,78865,1,8,0:0:0:0:
200,174,78990,1,0,0:0:0:0:
200,174,79240,1,8,0:0:0:0:
200,174,79490,1,8,0:0:0:0:
200,174,79740,1,0,0:0:0:0:
200,174,79990,1,12,0:0:0:0:
200,174,80490,1,12,0:0:0:0:
200,174,80740,1,0,0:0:0:0:
200,174,80865,1,0,0:0:0:0:
200,174,80990,1,12,0:0:0:0:
200,174,81240,1,8,0:0:0:0:
200,174,81365,1,0,0:0:0:0:
200,174,81490,1,0,0:0:0:0:
200,174,81615,1,0,0:0:0:0:
196,170,81740,1,8,0:0:0:0:
205,178,81990,1,12,0:0:0:0:
205,178,82490,1,0,0:0:0:0:
205,178,82615,1,0,0:0:0:0:
205,178,82740,1,0,0:0:0:0:
205,178,82990,1,12,0:0:0:0:
205,178,83365,1,8,0:0:0:0:
212,172,83490,1,0,0:0:0:0:
212,172,83740,1,12,0:0:0:0:
272,147,83990,1,0,0:0:0:0:
270,141,84490,1,0,0:0:0:0:
272,147,84740,1,8,0:0:0:0:
266,149,84865,1,8,0:0:0:0:
278,142,84990,1,0,0:0:0:0:
278,142,85240,1,8,0:0:0:0:
266,151,85490,1,0,0:0:0:0:
266,151,85615,1,0,0:0:0:0:
266,151,85740,1,8,0:0:0:0:
266,151,85990,1,12,0:0:0:0:
276,148,86490,1,8,0:0:0:0:
276,148,86615,1,0,0:0:0:0:
276,148,86740,1,8,0:0:0:0:
276,148,86865,1,0,0:0:0:0:
276,148,86990,1,0,0:0:0:0:
283,144,87240,1,0,0:0:0:0:
283,144,87365,1,0,0:0:0:0:
283,144,87490,1,8,0:0:0:0:
283,144,87615,1,8,0:0:0:0:
283,144,87740,1,0,0:0:0:0:
283,144,87990,1,8,0:0:0:0:
276,141,88490,1,0,0:0:0:0:
276,141,88740,1,8,0:0:0:0:
276,141,88865,1,8,0:0:0:0:
271,145,88990,1,0,0:0:0:0:
271,145,89240,1,8,0:0:0:0:
281,147,89490,1,0,0:0:0:0:
281,147,89615,1,0,0:0:0:0:
281,147,89740,1,8,0:0:0:0:
281,147,89990,1,12,0:0:0:0:
269,141,90490,1,0,0:0:0:0:
272,140,90615,1,8,0:0:0:0:
272,140,90740,1,8,0:0:0:0:
272,140,90865,1,0,0:0:0:0:
274,140,90990,1,8,0:0:0:0:
274,140,91240,1,0,0:0:0:0:
274,139,91365,1,8,0:0:0:0:
274,139,91490,1,0,0:0:0:0:
272,140,91740,1,0,0:0:0:0:
274,140,91990,1,8,0:0:0:0:
263,147,92490,1,0,0:0:0:0:
256,149,92990,1,8,0:0:0:0:
256,149,93240,5,0,0:0:0:0:
255,139,93490,1,0,0:0:0:0:
256,139,93615,1,0,0:0:0:0:
242,150,93740,1,0,0:0:0:0:
248,156,93990,1,12,0:0:0:0:
248,156,94240,1,0,0:0:0:0:
248,156,94365,1,0,0:0:0:0:
248,156,94490,1,8,0:0:0:0:
248,156,94615,1,0,0:0:0:0:
248,156,94740,1,8,0:0:0:0:
248,156,94990,1,8,0:0:0:0:
261,155,95240,1,8,0:0:0:0:
261,155,95365,1,0,0:0:0:0:
261,155,95490,1,0,0:0:0:0:
252,149,95990,1,8,0:0:0:0:
252,149,96240,1,0,0:0:0:0:
252,149,96365,1,8,0:0:0:0:
252,149,96490,1,0,0:0:0:0:
242,146,96615,1,0,0:0:0:0:
242,146,96740,1,8,0:0:0:0:
242,146,96990,1,8,0:0:0:0:
242,146,97240,1,0,0:0:0:0:
242,146,97365,1,8,0:0:0:0:
242,146,97490,1,8,0:0:0:0:
242,146,97990,1,12,0:0:0:0:
242,146,98240,1,8,0:0:0:0:
242,146,98365,1,0,0:0:0:0:
242,146,98490,1,8,0:0:0:0:
242,146,98615,1,0,0:0:0:0:
242,146,98740,1,0,0:0:0:0:
242,146,98990,1,12,0:0:0:0:
242,146,99240,1,0,0:0:0:0:
242,146,99365,1,8,0:0:0:0:
242,146,99490,1,0,0:0:0:0:
239,141,99615,1,0,0:0:0:0:
239,141,99740,1,8,0:0:0:0:
239,141,99990,1,12,0:0:0:0:
239,141,100490,1,12,0:0:0:0:
239,141,100990,1,8,0:0:0:0:
239,141,101177,1,8,0:0:0:0:
239,141,101365,1,8,0:0:0:0:
229,137,101490,1,0,0:0:0:0:
229,137,101740,1,12,0:0:0:0:
239,141,101990,1,12,0:0:0:0:
239,141,102490,1,8,0:0:0:0:
231,141,102615,1,8,0:0:0:0:
231,141,102740,1,0,0:0:0:0:
231,141,102865,1,0,0:0:0:0:
231,141,102990,1,8,0:0:0:0:
231,141,103240,1,0,0:0:0:0:
231,141,103365,1,0,0:0:0:0:
231,141,103490,1,8,0:0:0:0:
231,141,103990,1,8,0:0:0:0:
231,141,104240,1,8,0:0:0:0:
231,141,104365,1,0,0:0:0:0:
231,141,104490,1,8,0:0:0:0:
197,131,104615,1,8,0:0:0:0:
231,141,104740,1,0,0:0:0:0:
231,141,104990,1,0,0:0:0:0:
231,141,105240,1,0,0:0:0:0:
217,146,105365,1,8,0:0:0:0:
197,131,105490,1,8,0:0:0:0:
204,134,105990,1,12,0:0:0:0:
199,143,106240,1,0,0:0:0:0:
199,143,106365,1,0,0:0:0:0:
204,134,106490,1,8,0:0:0:0:
180,132,106615,1,8,0:0:0:0:
180,132,106740,1,0,0:0:0:0:
180,132,106990,1,12,0:0:0:0:
187,137,107240,1,8,0:0:0:0:
180,131,107365,1,8,0:0:0:0:
180,132,107490,1,0,0:0:0:0:
180,132,107615,1,8,0:0:0:0:
201,137,107740,1,0,0:0:0:0:
180,132,107990,1,12,0:0:0:0:
180,132,108490,1,8,0:0:0:0:
180,132,108615,1,0,0:0:0:0:
180,132,108740,1,0,0:0:0:0:
180,132,108865,1,0,0:0:0:0:
180,132,108990,1,8,0:0:0:0:
180,131,109240,1,0,0:0:0:0:
180,132,109490,1,8,0:0:0:0:
203,172,109990,5,0,0:0:0:0:
203,172,110115,1,0,0:0:0:0:
203,172,110240,1,8,0:0:0:0:
203,172,110490,1,0,0:0:0:0:
203,172,110615,1,0,0:0:0:0:
203,172,110740,1,8,0:0:0:0:
203,172,110990,1,8,0:0:0:0:
203,172,111115,1,8,0:0:0:0:
203,172,111240,1,0,0:0:0:0:
203,172,111490,1,8,0:0:0:0:
203,172,111615,1,8,0:0:0:0:
203,172,111740,5,0,0:0:0:0:
255,190,111990,5,12,0:0:0:0:
251,177,112990,1,4,0:0:0:0:
251,177,113990,5,4,0:0:0:0:
248,165,114240,1,4,0:0:0:0:
248,165,114490,1,4,0:0:0:0:
248,165,114740,1,4,0:0:0:0:
248,165,114990,1,4,0:0:0:0:
248,165,115240,1,4,0:0:0:0:
248,165,115490,1,8,0:0:0:0:
252,162,115990,1,0,0:0:0:0:
252,162,116240,1,0,0:0:0:0:
252,162,116365,1,0,0:0:0:0:
252,162,116490,1,8,0:0:0:0:
252,162,116990,1,8,0:0:0:0:
252,162,117240,1,8,0:0:0:0:
252,162,117490,1,8,0:0:0:0:
252,162,117990,1,0,0:0:0:0:
252,162,118240,1,0,0:0:0:0:
244,183,118365,1,8,0:0:0:0:
247,169,118490,1,0,0:0:0:0:
246,169,118615,1,8,0:0:0:0:
246,169,118740,1,8,0:0:0:0:
246,169,118990,1,0,0:0:0:0:
246,169,119240,1,8,0:0:0:0:
246,169,119365,1,0,0:0:0:0:
247,169,119490,1,0,0:0:0:0:
246,169,119615,1,8,0:0:0:0:
246,169,119740,1,0,0:0:0:0:
246,169,119990,1,8,0:0:0:0:
247,169,120490,1,8,0:0:0:0:
246,169,120615,1,8,0:0:0:0:
246,169,120740,1,0,0:0:0:0:
246,169,120990,1,8,0:0:0:0:
246,169,121115,1,8,0:0:0:0:
246,169,121240,1,0,0:0:0:0:
246,169,121365,1,8,0:0:0:0:
247,169,121490,1,0,0:0:0:0:
246,169,121740,1,12,0:0:0:0:
235,168,121990,1,4,0:0:0:0:
235,168,122365,1,4,0:0:0:0:
235,168,122615,1,4,0:0:0:0:
235,168,122865,1,4,0:0:0:0:
243,165,123240,1,0,0:0:0:0:
243,165,123365,1,0,0:0:0:0:
241,170,123490,1,0,0:0:0:0:
235,168,123740,1,12,0:0:0:0:
232,164,123990,1,4,0:0:0:0:
232,164,124365,1,4,0:0:0:0:
235,168,124615,1,4,0:0:0:0:
232,164,124865,1,4,0:0:0:0:
229,157,125240,1,0,0:0:0:0:
230,157,125365,1,0,0:0:0:0:
230,157,125490,1,0,0:0:0:0:
230,157,125740,1,12,0:0:0:0:
229,157,125990,1,4,0:0:0:0:
219,152,126490,1,8,0:0:0:0:
219,152,126740,1,0,0:0:0:0:
219,152,126865,1,0,0:0:0:0:
219,152,126990,1,8,0:0:0:0:
219,152,127240,1,0,0:0:0:0:
219,152,127490,1,0,0:0:0:0:
212,143,127740,1,8,0:0:0:0:
219,152,127865,1,0,0:0:0:0:
219,152,127990,1,8,0:0:0:0:
219,152,128240,1,0,0:0:0:0:
219,152,128365,1,8,0:0:0:0:
219,152,128490,1,0,0:0:0:0:
218,142,128740,1,0,0:0:0:0:
223,143,128990,1,8,0:0:0:0:
223,143,129115,1,0,0:0:0:0:
223,143,129240,1,0,0:0:0:0:
223,143,129365,1,0,0:0:0:0:
227,143,129490,1,8,0:0:0:0:
226,148,129740,1,0,0:0:0:0:
223,143,129990,1,8,0:0:0:0:
223,143,130240,1,0,0:0:0:0:
227,143,130490,1,8,0:0:0:0:
223,143,130990,1,8,0:0:0:0:
221,144,131490,1,8,0:0:0:0:
223,143,131990,1,0,0:0:0:0:
221,144,132240,1,8,0:0:0:0:
221,144,132490,1,0,0:0:0:0:
223,143,132990,1,8,0:0:0:0:
221,144,133490,1,0,0:0:0:0:
272,147,133990,1,8,0:0:0:0:
270,141,134490,1,0,0:0:0:0:
272,147,134740,1,8,0:0:0:0:
266,149,134865,1,8,0:0:0:0:
278,142,134990,1,0,0:0:0:0:
278,142,135240,1,8,0:0:0:0:
266,151,135490,1,0,0:0:0:0:
266,151,135615,1,0,0:0:0:0:
266,151,135740,1,8,0:0:0:0:
266,151,135990,1,12,0:0:0:0:
276,148,136490,1,8,0:0:0:0:
276,148,136615,1,0,0:0:0:0:
276,148,136740,1,8,0:0:0:0:
276,148,136865,1,0,0:0:0:0:
276,148,136990,1,0,0:0:0:0:
283,144,137240,1,0,0:0:0:0:
283,144,137365,1,0,0:0:0:0:
283,144,137490,1,8,0:0:0:0:
283,144,137615,1,8,0:0:0:0:
283,144,137740,1,0,0:0:0:0:
283,144,137990,1,8,0:0:0:0:
276,141,138490,1,0,0:0:0:0:
276,141,138740,1,8,0:0:0:0:
276,141,138865,1,8,0:0:0:0:
271,145,138990,1,0,0:0:0:0:
271,145,139240,1,8,0:0:0:0:
281,147,139490,1,0,0:0:0:0:
281,147,139615,1,0,0:0:0:0:
281,147,139740,1,8,0:0:0:0:
281,147,139990,1,12,0:0:0:0:
269,141,140490,1,0,0:0:0:0:
272,140,140615,1,8,0:0:0:0:
272,140,140740,1,8,0:0:0:0:
272,140,140865,1,0,0:0:0:0:
274,140,140990,1,8,0:0:0:0:
274,140,141240,1,0,0:0:0:0:
274,139,141365,1,8,0:0:0:0:
274,139,141490,1,0,0:0:0:0:
272,140,141740,1,0,0:0:0:0:
274,140,141990,1,12,0:0:0:0:
263,147,142490,1,4,0:0:0:0:
256,149,142990,5,8,0:0:0:0:
256,149,143240,1,0,0:0:0:0:
255,139,143490,1,0,0:0:0:0:
256,192,143740,12,0,144740,0:0:0:0:
257,188,144990,5,8,0:0:0:0:
257,188,145240,1,0,0:0:0:0:
257,188,145490,1,8,0:0:0:0:
257,188,145990,1,8,0:0:0:0:
257,188,146490,1,0,0:0:0:0:
257,188,146990,1,8,0:0:0:0:
257,188,147240,1,0,0:0:0:0:
257,188,147490,1,0,0:0:0:0:
257,188,147990,1,8,0:0:0:0:
261,184,148490,1,0,0:0:0:0:
266,166,148990,1,12,0:0:0:0:
266,166,149365,1,12,0:0:0:0:
255,171,149740,1,0,0:0:0:0:
270,172,149990,1,12,0:0:0:0:
270,172,150365,1,12,0:0:0:0:
251,177,150740,1,0,0:0:0:0:
275,176,150990,1,8,0:0:0:0:
275,176,151240,1,0,0:0:0:0:
275,176,151365,1,0,0:0:0:0:
275,176,151490,1,0,0:0:0:0:
275,176,151615,1,0,0:0:0:0:
275,176,151740,1,0,0:0:0:0:
275,176,151990,1,12,0:0:0:0:
275,176,152365,1,12,0:0:0:0:
239,141,152990,1,12,0:0:0:0:
239,141,153490,1,8,0:0:0:0:
231,141,153615,1,8,0:0:0:0:
231,141,153740,1,0,0:0:0:0:
231,141,153865,1,0,0:0:0:0:
231,141,153990,1,8,0:0:0:0:
231,141,154240,1,0,0:0:0:0:
231,141,154365,1,0,0:0:0:0:
231,141,154490,1,8,0:0:0:0:
231,141,154990,1,8,0:0:0:0:
231,141,155240,1,8,0:0:0:0:
231,141,155365,1,0,0:0:0:0:
231,141,155490,1,8,0:0:0:0:
197,131,155615,1,8,0:0:0:0:
231,141,155740,1,0,0:0:0:0:
231,141,155990,1,0,0:0:0:0:
231,141,156240,1,0,0:0:0:0:
217,146,156365,1,8,0:0:0:0:
197,131,156490,1,8,0:0:0:0:
204,134,156990,1,12,0:0:0:0:
199,143,157240,1,0,0:0:0:0:
199,143,157365,1,0,0:0:0:0:
204,134,157490,1,8,0:0:0:0:
180,132,157615,1,8,0:0:0:0:
180,132,157740,1,0,0:0:0:0:
180,132,157990,1,12,0:0:0:0:
187,137,158240,1,8,0:0:0:0:
180,131,158365,1,8,0:0:0:0:
180,132,158490,1,0,0:0:0:0:
180,132,158615,1,8,0:0:0:0:
201,137,158740,1,0,0:0:0:0:
180,132,158990,1,12,0:0:0:0:
180,132,159490,1,8,0:0:0:0:
180,132,159615,1,0,0:0:0:0:
180,132,159740,1,0,0:0:0:0:
180,132,159865,1,0,0:0:0:0:
180,132,159990,1,8,0:0:0:0:
180,131,160240,1,0,0:0:0:0:
180,132,160490,1,8,0:0:0:0:
203,172,160990,5,0,0:0:0:0:
203,172,161115,1,0,0:0:0:0:
203,172,161240,1,8,0:0:0:0:
203,172,161490,1,0,0:0:0:0:
203,172,161615,1,0,0:0:0:0:
203,172,161740,1,8,0:0:0:0:
203,172,161990,1,8,0:0:0:0:
203,172,162115,1,8,0:0:0:0:
203,172,162240,1,0,0:0:0:0:
203,172,162490,1,8,0:0:0:0:
203,172,162615,1,8,0:0:0:0:
203,172,162740,1,0,0:0:0:0:
255,190,162990,5,12,0:0:0:0:
255,190,163990,5,0,0:0:0:0:
245,183,164115,1,0,0:0:0:0:
245,183,164240,1,0,0:0:0:0:
245,183,164365,1,0,0:0:0:0:
245,183,164490,1,0,0:0:0:0:
245,183,164740,1,12,0:0:0:0:
255,190,164990,5,12,0:0:0:0:
255,190,165240,1,0,0:0:0:0:
248,189,165490,1,8,0:0:0:0:
249,189,165615,1,0,0:0:0:0:
249,189,165740,1,0,0:0:0:0:
249,189,165990,1,8,0:0:0:0:
249,189,166115,1,0,0:0:0:0:
249,189,166240,1,8,0:0:0:0:
249,189,166365,1,0,0:0:0:0:
248,189,166490,1,8,0:0:0:0:
249,189,166990,1,8,0:0:0:0:
249,189,167240,1,0,0:0:0:0:
249,189,167365,1,0,0:0:0:0:
248,189,167490,1,8,0:0:0:0:
249,189,167615,1,8,0:0:0:0:
249,189,167740,1,0,0:0:0:0:
249,189,167990,1,8,0:0:0:0:
249,189,168240,1,8,0:0:0:0:
249,189,168365,1,0,0:0:0:0:
248,189,168490,1,8,0:0:0:0:
249,189,168740,1,0,0:0:0:0:
249,189,168990,1,8,0:0:0:0:
248,189,169490,1,8,0:0:0:0:
249,189,169615,1,0,0:0:0:0:
249,189,169740,1,0,0:0:0:0:
249,189,169990,1,8,0:0:0:0:
249,189,170115,1,0,0:0:0:0:
249,189,170240,1,8,0:0:0:0:
249,189,170365,1,0,0:0:0:0:
248,189,170490,1,8,0:0:0:0:
256,187,170740,1,0,0:0:0:0:
256,187,170990,1,8,0:0:0:0:
250,180,171490,1,8,0:0:0:0:
250,180,171740,1,0,0:0:0:0:
250,180,171865,1,0,0:0:0:0:
250,182,171990,5,8,0:0:0:0:
250,180,172115,1,8,0:0:0:0:
250,180,172240,1,8,0:0:0:0:
250,180,172365,1,8,0:0:0:0:
250,180,172490,1,0,0:0:0:0:
250,180,172740,1,8,0:0:0:0:
250,182,172990,1,4,0:0:0:0:
256,192,173115,12,0,174990,0:0:0:0:
