osu file format v14

[General]
AudioFilename: audio.mp3
AudioLeadIn: 0
PreviewTime: 48504
Countdown: 0
SampleSet: Soft
StackLeniency: 0.7
Mode: 0
LetterboxInBreaks: 0
WidescreenStoryboard: 1

[Editor]
DistanceSpacing: 1.2
BeatDivisor: 4
GridSize: 32
TimelineZoom: 3.499999

[Metadata]
Title:GROWING* (TV Size)
TitleUnicode:GROWING* (TV Size)
Artist:Hitotsuyanagi-tai
ArtistUnicode:一柳隊
Creator:SkyZaf
Version:Sekai's Cute INSANE
Source:アサルトリリィ BOUQUET
Tags:kpmy sightread [yoshino] suimya sekai sekaii sekai-nyan -nanoripe- freezinganimenz assault lily ブーケ ラスバレ last bullet episode 8 ed ending short version anime japanese pop jpop j-pop tai hitotsuyanagi riri ひとつやなぎ りり 一柳梨璃 akao hikaru あかお ひかる 赤尾ひかる shirai yuyu しらい ゆゆ 白井夢結 natsuyoshi yuuko なつよし ゆうこ 夏吉ゆうこ kaede johan nouvel かえで ぬーべる 楓・j・ヌーベル izawa mikako いざわ みかこ 井澤美香子 futagawa fumi ふたがわ ふみ 二川二水 nishimoto rimi にしもと りみ 西本りみ ando tazusa あんどう たずさ 安藤鶴紗 tsumugi risa つむぎ りさ 紡木吏佐 yoshimura thi mai よしむら まい 吉村・thi・梅 iwata haruki いわた はるき 岩田陽葵 kuo shenlin 郭神琳 hoshimori sana ほしもり さな 星守紗凪 wang yujia 王雨嘉 tono とおの 遠野ひかる miliam miriam hildegard von guropius みりあむ ひるでがるど ぐろぴうす ミリアム・ヒルデガルド・v・グロピウス takahashi karin たかはし かりん 高橋花林
BeatmapID:4495750
BeatmapSetID:2130981

[Difficulty]
HPDrainRate:6
CircleSize:3.8
OverallDifficulty:8
ApproachRate:9
SliderMultiplier:1.6
SliderTickRate:1

[Events]
//Background and Video events
0,0,"Insane.jpg",0,0
Video,-1050,"ed 8.mp4"
//Break Periods
//Storyboard Layer 0 (Background)
//Storyboard Layer 1 (Fail)
//Storyboard Layer 2 (Pass)
//Storyboard Layer 3 (Foreground)
//Storyboard Layer 4 (Overlay)
//Storyboard Sound Samples

[TimingPoints]
426,315.789473684211,4,2,1,75,1,0
583,-100,4,2,1,55,0,0
1531,-142.857142857143,4,2,1,58,0,0
6741,-100,4,2,1,65,0,0
10531,-111.111111111111,4,2,1,65,0,0
11794,-125,4,2,1,60,0,0
16847,-100,4,2,1,65,0,0
21899,-111.111111111111,4,2,1,63,0,0
32004,-142.857142857143,4,2,1,60,0,0
37057,-111.111111111111,4,2,1,63,0,0
39583,-111.111111111111,4,2,1,60,0,0
47162,-100,4,2,1,65,0,0
49452,-100,4,2,1,5,0,0
49531,-90.9090909090909,4,2,1,75,0,1
69899,-83.3333333333333,4,2,1,80,0,1
72426,-90.9090909090909,4,2,1,75,0,0
74952,-100,4,2,1,70,0,0
80004,-90.9090909090909,4,2,1,80,0,0
85057,-100,4,2,1,70,0,0
86162,-100,4,2,1,75,0,0
87426,-125,4,2,1,75,0,0
89478,-125,4,2,1,75,0,0

[Colours]
Combo1 : 255,128,192
Combo2 : 132,186,240

[HitObjects]
32,106,1531,6,0,P|99:115|135:81,1,111.999996582031,6|2,1:2|0:0,0:0:0:0:
225,30,2004,2,0,L|238:106,1,55.9999982910157,2|2,0:0|0:0,0:0:0:0:
316,154,2320,1,2,0:0:0:0:
316,154,2478,2,0,L|325:98,1,55.9999982910157,2|0,0:0|0:0,0:0:0:0:
499,98,2794,6,0,B|452:116|452:116|452:128|452:128|389:152,1,111.999996582031,2|2,0:0|0:0,0:0:0:0:
316,154,3268,2,0,L|329:230,1,55.9999982910157,2|2,0:0|0:0,0:0:0:0:
407,278,3584,1,2,0:0:0:0:
407,278,3742,2,0,L|416:222,1,55.9999982910157,2|0,0:0|0:0,0:0:0:0:
289,307,4057,6,0,P|233:321|178:283,1,111.999996582031,2|2,0:0|0:0,0:0:0:0:
66,242,4531,2,0,L|124:231,1,55.9999982910157,2|2,0:0|0:0,0:0:0:0:
182,151,4847,1,2,0:0:0:0:
87,99,5004,2,0,L|96:154,1,55.9999982910157,2|0,0:0|0:0,0:0:0:0:
285,237,5320,6,0,B|309:236|326:220|326:220|279:328,1,139.999995727539,2|0,0:0|0:0,0:0:0:0:
368,342,5794,2,0,P|425:351|469:308,1,111.999996582031,2|2,0:0|0:0,0:0:0:0:
486,201,6268,5,8,0:0:0:0:
486,201,6347,1,8,0:0:0:0:
486,201,6426,2,0,L|384:183,1,83.9999974365235,2|0,1:2|0:0,0:0:0:0:
280,171,6741,6,0,P|336:149|360:90,1,120,6|0,1:2|0:0,0:0:0:0:
271,51,7057,2,0,L|279:98,3,40,10|8|8|0,0:0|0:0|0:0|0:0,0:0:0:0:
200,134,7373,6,0,B|158:123|158:123|133:130|133:130|75:119,1,120,2|0,1:2|0:0,0:0:0:0:
13,157,7689,2,0,L|19:196,3,40,8|8|0|0,0:0|0:0|1:2|0:0,0:0:0:0:
44,276,8004,6,0,L|162:255,1,120,2|0,1:2|0:0,0:0:0:0:
241,270,8320,2,0,L|235:309,3,40,10|8|8|0,0:0|0:0|0:0|0:0,0:0:0:0:
327,316,8636,6,0,P|383:326|424:306,1,80,2|0,1:2|0:0,0:0:0:0:
491,231,8952,2,0,L|407:216,1,80,2|0,0:0|0:0,0:0:0:0:
292,142,9268,5,10,0:0:0:0:
432,108,9426,1,8,0:0:0:0:
335,232,9583,1,10,0:0:0:0:
335,232,9899,5,10,0:0:0:0:
209,70,10057,1,8,0:0:0:0:
216,250,10215,1,10,0:0:0:0:
216,250,10531,6,0,P|243:181|275:107,1,143.999995605469,6|0,1:2|1:2,0:0:0:0:
132,76,11004,1,0,0:0:0:0:
222,0,11162,2,0,L|206:88,1,71.9999978027344,2|8,1:2|0:0,0:0:0:0:
144,146,11478,2,0,L|131:75,1,71.9999978027344,2|0,1:2|0:0,0:0:0:0:
25,256,11794,6,0,P|57:236|143:250,1,128,6|0,1:2|0:0,0:0:0:0:
190,332,12268,1,0,1:2:0:0:
82,371,12426,2,0,L|95:292,1,64,2|0,0:0|1:2,0:0:0:0:
130,185,12741,2,0,L|142:249,1,64,8|0,0:0|0:0,0:0:0:0:
190,332,13057,6,0,L|328:307,1,128,2|2,1:2|0:0,0:0:0:0:
392,262,13531,1,0,1:2:0:0:
392,262,13689,2,0,P|379:233|383:201,1,64,2|0,0:0|1:2,0:0:0:0:
415,114,14004,2,0,L|339:127,1,64,10|0,0:0|0:0,0:0:0:0:
257,45,14320,6,0,B|179:28|199:73|127:57,1,128,2|0,1:2|0:0,0:0:0:0:
42,84,14794,2,0,L|52:152,1,64,0|0,1:2|0:0,0:0:0:0:
144,208,15110,1,0,1:2:0:0:
144,208,15268,2,0,L|153:144,1,64,10|2,0:0|0:0,0:0:0:0:
278,260,15583,6,0,P|223:259|179:316,1,128,0|0,1:2|0:0,0:0:0:0:
295,348,16057,2,0,L|364:335,1,64,0|0,1:2|0:0,0:0:0:0:
455,232,16373,1,8,0:0:0:0:
348,209,16531,1,8,0:0:0:0:
437,338,16689,1,2,0:0:0:0:
468,153,16847,6,0,L|452:238,1,80,6|2,1:2|0:0,0:0:0:0:
358,124,17162,2,0,L|344:45,1,80,10|0,0:0|0:0,0:0:0:0:
505,51,17478,2,0,P|458:70|426:64,1,80,2|2,1:2|1:2,0:0:0:0:
348,209,17794,5,10,0:0:0:0:
348,209,17952,2,0,L|202:182,1,120,2|0,0:0|0:0,0:0:0:0:
151,196,18268,2,0,L|166:275,1,80,2|8,1:2|0:0,0:0:0:0:
259,362,18583,2,0,L|273:283,1,80,2|0,0:0|1:2,0:0:0:0:
348,209,18899,1,2,1:2:0:0:
434,331,19057,2,0,L|355:345,1,80,10|0,0:0|0:0,0:0:0:0:
288,142,19373,6,0,P|334:125|431:171,2,160,2|8|0,1:2|0:0|1:2,0:0:0:0:
164,85,20162,1,0,1:2:0:0:
275,27,20320,1,8,0:0:0:0:
208,165,20478,6,0,L|119:180,1,80,0|0,1:2|0:0,0:0:0:0:
0,265,20794,2,0,L|88:280,1,80,8|0,0:0|1:2,0:0:0:0:
202,360,21110,2,0,L|187:277,1,80,8|2,0:0|1:2,0:0:0:0:
272,163,21426,1,8,0:0:0:0:
362,272,21583,2,0,P|326:292|277:286,1,80,10|0,0:0|0:0,0:0:0:0:
469,339,21899,6,0,L|441:184,1,143.999995605469,6|8,1:2|0:0,0:0:0:0:
344,63,22373,1,0,0:0:0:0:
272,163,22531,2,0,P|322:169|350:149,2,71.9999978027344,2|0|8,1:2|1:2|0:0,0:0:0:0:
202,104,23004,1,0,0:0:0:0:
149,282,23162,5,2,1:2:0:0:
255,240,23320,1,0,1:2:0:0:
141,174,23478,2,0,L|60:188,1,71.9999978027344,10|0,0:0|0:0,0:0:0:0:
136,352,23794,2,0,L|148:281,1,71.9999978027344,2|0,1:2|1:2,0:0:0:0:
242,169,24110,2,0,L|254:239,1,71.9999978027344,10|0,0:0|0:0,0:0:0:0:
372,334,24426,6,0,P|415:349|468:318,1,107.999996704102,2|0,1:2|0:0,0:0:0:0:
499,245,24741,1,8,0:0:0:0:
370,212,24899,1,0,0:0:0:0:
457,116,25057,2,0,L|443:190,1,71.9999978027344,2|0,1:2|1:2,0:0:0:0:
325,107,25373,1,8,0:0:0:0:
277,244,25531,5,10,0:0:0:0:
277,244,25610,1,10,0:0:0:0:
277,244,25689,2,0,P|234:255|199:231,1,71.9999978027344,2|0,1:2|1:2,0:0:0:0:
100,290,26004,2,0,L|113:219,1,71.9999978027344,8|0,0:0|0:0,0:0:0:0:
164,99,26320,1,2,1:2:0:0:
210,243,26478,1,2,1:2:0:0:
90,145,26636,1,10,0:0:0:0:
246,60,26794,5,2,1:2:0:0:
246,60,26873,1,8,0:0:0:0:
246,60,26952,2,0,P|304:42|377:78,1,143.999995605469,4|8,1:2|0:0,0:0:0:0:
472,152,27426,1,0,1:2:0:0:
472,152,27504,1,8,0:0:0:0:
472,152,27583,2,0,L|392:165,1,71.9999978027344,2|0,1:2|1:2,0:0:0:0:
295,214,27899,1,10,0:0:0:0:
369,306,28057,6,0,P|412:322|494:265,1,143.999995605469,2|0,1:2|1:2,0:0:0:0:
400,163,28531,2,0,L|413:239,1,71.9999978027344,10|0,0:0|1:2,0:0:0:0:
275,367,28847,1,10,0:0:0:0:
295,214,29004,1,2,1:2:0:0:
369,306,29162,1,10,0:0:0:0:
199,280,29320,6,0,B|141:265|141:265|115:275|115:275|61:257,1,143.999995605469,6|0,1:2|1:2,0:0:0:0:
120,121,29794,2,0,P|102:160|111:191,1,71.9999978027344,8|0,0:0|1:2,0:0:0:0:
216,125,30110,1,8,0:0:0:0:
142,30,30268,1,0,1:2:0:0:
142,30,30426,2,0,L|57:44,1,71.9999978027344,8|0,0:0|1:2,0:0:0:0:
216,125,30741,6,0,P|266:131|292:111,1,71.9999978027344,8|0,0:0|1:2,0:0:0:0:
375,38,31057,2,0,L|388:111,1,71.9999978027344,8|8,0:0|0:0,0:0:0:0:
387,108,31294,1,8,0:0:0:0:
387,108,31373,1,0,1:2:0:0:
475,186,31531,1,0,1:2:0:0:
392,229,31689,1,0,1:2:0:0:
310,274,31847,1,10,0:0:0:0:
410,331,32004,6,0,P|418:274|371:215,1,111.999996582031,6|0,1:2|0:0,0:0:0:0:
310,274,32478,1,2,1:2:0:0:
310,274,32636,2,0,L|195:294,1,111.999996582031,10|0,0:0|0:0,0:0:0:0:
108,269,33110,5,0,1:2:0:0:
108,269,33189,1,8,0:0:0:0:
108,269,33268,2,0,P|99:236|104:206,1,55.9999982910157,2|10,1:2|0:0,0:0:0:0:
78,126,33583,2,0,B|143:113|126:149|197:128,2,111.999996582031,2|10|0,1:2|0:0|0:0,0:0:0:0:
189,209,34373,1,10,0:0:0:0:
268,62,34531,6,0,L|146:39,1,111.999996582031,2|0,1:2|0:0,0:0:0:0:
187,130,35004,1,2,1:2:0:0:
268,62,35162,1,10,0:0:0:0:
287,152,35320,2,0,L|352:140,1,55.9999982910157,2|0,0:0|0:0,0:0:0:0:
474,138,35636,5,2,1:2:0:0:
474,138,35715,1,8,0:0:0:0:
474,138,35794,2,0,P|486:165|482:196,1,55.9999982910157,2|8,1:2|0:0,0:0:0:0:
502,278,36110,2,0,L|437:266,1,55.9999982910157,2|0,1:2|0:0,0:0:0:0:
344,346,36426,2,0,L|367:214,1,111.999996582031,10|8,0:0|0:0,0:0:0:0:
207,317,36899,5,10,0:0:0:0:
207,317,36978,1,8,0:0:0:0:
207,317,37057,2,0,L|131:330,1,71.9999978027344,6|0,1:2|0:0,0:0:0:0:
15,271,37373,1,8,0:0:0:0:
128,175,37531,1,2,1:2:0:0:
128,175,37610,1,8,0:0:0:0:
128,175,37689,2,0,L|141:250,1,71.9999978027344,2|0,1:2|1:2,0:0:0:0:
18,188,38004,1,8,0:0:0:0:
114,85,38162,1,0,0:0:0:0:
215,211,38320,6,0,P|273:201|293:172,1,71.9999978027344,2|0,1:2|1:2,0:0:0:0:
245,40,38636,1,10,0:0:0:0:
350,94,38794,1,0,1:2:0:0:
350,94,38873,1,8,0:0:0:0:
350,94,38952,2,0,L|203:137,1,143.999995605469,2|8,1:2|0:0,0:0:0:0:
99,164,39426,1,0,1:2:0:0:
219,299,39583,5,10,0:0:0:0:
219,299,41636,5,8,0:0:0:0:
346,232,41794,1,8,0:0:0:0:
189,190,41952,1,8,0:0:0:0:
335,112,42110,1,10,0:0:0:0:
335,112,44162,5,8,0:0:0:0:
306,294,44320,1,8,0:0:0:0:
211,146,44478,1,8,0:0:0:0:
395,213,44636,1,10,0:0:0:0:
395,213,45741,5,2,1:2:0:0:
395,213,45820,1,0,1:2:0:0:
395,213,45899,1,8,0:0:0:0:
164,341,46689,5,8,0:0:0:0:
280,186,46847,1,8,0:0:0:0:
98,243,47004,1,8,0:0:0:0:
198,98,47162,6,0,L|184:176,1,80,6|2,1:2|1:2,0:0:0:0:
294,264,47478,2,0,L|280:186,1,80,10|0,0:0|1:2,0:0:0:0:
375,56,47794,1,10,0:0:0:0:
388,184,47952,1,2,1:2:0:0:
271,102,48110,1,10,0:0:0:0:
451,75,48268,2,0,P|454:37|429:-3,1,80,2|0,1:2|0:0,0:0:0:0:
271,102,48583,5,10,0:0:0:0:
271,102,48662,1,8,0:0:0:0:
271,102,48741,2,0,L|349:88,1,80,10|2,0:0|1:2,0:0:0:0:
207,8,49057,1,10,0:0:0:0:
158,121,49215,2,0,P|141:165|175:231,1,120,10|0,0:0|0:0,0:0:0:0:
240,295,49531,6,0,B|166:309|166:309|134:302|134:302|62:315,1,176.000005371094,6|2,1:2|1:2,0:0:0:0:
0,201,50004,1,10,0:0:0:0:
95,92,50162,1,0,1:2:0:0:
95,92,50241,1,8,0:0:0:0:
95,92,50320,2,0,L|112:189,1,88.000002685547,2|2,1:2|1:2,0:0:0:0:
259,41,50636,1,8,0:0:0:0:
322,134,50794,6,0,P|261:158|175:95,1,176.000005371094,2|2,1:2|1:2,0:0:0:0:
311,311,51268,2,0,L|326:224,1,88.000002685547,10|2,0:0|0:0,0:0:0:0:
428,112,51583,1,2,1:2:0:0:
447,252,51741,1,2,1:2:0:0:
322,134,51899,1,8,0:0:0:0:
493,63,52057,6,0,B|515:63|538:49|538:49|490:176,1,176.000005371094,2|2,1:2|1:2,0:0:0:0:
462,338,52531,2,0,L|446:251,1,88.000002685547,10|2,0:0|0:0,0:0:0:0:
322,134,52847,1,2,1:2:0:0:
271,302,53004,2,0,L|357:286,1,88.000002685547,2|8,1:2|0:0,0:0:0:0:
190,176,53320,6,0,P|104:167|45:236,1,176.000005371094,2|0,1:2|1:2,0:0:0:0:
162,343,53794,2,0,L|146:253,1,88.000002685547,8|0,0:0|0:0,0:0:0:0:
17,131,54110,1,0,1:2:0:0:
19,305,54268,1,0,1:2:0:0:
108,164,54426,1,8,0:0:0:0:
237,285,54583,5,2,1:2:0:0:
237,285,54662,1,8,0:0:0:0:
237,285,54741,2,0,B|336:260|314:318|415:286,1,176.000005371094,6|8,1:2|0:0,0:0:0:0:
287,361,55215,1,0,0:0:0:0:
369,212,55373,2,0,L|352:119,1,88.000002685547,2|2,1:2|1:2,0:0:0:0:
496,261,55689,2,0,L|480:347,1,88.000002685547,10|0,0:0|1:2,0:0:0:0:
479,347,55926,5,8,0:0:0:0:
479,347,56004,1,2,1:2:0:0:
369,212,56162,1,0,1:2:0:0:
512,159,56320,1,10,0:0:0:0:
409,66,56478,1,0,1:2:0:0:
409,66,56557,1,8,0:0:0:0:
409,66,56636,2,0,L|424:152,1,88.000002685547,2|0,1:2|1:2,0:0:0:0:
297,84,56952,1,10,0:0:0:0:
257,226,57110,5,0,1:2:0:0:
257,226,57189,1,8,0:0:0:0:
257,226,57268,2,0,P|211:235|128:146,1,176.000005371094,6|10,1:2|0:0,0:0:0:0:
96,290,57741,1,0,1:2:0:0:
209,153,57899,2,0,L|189:50,1,88.000002685547,10|0,0:0|1:2,0:0:0:0:
37,121,58215,1,10,0:0:0:0:
96,290,58373,6,0,L|113:191,1,88.000002685547,2|0,1:2|0:0,0:0:0:0:
201,109,58689,1,10,0:0:0:0:
201,109,58768,1,8,0:0:0:0:
201,109,58847,2,0,L|210:165,1,44.0000013427735,10|8,0:0|0:0,0:0:0:0:
267,263,59004,2,0,L|274:219,1,44.0000013427735,10|8,0:0|0:0,0:0:0:0:
331,131,59162,2,0,L|287:138,1,44.0000013427735,2|0,1:2|0:0,0:0:0:0:
427,147,59320,2,0,B|414:110|419:79|419:79|378:69|344:28,1,132.00000402832,2|0,1:2|0:0,0:0:0:0:
259,37,59636,6,0,P|180:24|105:98,1,176.000005371094,6|2,1:2|1:2,0:0:0:0:
11,197,60110,1,10,0:0:0:0:
143,267,60268,1,2,1:2:0:0:
143,267,60347,1,8,0:0:0:0:
143,267,60426,2,0,L|126:175,1,88.000002685547,2|2,1:2|1:2,0:0:0:0:
58,351,60741,1,8,0:0:0:0:
253,285,60899,6,0,B|357:268|326:332|424:306,1,176.000005371094,2|2,1:2|1:2,0:0:0:0:
397,149,61373,2,0,P|379:198|394:233,1,88.000002685547,10|2,0:0|0:0,0:0:0:0:
505,140,61689,1,0,1:2:0:0:
350,63,61847,1,2,1:2:0:0:
466,8,62004,1,8,0:0:0:0:
397,149,62162,6,0,L|211:115,1,176.000005371094,2|2,1:2|1:2,0:0:0:0:
90,65,62636,2,0,L|106:156,1,88.000002685547,10|2,0:0|0:0,0:0:0:0:
154,332,62952,1,2,1:2:0:0:
201,187,63110,1,0,1:2:0:0:
51,269,63268,1,8,0:0:0:0:
229,370,63426,6,0,P|287:373|353:275,1,176.000005371094,2|0,1:2|1:2,0:0:0:0:
207,177,63899,2,0,L|301:160,1,88.000002685547,8|0,0:0|0:0,0:0:0:0:
440,301,64215,2,0,L|353:285,1,88.000002685547,0|0,1:2|1:2,0:0:0:0:
402,137,64531,1,8,0:0:0:0:
257,59,64689,5,2,1:2:0:0:
257,59,64768,1,8,0:0:0:0:
257,59,64847,2,0,P|200:50|160:76,1,88.000002685547,6|0,1:2|0:0,0:0:0:0:
59,154,65162,1,10,0:0:0:0:
191,263,65320,1,0,1:2:0:0:
191,263,65399,1,8,0:0:0:0:
191,263,65478,2,0,L|208:166,1,88.000002685547,2|0,1:2|1:2,0:0:0:0:
87,326,65794,1,8,0:0:0:0:
290,353,65952,5,0,1:2:0:0:
290,353,66031,1,8,0:0:0:0:
290,353,66110,2,0,L|274:266,1,88.000002685547,2|0,1:2|1:2,0:0:0:0:
178,174,66426,2,0,L|162:260,1,88.000002685547,10|0,0:0|1:2,0:0:0:0:
89,95,66741,1,2,1:2:0:0:
207,78,66899,1,0,1:2:0:0:
84,204,67057,1,10,0:0:0:0:
264,155,67215,5,0,1:2:0:0:
264,155,67294,1,8,0:0:0:0:
264,155,67373,2,0,P|314:166|351:149,2,88.000002685547,2|0|10,1:2|0:0|0:0,0:0:0:0:
172,77,67847,1,0,0:0:0:0:
317,1,68004,2,0,L|300:93,1,88.000002685547,2|0,1:2|1:2,0:0:0:0:
427,184,68320,2,0,L|411:97,1,88.000002685547,10|0,0:0|1:2,0:0:0:0:
411,97,68557,5,8,0:0:0:0:
411,97,68636,1,2,1:2:0:0:
322,220,68794,1,0,1:2:0:0:
497,284,68952,2,0,L|513:197,1,88.000002685547,8|0,0:0|1:2,0:0:0:0:
322,220,69268,1,0,1:2:0:0:
375,290,69426,1,0,1:2:0:0:
426,361,69583,1,0,1:2:0:0:
322,220,69741,1,2,1:2:0:0:
223,363,69899,6,0,P|276:361|309:320,1,95.9999970703126,6|0,1:2|0:0,0:0:0:0:
167,233,70215,1,10,0:0:0:0:
167,233,70373,1,0,1:2:0:0:
305,125,70531,2,0,L|323:228,1,95.9999970703126,10|0,0:0|1:2,0:0:0:0:
150,327,70847,2,0,L|166:232,1,95.9999970703126,8|0,0:0|1:2,0:0:0:0:
265,47,71162,6,0,P|311:37|362:64,1,95.9999970703126,10|0,0:0|1:2,0:0:0:0:
184,121,71478,2,0,L|168:26,1,95.9999970703126,10|0,0:0|1:2,0:0:0:0:
88,183,71794,1,10,0:0:0:0:
88,183,71952,1,0,1:2:0:0:
254,232,72110,2,0,L|270:137,1,95.9999970703126,10|0,0:0|0:0,0:0:0:0:
455,102,72426,5,10,0:0:0:0:
380,257,72583,1,8,0:0:0:0:
269,137,72741,2,0,L|364:121,1,88.000002685547,10|0,0:0|0:0,0:0:0:0:
309,294,73057,5,10,0:0:0:0:
355,122,73214,1,8,0:0:0:0:
474,241,73372,2,0,L|379:257,1,88.000002685547,10|0,0:0|1:2,0:0:0:0:
223,363,73689,6,0,P|212:313|227:274,2,88.000002685547,10|8|0,0:0|0:0|1:2,0:0:0:0:
309,294,74162,1,8,0:0:0:0:
152,227,74320,1,0,1:2:0:0:
305,159,74478,1,8,0:0:0:0:
154,87,74636,2,0,B|176:86|202:73|202:73|169:156,1,132.00000402832,8|0,0:0|0:0,0:0:0:0:
152,227,74952,6,0,P|103:244|65:227,1,80,6|0,1:2|0:0,0:0:0:0:
0,137,75268,2,0,L|87:121,1,80,10|0,0:0|0:0,0:0:0:0:
140,8,75583,2,0,L|154:87,1,80,2|0,1:2|1:2,0:0:0:0:
310,37,75899,1,10,0:0:0:0:
253,188,76057,6,0,L|224:26,1,160,2|0,1:2|1:2,0:0:0:0:
384,28,76531,2,0,P|335:22|300:49,1,80,8|0,0:0|0:0,0:0:0:0:
472,145,76847,1,0,1:2:0:0:
466,21,77004,1,2,1:2:0:0:
360,102,77162,2,0,L|376:197,1,80,10|2,0:0|0:0,0:0:0:0:
435,338,77478,6,0,L|448:259,1,80,2|0,1:2|0:0,0:0:0:0:
341,104,77794,2,0,L|357:199,1,80,10|0,0:0|0:0,0:0:0:0:
267,303,78110,2,0,P|305:312|341:296,1,80,2|0,1:2|1:2,0:0:0:0:
173,163,78426,1,10,0:0:0:0:
137,288,78583,2,0,L|285:204,1,160,2|0,1:2|1:2,0:0:0:0:
179,124,79057,5,8,0:0:0:0:
179,124,79136,1,2,0:0:0:0:
179,124,79215,2,0,P|174:166|180:177,1,40,2|2,0:0|0:0,0:0:0:0:
245,60,79373,2,0,P|210:45|183:45,1,40,0|2,1:2|0:0,0:0:0:0:
310,120,79531,2,0,P|322:76|317:60,1,40,0|2,1:2|0:0,0:0:0:0:
276,209,79689,2,0,P|321:199|340:184,1,40,8|2,0:0|0:0,0:0:0:0:
410,138,79847,5,2,0:0:0:0:
410,138,79926,1,2,0:0:0:0:
410,138,80004,2,0,L|394:228,1,88.000002685547,6|0,1:2|0:0,0:0:0:0:
489,364,80320,1,10,0:0:0:0:
497,229,80478,1,0,1:2:0:0:
376,313,80636,2,0,L|278:330,1,88.000002685547,10|0,0:0|1:2,0:0:0:0:
189,193,80952,2,0,L|286:210,1,88.000002685547,10|2,0:0|1:2,0:0:0:0:
124,93,81268,6,0,P|78:84|30:108,1,88.000002685547,8|0,0:0|1:2,0:0:0:0:
86,195,81583,1,8,0:0:0:0:
218,77,81741,1,0,1:2:0:0:
218,77,81820,1,0,1:2:0:0:
218,77,81899,1,8,0:0:0:0:
275,208,82057,1,2,1:2:0:0:
275,208,82215,2,0,L|189:193,1,88.000002685547,10|2,0:0|1:2,0:0:0:0:
306,337,82531,6,0,L|392:322,1,88.000002685547,10|0,0:0|0:0,0:0:0:0:
489,189,82847,1,10,0:0:0:0:
489,189,83004,1,0,1:2:0:0:
350,132,83162,2,0,L|366:226,1,88.000002685547,10|0,0:0|1:2,0:0:0:0:
459,72,83478,1,10,0:0:0:0:
257,28,83636,6,0,P|189:27|119:112,1,176.000005371094,6|0,1:2|1:2,0:0:0:0:
75,248,84110,1,8,0:0:0:0:
208,159,84268,1,8,0:0:0:0:
208,159,84347,1,8,0:0:0:0:
208,159,84426,1,0,1:2:0:0:
28,154,84583,1,0,1:2:0:0:
75,248,84741,1,8,0:0:0:0:
121,342,84899,1,8,0:0:0:0:
208,159,85057,5,10,0:0:0:0:
208,351,85215,1,8,0:0:0:0:
309,217,85373,2,0,L|388:204,1,80,10|0,0:0|1:2,0:0:0:0:
509,320,85689,5,10,0:0:0:0:
461,133,85847,1,0,1:2:0:0:
390,311,86004,1,10,0:0:0:0:
348,134,86162,2,0,P|307:116|197:177,1,160,6|0,1:2|1:2,0:0:0:0:
207,159,86557,1,0,1:2:0:0:
207,159,86636,1,8,0:0:0:0:
259,308,86794,1,0,1:2:0:0:
22,207,86952,5,8,0:0:0:0:
194,244,87110,1,8,0:0:0:0:
78,125,87268,1,8,0:0:0:0:
73,332,87426,6,0,B|140:317|140:317|182:328|182:328|262:307,1,192,8|0,0:0|0:0,0:0:0:0:
332,346,88018,6,0,L|338:314,2,32,0|0|0,1:2|1:2|1:2,0:0:0:0:
