osu file format v14

[General]
AudioFilename: audio.mp3
AudioLeadIn: 0
PreviewTime: 48504
Countdown: 0
SampleSet: Soft
StackLeniency: 0.7
Mode: 0
LetterboxInBreaks: 0
WidescreenStoryboard: 0

[Editor]
Bookmarks: 8557
DistanceSpacing: 1.2
BeatDivisor: 4
GridSize: 4
TimelineZoom: 2.6

[Metadata]
Title:GROWING* (TV Size)
TitleUnicode:GROWING* (TV Size)
Artist:Hitotsuyanagi-tai
ArtistUnicode:一柳隊
Creator:SkyZaf
Version:Nano's HARD
Source:アサルトリリィ BOUQUET
Tags:kpmy sightread [yoshino] suimya sekai sekaii sekai-nyan -nanoripe- freezinganimenz assault lily ブーケ ラスバレ last bullet episode 8 ed ending short version anime japanese pop jpop j-pop tai hitotsuyanagi riri ひとつやなぎ りり 一柳梨璃 akao hikaru あかお ひかる 赤尾ひかる shirai yuyu しらい ゆゆ 白井夢結 natsuyoshi yuuko なつよし ゆうこ 夏吉ゆうこ kaede johan nouvel かえで ぬーべる 楓・j・ヌーベル izawa mikako いざわ みかこ 井澤美香子 futagawa fumi ふたがわ ふみ 二川二水 nishimoto rimi にしもと りみ 西本りみ ando tazusa あんどう たずさ 安藤鶴紗 tsumugi risa つむぎ りさ 紡木吏佐 yoshimura thi mai よしむら まい 吉村・thi・梅 iwata haruki いわた はるき 岩田陽葵 kuo shenlin 郭神琳 hoshimori sana ほしもり さな 星守紗凪 wang yujia 王雨嘉 tono とおの 遠野ひかる miliam miriam hildegard von guropius みりあむ ひるでがるど ぐろぴうす ミリアム・ヒルデガルド・v・グロピウス takahashi karin たかはし かりん 高橋花林
BeatmapID:4482146
BeatmapSetID:2130981

[Difficulty]
HPDrainRate:5.2
CircleSize:3.7
OverallDifficulty:6.9
ApproachRate:8.1
SliderMultiplier:1.4
SliderTickRate:1

[Events]
//Background and Video events
0,0,"hard.jpg",0,0
Video,-1050,"ed 8.mp4"
//Break Periods
//Storyboard Layer 0 (Background)
//Storyboard Layer 1 (Fail)
//Storyboard Layer 2 (Pass)
//Storyboard Layer 3 (Foreground)
//Storyboard Layer 4 (Overlay)
//Storyboard Sound Samples

[TimingPoints]
426,315.789473684211,4,2,1,75,1,0
583,-142.857142857143,4,2,1,55,0,0
1531,-142.857142857143,4,2,1,58,0,0
6741,-111.111111111111,4,2,1,65,0,0
11794,-125,4,2,1,60,0,0
16847,-111.111111111111,4,2,1,65,0,0
21899,-111.111111111111,4,2,1,63,0,0
32004,-125,4,2,1,60,0,0
37057,-111.111111111111,4,2,1,63,0,0
39583,-111.111111111111,4,2,1,60,0,0
47162,-100,4,2,1,65,0,0
49531,-90.9090909090909,4,2,1,75,0,0
69899,-83.3333333333333,4,2,1,80,0,0
72426,-83.3333333333333,4,2,1,75,0,0
74952,-100,4,2,1,70,0,0
80004,-90.9090909090909,4,2,1,80,0,0
85057,-90.9090909090909,4,2,1,70,0,0
86162,-90.9090909090909,4,2,1,75,0,0
89478,-90.9090909090909,4,2,1,75,0,0

[Colours]
Combo1 : 156,221,4
Combo2 : 0,121,210
Combo3 : 251,149,213
Combo4 : 254,223,158

[HitObjects]
20,78,583,6,0,P|16:41|28:14,2,48.9999985046387,2|2|2,0:0|0:0|0:0,0:0:0:0:
79,144,1057,1,2,0:0:0:0:
79,144,1215,1,2,0:0:0:0:
205,36,1531,6,0,B|294:29|246:73|360:61,1,146.999995513916,6|2,1:2|0:0,0:0:0:0:
429,54,2162,1,2,0:0:0:0:
429,54,2320,2,0,P|437:12|443:-5,2,48.9999985046387,2|2|0,0:0|0:0|0:0,0:0:0:0:
470,127,2794,6,0,B|415:138|438:162|377:172,1,97.9999970092774,2|2,0:0|0:0,0:0:0:0:
339,241,3268,2,0,P|341:265|343:289,1,48.9999985046387,2|2,0:0|0:0,0:0:0:0:
289,362,3583,1,2,0:0:0:0:
289,362,3741,1,2,0:0:0:0:
177,237,4057,6,0,B|100:229|123:271|30:255,1,146.999995513916,2|2,0:0|0:0,0:0:0:0:
13,174,4689,1,2,0:0:0:0:
13,174,4847,2,0,P|14:136|9:106,2,48.9999985046387,2|2|0,0:0|0:0|0:0,0:0:0:0:
102,151,5320,6,0,B|191:147|142:109|262:119,1,146.999995513916,2|2,0:0|0:0,0:0:0:0:
397,179,6110,1,2,0:0:0:0:
364,259,6268,1,8,0:0:0:0:
364,259,6347,1,8,0:0:0:0:
364,259,6426,2,0,P|319:263|296:268,1,48.9999985046387,2|2,1:2|0:0,0:0:0:0:
322,354,6741,6,0,P|386:344|461:338,1,125.999996154785,6|10,1:2|0:0,0:0:0:0:
499,267,7215,1,8,0:0:0:0:
436,204,7373,2,0,P|425:134|421:71,1,125.999996154785,2|8,1:2|0:0,0:0:0:0:
471,6,7847,1,0,1:2:0:0:
409,68,8004,6,0,B|342:73|373:42|265:39,1,125.999996154785,2|10,1:2|0:0,0:0:0:0:
201,19,8478,1,8,0:0:0:0:
201,19,8557,1,8,0:0:0:0:
201,19,8636,2,0,P|192:75|182:108,1,62.9999980773926,2|0,1:2|0:0,0:0:0:0:
128,144,8952,2,0,P|137:200|147:233,1,62.9999980773926,2|0,0:0|0:0,0:0:0:0:
166,290,9268,5,10,0:0:0:0:
254,292,9426,1,8,0:0:0:0:
299,372,9583,1,10,0:0:0:0:
299,372,9899,5,10,0:0:0:0:
241,298,10057,1,8,0:0:0:0:
311,244,10215,2,0,P|326:196|337:162,1,62.9999980773926,10|0,0:0|0:0,0:0:0:0:
321,91,10531,6,0,P|280:116|188:98,1,125.999996154785,6|0,1:2|1:2,0:0:0:0:
249,33,11004,1,0,0:0:0:0:
333,6,11162,2,0,P|389:13|419:17,1,62.9999980773926,2|8,1:2|0:0,0:0:0:0:
478,44,11478,2,0,P|466:99|465:155,1,94.499997116089,2|0,1:2|0:0,0:0:0:0:
465,176,11794,6,0,B|388:171|439:206|337:211,1,112,6|0,1:2|0:0,0:0:0:0:
287,244,12268,1,0,1:2:0:0:
287,244,12426,2,0,P|262:192|278:119,1,112,2|8,0:0|0:0,0:0:0:0:
135,35,13057,6,0,P|78:46|15:59,2,112,2|2|2,1:2|0:0|0:0,0:0:0:0:
219,19,13847,1,0,1:2:0:0:
219,19,14004,2,0,P|257:17|296:30,1,56,10|0,0:0|0:0,0:0:0:0:
352,52,14320,6,0,B|359:119|321:101|333:176,1,112,2|0,1:2|0:0,0:0:0:0:
402,205,14794,2,0,P|350:199|288:238,1,112,0|0,1:2|1:2,0:0:0:0:
253,297,15268,2,0,P|226:301|187:291,1,56,10|2,0:0|0:0,0:0:0:0:
143,231,15583,6,0,B|75:228|103:264|24:266,1,112,0|0,1:2|0:0,0:0:0:0:
13,184,16057,2,0,P|12:137|4:113,1,56,0|0,1:2|0:0,0:0:0:0:
8,47,16373,1,8,0:0:0:0:
8,47,16531,1,8,0:0:0:0:
94,20,16689,1,2,0:0:0:0:
94,20,16847,6,0,P|137:19|161:42,1,62.9999980773926,6|2,1:2|0:0,0:0:0:0:
198,104,17162,2,0,P|189:152|183:183,1,62.9999980773926,10|0,0:0|0:0,0:0:0:0:
144,244,17478,2,0,P|112:247|82:240,2,62.9999980773926,2|2|10,1:2|1:2|0:0,0:0:0:0:
232,239,17952,6,0,B|312:246|269:266|354:277,1,125.999996154785,2|2,0:0|1:2,0:0:0:0:
433,243,18426,2,0,P|447:205|436:113,1,125.999996154785,8|0,0:0|1:2,0:0:0:0:
380,65,18899,1,2,1:2:0:0:
380,65,19057,2,0,P|348:63|320:76,1,62.9999980773926,10|0,0:0|0:0,0:0:0:0:
245,123,19373,6,0,P|183:115|119:108,1,125.999996154785,2|8,1:2|0:0,0:0:0:0:
37,140,19847,1,0,0:0:0:0:
96,204,20004,2,0,P|88:251|80:287,2,62.9999980773926,0|0|8,1:2|1:2|0:0,0:0:0:0:
181,181,20478,5,0,1:2:0:0:
305,305,20794,2,0,P|266:298|231:290,1,62.9999980773926,8|0,0:0|1:2,0:0:0:0:
193,363,21110,2,0,P|149:353|119:348,1,62.9999980773926,8|2,0:0|1:2,0:0:0:0:
48,334,21426,1,8,0:0:0:0:
48,334,21583,2,0,P|30:285|44:221,1,94.499997116089,10|0,0:0|0:0,0:0:0:0:
41,202,21899,6,0,B|32:142|80:155|60:72,1,125.999996154785,6|8,1:2|0:0,0:0:0:0:
112,9,22373,1,0,0:0:0:0:
112,9,22531,2,0,P|177:24|253:22,1,125.999996154785,2|8,1:2|0:0,0:0:0:0:
412,26,23162,6,0,P|419:72|410:108,1,62.9999980773926,2|0,1:2|1:2,0:0:0:0:
364,159,23478,2,0,B|271:155|326:187|228:179,1,125.999996154785,10|2,0:0|1:2,0:0:0:0:
157,195,23952,1,0,1:2:0:0:
157,195,24110,2,0,L|174:280,1,62.9999980773926,10|0,0:0|0:0,0:0:0:0:
179,345,24426,6,0,P|239:329|300:343,2,125.999996154785,2|8|2,1:2|0:0|1:2,0:0:0:0:
94,348,25215,1,0,1:2:0:0:
94,348,25373,2,0,P|85:298|73:261,1,62.9999980773926,8|10,0:0|0:0,0:0:0:0:
73,246,25610,5,10,0:0:0:0:
73,246,25689,2,0,P|127:240|158:239,1,62.9999980773926,2|0,1:2|1:2,0:0:0:0:
210,177,26004,2,0,B|300:181|249:209|334:219,1,125.999996154785,8|2,0:0|1:2,0:0:0:0:
413,209,26478,1,2,1:2:0:0:
413,209,26636,2,0,P|439:165|439:106,1,94.499997116089,10|8,0:0|0:0,0:0:0:0:
452,78,26952,6,0,B|384:76|427:47|317:47,1,125.999996154785,4|8,1:2|0:0,0:0:0:0:
158,80,27583,2,0,P|153:28|148:6,2,62.9999980773926,2|0|10,1:2|1:2|0:0,0:0:0:0:
107,153,28057,6,0,P|81:193|95:273,1,125.999996154785,2|0,1:2|1:2,0:0:0:0:
159,327,28531,2,0,P|209:317|229:313,1,62.9999980773926,10|0,0:0|1:2,0:0:0:0:
295,266,28847,2,0,P|344:275|371:280,1,62.9999980773926,10|2,0:0|1:2,0:0:0:0:
409,348,29162,1,10,0:0:0:0:
483,304,29320,6,0,P|499:252|491:168,1,125.999996154785,6|0,1:2|1:2,0:0:0:0:
435,115,29794,2,0,P|446:57|451:23,1,62.9999980773926,8|0,0:0|1:2,0:0:0:0:
359,35,30110,2,0,P|353:66|347:96,1,62.9999980773926,8|0,0:0|1:2,0:0:0:0:
315,182,30426,1,8,0:0:0:0:
315,182,30583,6,0,P|373:196|447:217,1,125.999996154785,0|0,1:2|1:2,0:0:0:0:
403,296,31057,2,0,P|351:281|316:271,1,62.9999980773926,8|8,0:0|0:0,0:0:0:0:
302,290,31294,1,8,0:0:0:0:
302,290,31373,1,0,1:2:0:0:
226,335,31531,2,0,P|212:300|217:266,1,62.9999980773926,0|0,1:2|1:2,0:0:0:0:
212,190,31847,1,10,0:0:0:0:
212,190,32004,6,0,B|137:187|175:215|84:211,1,112,6|0,1:2|0:0,0:0:0:0:
85,127,32478,1,2,1:2:0:0:
85,127,32636,2,0,B|156:130|118:102|193:105,1,112,10|0,0:0|0:0,0:0:0:0:
353,155,33268,6,0,P|360:114|365:83,1,56,2|10,1:2|0:0,0:0:0:0:
391,24,33583,2,0,P|447:25|509:-2,2,112,2|10|0,1:2|0:0|0:0,0:0:0:0:
309,2,34373,1,10,0:0:0:0:
243,54,34531,6,0,P|207:50|149:104,1,112,2|0,1:2|0:0,0:0:0:0:
146,182,35004,1,2,1:2:0:0:
146,182,35162,2,0,B|74:182|112:210|23:206,1,112,10|0,0:0|0:0,0:0:0:0:
37,294,35636,1,2,1:2:0:0:
37,294,35794,6,0,P|79:295|110:285,1,56,2|8,1:2|0:0,0:0:0:0:
181,254,36110,2,0,P|173:303|182:378,2,112,2|10|8,1:2|0:0|0:0,0:0:0:0:
246,200,36899,5,10,0:0:0:0:
246,200,36978,1,8,0:0:0:0:
246,200,37057,2,0,B|323:201|295:237|385:240,1,125.999996154785,6|8,1:2|0:0,0:0:0:0:
442,185,37531,1,2,1:2:0:0:
496,253,37689,2,0,P|501:312|445:368,1,125.999996154785,2|8,1:2|0:0,0:0:0:0:
373,368,38162,5,0,0:0:0:0:
373,368,38320,2,0,P|317:373|298:376,1,62.9999980773926,2|0,1:2|1:2,0:0:0:0:
296,279,38636,2,0,P|327:275|358:273,1,62.9999980773926,10|0,0:0|1:2,0:0:0:0:
421,201,38952,2,0,P|427:149|397:76,1,125.999996154785,2|8,1:2|0:0,0:0:0:0:
309,82,39426,1,0,1:2:0:0:
250,16,39583,5,10,0:0:0:0:
250,16,41636,1,8,0:0:0:0:
250,16,41794,1,8,0:0:0:0:
213,96,41952,1,8,0:0:0:0:
277,156,42110,1,10,0:0:0:0:
277,156,44162,1,8,0:0:0:0:
277,156,44320,1,8,0:0:0:0:
225,227,44478,1,8,0:0:0:0:
265,305,44636,1,10,0:0:0:0:
265,305,45741,6,0,L|258:262,2,31.4999990386963,2|0|8,1:2|1:2|0:0,0:0:0:0:
265,305,46689,1,8,0:0:0:0:
177,298,46847,1,8,0:0:0:0:
112,357,47004,1,8,0:0:0:0:
68,270,47162,6,0,P|59:213|51:175,1,70,6|2,1:2|1:2,0:0:0:0:
106,123,47478,2,0,P|115:66|123:28,1,70,10|0,0:0|1:2,0:0:0:0:
198,8,47794,1,10,0:0:0:0:
198,8,47952,1,2,1:2:0:0:
266,68,48110,1,10,0:0:0:0:
343,20,48268,6,0,P|382:67|384:158,1,140,2|10,1:2|0:0,0:0:0:0:
335,217,48741,1,10,0:0:0:0:
251,179,48899,2,0,L|242:128,2,35,2|0|10,1:2|1:2|0:0,0:0:0:0:
205,262,49215,1,10,0:0:0:0:
205,262,49531,6,0,B|307:272|258:305|354:315,1,154.000004699707,6|2,1:2|1:2,0:0:0:0:
434,369,50004,2,0,P|448:306|455:276,1,77.0000023498536,10|0,0:0|1:2,0:0:0:0:
490,209,50320,1,2,1:2:0:0:
398,219,50478,2,0,P|348:217|318:180,1,77.0000023498536,2|8,1:2|0:0,0:0:0:0:
284,119,50794,6,0,B|197:114|231:165|131:159,1,154.000004699707,2|2,1:2|1:2,0:0:0:0:
58,114,51268,2,0,P|50:65|66:33,1,77.0000023498536,10|2,0:0|0:0,0:0:0:0:
148,13,51583,1,2,1:2:0:0:
148,13,51741,1,2,1:2:0:0:
225,63,51899,1,8,0:0:0:0:
306,19,52057,6,0,P|327:64|328:168,1,154.000004699707,2|2,1:2|1:2,0:0:0:0:
339,259,52531,2,0,P|284:245|245:238,1,77.0000023498536,10|2,0:0|0:0,0:0:0:0:
193,180,52847,1,2,1:2:0:0:
170,269,53004,2,0,P|167:320|199:357,1,77.0000023498536,2|8,1:2|0:0,0:0:0:0:
268,373,53320,6,0,B|356:376|318:344|430:354,1,154.000004699707,2|0,1:2|1:2,0:0:0:0:
490,293,53794,2,0,P|506:249|490:205,1,77.0000023498536,8|0,0:0|0:0,0:0:0:0:
432,156,54110,1,0,1:2:0:0:
432,156,54268,1,0,1:2:0:0:
347,193,54426,2,0,P|301:198|265:203,1,77.0000023498536,8|2,0:0|1:2,0:0:0:0:
171,108,54741,6,0,P|234:102|351:83,2,154.000004699707,6|8|2,1:2|0:0|1:2,0:0:0:0:
90,71,55531,1,2,1:2:0:0:
90,71,55689,2,0,P|81:126|107:166,1,77.0000023498536,10|0,0:0|1:2,0:0:0:0:
47,227,56004,6,0,P|108:237|147:242,1,77.0000023498536,2|0,1:2|1:2,0:0:0:0:
139,330,56320,2,0,P|200:340|239:345,1,77.0000023498536,10|0,0:0|1:2,0:0:0:0:
282,278,56636,1,2,1:2:0:0:
282,278,56794,1,0,1:2:0:0:
350,339,56952,2,0,P|369:301|367:252,1,77.0000023498536,10|0,0:0|1:2,0:0:0:0:
322,184,57268,6,0,P|301:119|321:24,1,154.000004699707,6|10,1:2|0:0,0:0:0:0:
402,5,57741,1,0,1:2:0:0:
480,53,57899,2,0,P|473:110|471:141,1,77.0000023498536,10|0,0:0|1:2,0:0:0:0:
423,208,58215,1,10,0:0:0:0:
503,301,58373,6,0,P|442:293|348:363,1,154.000004699707,2|10,1:2|0:0,0:0:0:0:
288,282,58847,1,10,0:0:0:0:
219,343,59004,2,0,L|225:382,2,38.5000011749268,10|8|2,0:0|0:0|1:2,0:0:0:0:
137,303,59320,1,2,1:2:0:0:
137,303,59636,6,0,P|148:216|155:143,1,154.000004699707,6|2,1:2|1:2,0:0:0:0:
233,101,60110,2,0,P|236:57|213:24,1,77.0000023498536,10|2,0:0|1:2,0:0:0:0:
127,14,60426,1,2,1:2:0:0:
41,48,60583,2,0,P|32:97|53:134,1,77.0000023498536,2|8,1:2|0:0,0:0:0:0:
33,213,60899,6,0,B|117:221|80:178|182:182,1,154.000004699707,2|2,1:2|1:2,0:0:0:0:
270,203,61373,2,0,P|289:252|275:283,1,77.0000023498536,10|2,0:0|0:0,0:0:0:0:
239,355,61689,1,0,1:2:0:0:
239,355,61847,1,2,1:2:0:0:
157,312,62004,1,8,0:0:0:0:
75,356,62162,6,0,P|51:296|56:191,1,154.000004699707,2|2,1:2|1:2,0:0:0:0:
15,121,62636,2,0,P|72:111|102:109,1,77.0000023498536,10|2,0:0|0:0,0:0:0:0:
160,47,62952,1,2,1:2:0:0:
160,47,63110,1,0,1:2:0:0:
236,98,63268,1,8,0:0:0:0:
303,35,63426,6,0,P|282:90|286:195,1,154.000004699707,2|0,1:2|1:2,0:0:0:0:
273,299,63899,2,0,P|317:275|422:281,1,154.000004699707,8|0,0:0|1:2,0:0:0:0:
494,225,64373,1,0,1:2:0:0:
423,164,64531,2,0,P|429:111|438:77,1,77.0000023498536,8|2,0:0|1:2,0:0:0:0:
443,42,64768,5,8,0:0:0:0:
443,42,64847,2,0,P|390:36|356:27,1,77.0000023498536,6|0,1:2|0:0,0:0:0:0:
295,89,65162,2,0,P|242:95|208:104,1,77.0000023498536,10|0,0:0|1:2,0:0:0:0:
168,178,65478,2,0,P|183:233|187:346,1,154.000004699707,2|8,1:2|0:0,0:0:0:0:
107,366,65952,5,0,1:2:0:0:
107,366,66031,1,8,0:0:0:0:
107,366,66110,2,0,P|45:363|18:361,1,77.0000023498536,2|0,1:2|1:2,0:0:0:0:
8,271,66426,2,0,P|11:209|1:108,1,154.000004699707,10|2,0:0|1:2,0:0:0:0:
77,63,66899,1,0,1:2:0:0:
144,129,67057,2,0,P|196:123|233:125,1,77.0000023498536,10|0,0:0|1:2,0:0:0:0:
274,132,67294,5,8,0:0:0:0:
274,132,67373,2,0,P|269:78|264:47,1,77.0000023498536,2|0,1:2|0:0,0:0:0:0:
347,5,67689,2,0,P|401:32|501:30,1,154.000004699707,10|2,0:0|1:2,0:0:0:0:
498,124,68162,1,0,1:2:0:0:
418,172,68320,2,0,P|431:218|438:260,1,77.0000023498536,10|0,0:0|1:2,0:0:0:0:
390,325,68636,5,2,1:2:0:0:
390,325,68794,1,0,1:2:0:0:
306,285,68952,2,0,P|246:278|215:291,1,77.0000023498536,8|0,0:0|1:2,0:0:0:0:
189,303,69189,1,8,0:0:0:0:
189,303,69268,1,0,1:2:0:0:
155,216,69426,1,0,1:2:0:0:
228,160,69583,2,0,P|237:117|219:58,1,77.0000023498536,0|2,1:2|1:2,0:0:0:0:
161,23,69899,6,0,P|102:33|70:38,1,83.9999974365235,6|0,1:2|0:0,0:0:0:0:
20,109,70215,2,0,P|26:146|39:203,1,83.9999974365235,10|0,0:0|1:2,0:0:0:0:
116,247,70531,1,10,0:0:0:0:
116,247,70689,1,0,1:2:0:0:
176,178,70847,1,8,0:0:0:0:
176,178,71004,1,0,1:2:0:0:
259,219,71162,6,0,P|251:278|243:319,1,83.9999974365235,10|0,0:0|1:2,0:0:0:0:
319,359,71478,2,0,P|378:367|419:375,1,83.9999974365235,10|0,0:0|1:2,0:0:0:0:
480,321,71794,1,10,0:0:0:0:
480,321,71952,1,0,1:2:0:0:
428,244,72110,1,10,0:0:0:0:
428,244,72268,1,0,0:0:0:0:
486,172,72426,5,10,0:0:0:0:
433,96,72583,1,8,0:0:0:0:
497,29,72741,1,10,0:0:0:0:
497,29,73057,5,10,0:0:0:0:
420,80,73215,1,8,0:0:0:0:
334,45,73373,2,0,P|286:62|249:74,1,83.9999974365235,10|0,0:0|1:2,0:0:0:0:
162,83,73689,6,0,P|152:21|147:-13,2,83.9999974365235,10|8|0,0:0|0:0|1:2,0:0:0:0:
180,178,74162,1,8,0:0:0:0:
180,178,74320,1,0,1:2:0:0:
252,235,74478,1,8,0:0:0:0:
342,215,74636,2,0,P|359:274|325:351,1,125.999996154785,8|0,0:0|0:0,0:0:0:0:
332,372,74952,6,0,P|276:363|239:357,1,70,6|0,1:2|0:0,0:0:0:0:
184,319,75268,2,0,P|125:328|92:334,1,70,10|0,0:0|0:0,0:0:0:0:
38,280,75583,2,0,P|29:227|40:192,1,70,2|0,1:2|1:2,0:0:0:0:
95,145,75899,1,10,0:0:0:0:
30,65,76057,6,0,P|91:58|167:37,1,140,2|0,1:2|1:2,0:0:0:0:
253,7,76531,2,0,P|294:39|294:133,1,140,8|0,0:0|1:2,0:0:0:0:
251,200,77004,1,2,1:2:0:0:
251,200,77162,2,0,P|293:210|349:223,1,70,10|2,0:0|0:0,0:0:0:0:
387,277,77478,6,0,P|449:273|486:230,1,105,2|0,1:2|0:0,0:0:0:0:
469,200,77794,2,0,P|462:153|480:113,1,70,10|0,0:0|0:0,0:0:0:0:
478,41,78110,2,0,P|434:48|392:57,1,70,2|0,1:2|1:2,0:0:0:0:
327,10,78426,1,10,0:0:0:0:
290,92,78583,6,0,B|211:89|248:57|151:56,1,140,2|0,1:2|1:2,0:0:0:0:
65,50,79057,2,0,L|49:-16,2,35,8|2|2,0:0|0:0|0:0,0:0:0:0:
110,129,79373,2,0,P|120:181|104:212,1,70,0|0,1:2|1:2,0:0:0:0:
60,269,79689,2,0,P|49:333|78:379,1,105,8|2,0:0|0:0,0:0:0:0:
115,371,80004,6,0,P|182:362|206:359,1,77.0000023498536,6|0,1:2|0:0,0:0:0:0:
268,309,80320,2,0,P|335:300|359:297,1,77.0000023498536,10|0,0:0|1:2,0:0:0:0:
409,365,80636,2,0,P|476:356|500:353,1,77.0000023498536,10|0,0:0|1:2,0:0:0:0:
494,262,80952,1,10,0:0:0:0:
437,185,81110,6,0,P|388:194|280:195,1,154.000004699707,2|0,1:2|1:2,0:0:0:0:
213,132,81583,1,8,0:0:0:0:
288,79,81741,1,0,1:2:0:0:
288,79,81820,1,0,1:2:0:0:
288,79,81899,2,0,P|294:21|292:-12,2,77.0000023498536,8|2|10,0:0|1:2|0:0,0:0:0:0:
372,118,82373,1,2,1:2:0:0:
387,209,82531,6,0,P|331:223|302:229,1,77.0000023498536,10|0,0:0|0:0,0:0:0:0:
287,316,82847,2,0,P|231:330|202:336,1,77.0000023498536,10|0,0:0|1:2,0:0:0:0:
160,257,83162,2,0,P|110:269|76:277,1,77.0000023498536,10|0,0:0|1:2,0:0:0:0:
18,339,83478,1,10,0:0:0:0:
2,247,83636,6,0,P|0:170|24:97,1,154.000004699707,6|0,1:2|1:2,0:0:0:0:
104,49,84110,1,8,0:0:0:0:
174,110,84268,1,8,0:0:0:0:
174,110,84347,1,8,0:0:0:0:
174,110,84426,2,0,P|220:114|253:106,1,77.0000023498536,0|0,1:2|1:2,0:0:0:0:
333,68,84741,2,0,P|370:60|408:65,1,77.0000023498536,8|8,0:0|0:0,0:0:0:0:
488,113,85057,5,10,0:0:0:0:
442,193,85215,1,8,0:0:0:0:
484,275,85373,1,10,0:0:0:0:
484,275,85689,2,0,P|433:286|398:293,1,77.0000023498536,10|0,0:0|1:2,0:0:0:0:
352,364,86004,1,10,0:0:0:0:
303,285,86162,6,0,P|284:229|299:126,1,154.000004699707,6|0,1:2|1:2,0:0:0:0:
323,100,86557,1,0,1:2:0:0:
323,100,86636,1,8,0:0:0:0:
371,21,86794,1,0,1:2:0:0:
279,4,86952,5,8,0:0:0:0:
202,55,87110,1,8,0:0:0:0:
115,22,87268,1,8,0:0:0:0:
46,84,87426,2,0,B|79:206|-2:184|42:318,1,231.000007049561,8|0,0:0|0:0,0:0:0:0:
105,359,88018,6,0,L|150:350,2,38.5000011749268,0|0|0,1:2|1:2|1:2,0:0:0:0:
