osu file format v14

[General]
AudioFilename: audio.mp3
AudioLeadIn: 0
PreviewTime: 48504
Countdown: 0
SampleSet: Soft
StackLeniency: 0.7
Mode: 0
LetterboxInBreaks: 0
WidescreenStoryboard: 1

[Editor]
Bookmarks: 7294,7926
DistanceSpacing: 0.8
BeatDivisor: 4
GridSize: 32
TimelineZoom: 3.499999

[Metadata]
Title:GROWING* (TV Size)
TitleUnicode:GROWING* (TV Size)
Artist:Hitotsuyanagi-tai
ArtistUnicode:一柳隊
Creator:SkyZaf
Version:KPMY's EXPERT
Source:アサルトリリィ BOUQUET
Tags:kpmy sightread [yoshino] suimya sekai sekaii sekai-nyan -nanoripe- freezinganimenz assault lily ブーケ ラスバレ last bullet episode 8 ed ending short version anime japanese pop jpop j-pop tai hitotsuyanagi riri ひとつやなぎ りり 一柳梨璃 akao hikaru あかお ひかる 赤尾ひかる shirai yuyu しらい ゆゆ 白井夢結 natsuyoshi yuuko なつよし ゆうこ 夏吉ゆうこ kaede johan nouvel かえで ぬーべる 楓・j・ヌーベル izawa mikako いざわ みかこ 井澤美香子 futagawa fumi ふたがわ ふみ 二川二水 nishimoto rimi にしもと りみ 西本りみ ando tazusa あんどう たずさ 安藤鶴紗 tsumugi risa つむぎ りさ 紡木吏佐 yoshimura thi mai よしむら まい 吉村・thi・梅 iwata haruki いわた はるき 岩田陽葵 kuo shenlin 郭神琳 hoshimori sana ほしもり さな 星守紗凪 wang yujia 王雨嘉 tono とおの 遠野ひかる miliam miriam hildegard von guropius みりあむ ひるでがるど ぐろぴうす ミリアム・ヒルデガルド・v・グロピウス takahashi karin たかはし かりん 高橋花林
BeatmapID:4486553
BeatmapSetID:2130981

[Difficulty]
HPDrainRate:5.5
CircleSize:3.8
OverallDifficulty:9
ApproachRate:9.2
SliderMultiplier:1.8
SliderTickRate:1

[Events]
//Background and Video events
Video,-1050,"ed 8.mp4"
0,0,"Blossom.jpg",0,0
//Break Periods
//Storyboard Layer 0 (Background)
//Storyboard Layer 1 (Fail)
//Storyboard Layer 2 (Pass)
//Storyboard Layer 3 (Foreground)
//Storyboard Layer 4 (Overlay)
//Storyboard Sound Samples

[TimingPoints]
426,315.789473684211,4,2,1,75,1,0
583,-100,4,2,1,55,0,0
1531,-142.857142857143,4,2,1,58,0,0
6741,-100,4,2,1,65,0,0
10531,-111.111111111111,4,2,1,65,0,0
11794,-125,4,2,1,60,0,0
16847,-100,4,2,1,65,0,0
21899,-111.111111111111,4,2,1,63,0,0
32004,-142.857142857143,4,2,1,60,0,0
37057,-111.111111111111,4,2,1,63,0,0
39583,-111.111111111111,4,2,1,60,0,0
47162,-100,4,2,1,65,0,0
49531,-90.9090909090909,4,2,1,75,0,1
69899,-83.3333333333333,4,2,1,80,0,1
72426,-90.9090909090909,4,2,1,75,0,0
74952,-100,4,2,1,70,0,0
80004,-90.9090909090909,4,2,1,80,0,0
85057,-100,4,2,1,70,0,0
86162,-100,4,2,1,75,0,0
87426,-125,4,2,1,75,0,0
89478,-125,4,2,1,75,0,0

[Colours]
Combo1 : 204,147,136
Combo2 : 58,162,237
Combo3 : 251,149,213
Combo4 : 249,220,106
Combo5 : 163,86,105

[HitObjects]
55,45,1531,6,0,L|39:170,1,125.999996154785,6|2,1:2|0:0,0:0:0:0:
131,228,2004,2,0,L|123:165,1,62.9999980773926,2|2,0:0|0:0,0:0:0:0:
176,98,2320,1,2,0:0:0:0:
176,98,2478,2,0,P|206:91|236:98,1,62.9999980773926,2|0,0:0|0:0,0:0:0:0:
325,42,2794,6,0,L|309:167,1,125.999996154785,2|2,0:0|0:0,0:0:0:0:
373,220,3268,2,0,P|403:226|433:220,1,62.9999980773926,2|2,0:0|0:0,0:0:0:0:
442,90,3583,1,2,0:0:0:0:
442,90,3741,2,0,P|421:112|411:142,1,62.9999980773926,2|0,0:0|0:0,0:0:0:0:
399,324,4057,6,0,B|325:299|325:299|281:319,1,125.999996154785,2|2,0:0|0:0,0:0:0:0:
204,384,4531,2,0,L|196:321,1,62.9999980773926,2|2,0:0|0:0,0:0:0:0:
128,223,4847,1,2,0:0:0:0:
128,223,5004,2,0,L|120:285,1,62.9999980773926,2|0,0:0|0:0,0:0:0:0:
60,341,5320,2,0,B|21:364|21:364|-36:300|0:232,1,188.999994232178,2|2,0:0|0:0,0:0:0:0:
160,114,6110,1,2,0:0:0:0:
47,49,6268,1,8,0:0:0:0:
47,49,6347,1,8,0:0:0:0:
47,49,6426,2,0,L|54:111,1,62.9999980773926,2|2,1:2|0:0,0:0:0:0:
126,218,6741,6,0,L|259:201,1,135,6|0,1:2|0:0,0:0:0:0:
275,185,7057,2,0,L|280:140,3,45,10|8|8|8,0:0|0:0|0:0|0:0,0:0:0:0:
208,69,7373,2,0,P|266:42|335:53,1,135,2|0,1:2|0:0,0:0:0:0:
362,68,7689,2,0,L|406:62,3,45,8|8|8|8,0:0|0:0|0:0|0:0,0:0:0:0:
492,95,8004,6,0,L|475:228,1,135,2|0,1:2|0:0,0:0:0:0:
463,259,8320,2,0,L|468:303,3,45,10|8|8|8,0:0|0:0|0:0|0:0,0:0:0:0:
380,205,8636,2,0,L|290:194,1,90,2|0,1:2|0:0,0:0:0:0:
165,345,8952,2,0,L|254:334,1,90,2|0,0:0|0:0,0:0:0:0:
151,114,9268,5,10,0:0:0:0:
76,274,9426,1,8,0:0:0:0:
271,101,9583,1,10,0:0:0:0:
271,101,9899,5,10,0:0:0:0:
60,23,10057,1,8,0:0:0:0:
204,236,10215,1,10,0:0:0:0:
204,236,10531,6,0,P|244:243|282:236,1,80.9999975280763,6|0,1:2|0:0,0:0:0:0:
376,99,10847,5,0,1:2:0:0:
429,286,11004,1,0,1:2:0:0:
356,71,11162,5,2,1:2:0:0:
283,235,11320,1,8,0:0:0:0:
389,196,11478,2,0,B|428:188|428:188|467:195,1,80.9999975280763,2|0,1:2|0:0,0:0:0:0:
376,354,11794,6,0,P|310:358|299:221,1,216,6|0,1:2|1:2,0:0:0:0:
243,153,12426,2,0,L|314:144,1,72,2|0,0:0|1:2,0:0:0:0:
384,27,12741,1,8,0:0:0:0:
384,27,13057,6,0,B|311:-12|235:27|235:27|283:63,1,216,2|0,1:2|1:2,0:0:0:0:
388,198,13689,2,0,L|396:126,1,72,2|0,0:0|1:2,0:0:0:0:
243,153,14004,1,10,0:0:0:0:
243,153,14320,6,0,B|125:121|149:217|39:182,1,216,2|0,1:2|1:2,0:0:0:0:
72,29,14952,2,0,L|80:100,1,72,0|0,0:0|1:2,0:0:0:0:
135,205,15268,1,10,0:0:0:0:
180,56,15426,1,2,0:0:0:0:
37,181,15583,6,0,B|0:263|0:263|27:309,1,144,0|0,1:2|0:0,0:0:0:0:
217,304,16057,2,0,L|145:295,1,72,0|0,1:2|0:0,0:0:0:0:
27,309,16373,5,8,0:0:0:0:
226,194,16531,2,0,L|297:185,1,72,8|2,0:0|0:0,0:0:0:0:
164,37,16847,5,6,1:2:0:0:
376,118,17004,1,2,0:0:0:0:
130,210,17162,2,0,P|120:165|130:123,1,90,10|0,0:0|0:0,0:0:0:0:
262,0,17478,2,0,L|272:89,1,90,2|2,1:2|1:2,0:0:0:0:
339,293,17794,1,10,0:0:0:0:
404,81,17952,6,0,P|448:72|490:81,1,90,2|0,0:0|1:2,0:0:0:0:
267,242,18268,2,0,P|223:251|180:242,1,90,2|8,1:2|0:0,0:0:0:0:
138,40,18583,2,0,P|167:73|181:115,1,90,2|0,0:0|1:2,0:0:0:0:
72,322,18899,1,2,1:2:0:0:
0,120,19057,2,0,L|89:110,1,90,10|0,0:0|0:0,0:0:0:0:
352,237,19373,6,0,B|284:228|284:228|249:249|249:249|179:240,2,180,2|8|0,1:2|0:0|1:2,0:0:0:0:
512,125,20162,1,0,1:2:0:0:
308,75,20320,1,8,0:0:0:0:
411,317,20478,6,0,P|440:283|454:241,1,90,0|0,1:2|0:0,0:0:0:0:
377,9,20794,1,8,0:0:0:0:
352,237,20952,1,0,1:2:0:0:
399,25,21110,1,8,0:0:0:0:
203,129,21268,5,2,1:2:0:0:
454,241,21426,1,8,0:0:0:0:
286,27,21583,2,0,L|196:16,1,90,10|0,0:0|0:0,0:0:0:0:
44,154,21899,6,0,B|98:129|160:154|160:154|130:184,2,161.999995056153,6|8|2,1:2|0:0|1:2,0:0:0:0:
64,338,22689,1,0,1:2:0:0:
64,338,22847,2,0,L|73:257,1,80.9999975280763,8|0,0:0|0:0,0:0:0:0:
126,85,23162,5,2,1:2:0:0:
174,257,23320,1,0,1:2:0:0:
109,71,23478,2,0,L|28:61,1,80.9999975280763,10|0,0:0|0:0,0:0:0:0:
209,176,23794,2,0,L|289:166,1,80.9999975280763,2|0,1:2|1:2,0:0:0:0:
253,14,24110,2,0,P|227:42|213:81,1,80.9999975280763,10|0,0:0|0:0,0:0:0:0:
349,231,24426,6,0,B|392:180|392:180|357:91,2,161.999995056153,2|8|2,1:2|0:0|1:2,0:0:0:0:
209,176,25215,1,0,1:2:0:0:
334,325,25373,1,8,0:0:0:0:
282,131,25531,1,10,0:0:0:0:
282,131,25610,1,10,0:0:0:0:
282,131,25689,5,2,1:2:0:0:
220,278,25847,1,0,1:2:0:0:
357,91,26004,2,0,B|396:83|396:83|435:91,1,80.9999975280763,8|0,0:0|0:0,0:0:0:0:
445,310,26320,1,2,1:2:0:0:
393,180,26478,1,2,1:2:0:0:
478,328,26636,1,10,0:0:0:0:
316,234,26794,1,2,1:2:0:0:
316,234,26873,1,8,0:0:0:0:
316,234,26952,6,0,B|254:225|254:225|223:244|223:244|160:236,1,161.999995056153,4|8,1:2|0:0,0:0:0:0:
48,142,27426,1,0,1:2:0:0:
48,142,27504,1,8,0:0:0:0:
48,142,27583,2,0,L|57:222,1,80.9999975280763,2|0,1:2|1:2,0:0:0:0:
105,343,27899,1,10,0:0:0:0:
213,145,28057,6,0,P|175:137|134:145,1,80.9999975280763,2|0,1:2|0:0,0:0:0:0:
211,337,28373,1,0,1:2:0:0:
289,83,28531,1,10,0:0:0:0:
295,288,28689,1,0,1:2:0:0:
206,46,28847,1,10,0:0:0:0:
421,155,29004,1,2,1:2:0:0:
180,229,29162,1,10,0:0:0:0:
313,61,29320,6,0,B|405:27|405:27|462:54,1,161.999995056153,6|0,1:2|1:2,0:0:0:0:
488,306,29794,1,8,0:0:0:0:
402,135,29952,1,0,1:2:0:0:
347,364,30110,5,8,0:0:0:0:
493,179,30268,1,0,1:2:0:0:
283,253,30426,1,8,0:0:0:0:
398,297,30583,1,0,1:2:0:0:
271,140,30741,5,8,0:0:0:0:
213,336,30899,1,0,1:2:0:0:
402,135,31057,1,8,0:0:0:0:
158,196,31215,1,8,0:0:0:0:
158,196,31294,1,8,0:0:0:0:
158,196,31373,5,0,1:2:0:0:
283,253,31531,1,0,1:2:0:0:
183,113,31689,2,0,L|102:103,1,80.9999975280763,0|10,1:2|0:0,0:0:0:0:
0,285,32004,6,0,B|55:332|126:285|126:285|98:275|83:254,1,188.999994232178,6|2,1:2|1:2,0:0:0:0:
102,103,32636,2,0,B|143:69|143:69|188:127|158:196,1,188.999994232178,10|0,0:0|1:2,0:0:0:0:
154,210,33189,1,8,0:0:0:0:
154,210,33268,1,2,1:2:0:0:
19,175,33426,1,10,0:0:0:0:
179,293,33583,2,0,L|241:285,1,62.9999980773926,2|0,1:2|0:0,0:0:0:0:
357,185,33899,2,0,L|231:169,1,125.999996154785,10|0,0:0|0:0,0:0:0:0:
163,108,34373,1,10,0:0:0:0:
290,38,34531,6,0,B|391:14|367:88|471:62,1,188.999994232178,2|2,1:2|1:2,0:0:0:0:
357,185,35162,1,10,0:0:0:0:
357,185,35320,2,0,P|335:161|326:132,1,62.9999980773926,2|0,0:0|0:0,0:0:0:0:
416,56,35636,1,2,1:2:0:0:
416,56,35715,1,8,0:0:0:0:
416,56,35794,6,0,L|408:118,1,62.9999980773926,2|8,1:2|0:0,0:0:0:0:
273,267,36110,2,0,L|265:204,1,62.9999980773926,2|0,1:2|0:0,0:0:0:0:
225,55,36426,1,10,0:0:0:0:
173,202,36583,1,0,1:2:0:0:
296,112,36741,1,8,0:0:0:0:
140,62,36899,1,10,0:0:0:0:
140,62,36978,1,8,0:0:0:0:
140,62,37057,6,0,B|33:48|33:48|61:65|69:91,1,161.999995056153,6|8,1:2|0:0,0:0:0:0:
39,191,37531,1,2,1:2:0:0:
39,191,37610,1,8,0:0:0:0:
39,191,37689,2,0,P|12:161|0:123,1,80.9999975280763,2|0,1:2|1:2,0:0:0:0:
194,194,38004,1,8,0:0:0:0:
21,291,38162,1,0,1:2:0:0:
21,291,38241,1,8,0:0:0:0:
21,291,38320,6,0,L|101:300,1,80.9999975280763,2|0,1:2|1:2,0:0:0:0:
266,240,38636,1,10,0:0:0:0:
200,378,38794,1,0,1:2:0:0:
200,378,38873,1,8,0:0:0:0:
200,378,38952,2,0,L|191:298,1,80.9999975280763,2|0,1:2|1:2,0:0:0:0:
147,114,39268,1,8,0:0:0:0:
112,213,39426,1,0,1:2:0:0:
262,47,39583,5,10,0:0:0:0:
262,47,41636,5,8,0:0:0:0:
363,216,41794,1,8,0:0:0:0:
147,114,41952,1,8,0:0:0:0:
368,13,42110,1,10,0:0:0:0:
368,13,44162,5,8,0:0:0:0:
254,203,44320,1,8,0:0:0:0:
441,115,44478,1,8,0:0:0:0:
176,64,44636,1,10,0:0:0:0:
176,64,45741,6,0,L|180:105,1,40.4999987640381,2|0,1:2|1:2,0:0:0:0:
197,237,45899,1,8,0:0:0:0:
197,237,46689,5,8,0:0:0:0:
388,143,46847,1,8,0:0:0:0:
176,64,47004,1,8,0:0:0:0:
294,302,47162,6,0,L|304:212,1,90,6|2,1:2|1:2,0:0:0:0:
272,19,47478,1,10,0:0:0:0:
236,142,47636,1,0,1:2:0:0:
236,142,47715,1,0,0:0:0:0:
236,142,47794,1,10,0:0:0:0:
374,37,47952,5,2,1:2:0:0:
134,148,48110,1,10,0:0:0:0:
385,227,48268,2,0,P|428:236|471:227,1,90,2|0,1:2|0:0,0:0:0:0:
226,278,48583,5,10,0:0:0:0:
226,278,48662,1,8,0:0:0:0:
226,278,48741,2,0,L|220:233,1,45,10|0,0:0|0:0,0:0:0:0:
200,95,48899,1,2,1:2:0:0:
200,95,48978,1,0,1:2:0:0:
200,95,49057,1,10,0:0:0:0:
34,273,49215,1,10,0:0:0:0:
34,273,49531,6,0,B|108:263|108:263|151:286|151:286|226:277,1,198.000006042481,6|2,1:2|1:2,0:0:0:0:
392,152,50004,2,0,L|293:139,1,99.0000030212403,10|0,0:0|1:2,0:0:0:0:
259,138,50241,1,8,0:0:0:0:
259,138,50320,1,2,1:2:0:0:
270,355,50478,2,0,P|301:322|317:272,1,99.0000030212403,2|8,1:2|0:0,0:0:0:0:
173,25,50794,6,0,B|137:146|137:146|192:195,1,198.000006042481,2|2,1:2|1:2,0:0:0:0:
376,62,51268,1,10,0:0:0:0:
259,138,51426,1,2,0:0:0:0:
462,214,51583,1,2,1:2:0:0:
271,37,51741,2,0,L|172:24,1,99.0000030212403,2|8,1:2|0:0,0:0:0:0:
35,220,52057,6,0,B|103:185|175:220|175:220|133:260,1,198.000006042481,2|2,1:2|1:2,0:0:0:0:
40,330,52531,1,10,0:0:0:0:
243,278,52689,1,2,0:0:0:0:
27,350,52847,1,2,1:2:0:0:
260,262,53004,2,0,L|358:249,1,99.0000030212403,2|8,1:2|0:0,0:0:0:0:
244,82,53320,6,0,B|200:54|200:54|142:115|184:188,1,198.000006042481,2|0,1:2|1:2,0:0:0:0:
472,95,53794,2,0,L|374:82,1,99.0000030212403,8|0,0:0|0:0,0:0:0:0:
260,262,54110,1,0,1:2:0:0:
446,193,54268,1,0,1:2:0:0:
199,95,54426,1,8,0:0:0:0:
320,347,54583,1,2,1:2:0:0:
320,347,54662,1,8,0:0:0:0:
320,347,54741,6,0,B|374:299|374:299|334:174,2,198.000006042481,6|8|2,1:2|0:0|1:2,0:0:0:0:
220,149,55531,1,2,1:2:0:0:
112,369,55689,2,0,P|78:304|95:233,1,148.50000453186,10|8,0:0|0:0,0:0:0:0:
114,220,56004,6,0,L|212:233,1,99.0000030212403,2|0,1:2|1:2,0:0:0:0:
335,179,56320,1,10,0:0:0:0:
178,38,56478,1,0,1:2:0:0:
178,38,56557,1,8,0:0:0:0:
178,38,56636,2,0,P|147:71|131:121,1,99.0000030212403,2|0,1:2|1:2,0:0:0:0:
199,331,56952,2,0,L|212:233,1,99.0000030212403,10|0,0:0|1:2,0:0:0:0:
242,206,57189,1,8,0:0:0:0:
242,206,57268,6,0,P|286:195|337:206,1,99.0000030212403,6|0,1:2|0:0,0:0:0:0:
444,323,57583,5,10,0:0:0:0:
371,94,57741,1,0,1:2:0:0:
289,284,57899,5,10,0:0:0:0:
476,60,58057,1,0,1:2:0:0:
226,121,58215,5,10,0:0:0:0:
489,242,58373,2,0,L|502:144,1,99.0000030212403,2|0,1:2|0:0,0:0:0:0:
292,10,58689,5,10,0:0:0:0:
292,10,58768,1,8,0:0:0:0:
292,10,58847,2,0,L|285:59,1,49.5000015106202,10|8,0:0|0:0,0:0:0:0:
180,246,59004,5,10,0:0:0:0:
180,246,59083,1,8,0:0:0:0:
180,246,59162,2,0,L|173:197,1,49.5000015106202,2|0,1:2|0:0,0:0:0:0:
146,23,59320,1,2,1:2:0:0:
146,23,59636,6,0,B|81:-7|9:23|9:23|57:60,1,198.000006042481,6|2,1:2|1:2,0:0:0:0:
213,197,60110,1,10,0:0:0:0:
1,264,60268,1,2,1:2:0:0:
1,264,60347,1,8,0:0:0:0:
1,264,60426,1,2,1:2:0:0:
168,112,60583,2,0,P|214:102|263:112,1,99.0000030212403,2|8,1:2|0:0,0:0:0:0:
141,355,60899,6,0,B|82:319|82:319|113:191,1,198.000006042481,2|2,1:2|1:2,0:0:0:0:
164,2,61373,1,10,0:0:0:0:
240,218,61531,1,2,0:0:0:0:
52,93,61689,1,0,1:2:0:0:
339,61,61847,2,0,P|348:107|339:156,1,99.0000030212403,2|8,1:2|0:0,0:0:0:0:
485,302,62162,6,0,B|370:260|370:260|301:299,1,198.000006042481,2|2,1:2|1:2,0:0:0:0:
112,193,62636,1,10,0:0:0:0:
246,371,62794,1,2,0:0:0:0:
246,112,62952,1,2,1:2:0:0:
110,319,63110,2,0,P|63:328|14:319,1,99.0000030212403,0|8,1:2|0:0,0:0:0:0:
128,55,63426,6,0,B|202:45|202:45|245:68|245:68|320:59,1,198.000006042481,2|0,1:2|1:2,0:0:0:0:
492,0,63899,2,0,L|479:98,1,99.0000030212403,8|0,0:0|0:0,0:0:0:0:
410,321,64215,1,0,1:2:0:0:
347,138,64373,1,0,1:2:0:0:
512,305,64531,1,8,0:0:0:0:
272,199,64689,1,2,1:2:0:0:
272,199,64768,1,8,0:0:0:0:
272,199,64847,6,0,L|124:179,1,148.50000453186,6|0,1:2|0:0,0:0:0:0:
94,176,65162,2,0,P|85:223|94:272,1,99.0000030212403,10|0,0:0|1:2,0:0:0:0:
106,300,65399,1,8,0:0:0:0:
106,300,65478,1,2,1:2:0:0:
187,97,65636,1,0,1:2:0:0:
219,275,65794,1,8,0:0:0:0:
100,70,65952,1,0,1:2:0:0:
100,70,66031,1,8,0:0:0:0:
100,70,66110,6,0,L|2:57,1,99.0000030212403,2|0,1:2|1:2,0:0:0:0:
94,176,66426,1,10,0:0:0:0:
226,6,66583,1,0,1:2:0:0:
226,6,66662,1,8,0:0:0:0:
226,6,66741,2,0,P|235:53|226:102,1,99.0000030212403,2|0,1:2|1:2,0:0:0:0:
131,275,67057,1,10,0:0:0:0:
100,70,67215,1,0,1:2:0:0:
100,70,67294,1,8,0:0:0:0:
100,70,67373,6,0,L|2:57,1,99.0000030212403,2|0,1:2|0:0,0:0:0:0:
223,247,67689,2,0,P|270:256|319:247,1,99.0000030212403,10|0,0:0|0:0,0:0:0:0:
406,38,68004,1,2,1:2:0:0:
456,285,68162,1,0,1:2:0:0:
291,56,68320,2,0,L|278:154,1,99.0000030212403,10|0,0:0|1:2,0:0:0:0:
276,176,68557,1,8,0:0:0:0:
276,176,68636,5,2,1:2:0:0:
319,347,68794,1,0,1:2:0:0:
174,133,68952,1,8,0:0:0:0:
407,251,69110,1,0,1:2:0:0:
407,251,69189,1,8,0:0:0:0:
407,251,69268,5,0,1:2:0:0:
191,321,69426,1,0,1:2:0:0:
276,176,69583,1,0,1:2:0:0:
319,264,69741,1,2,1:2:0:0:
174,133,69899,6,0,P|162:82|174:28,1,107.999996704102,6|0,1:2|0:0,0:0:0:0:
390,122,70215,1,10,0:0:0:0:
146,229,70373,1,0,1:2:0:0:
332,34,70531,6,0,P|382:22|436:34,1,107.999996704102,10|0,0:0|1:2,0:0:0:0:
428,295,70847,1,8,0:0:0:0:
299,139,71004,1,0,1:2:0:0:
195,352,71162,5,10,0:0:0:0:
420,208,71320,1,0,1:2:0:0:
139,140,71478,6,0,L|31:126,1,107.999996704102,10|0,0:0|1:2,0:0:0:0:
320,308,71794,2,0,L|427:294,1,107.999996704102,10|0,0:0|1:2,0:0:0:0:
301,0,72110,2,0,P|265:69|282:147,1,161.999995056153,10|0,0:0|0:0,0:0:0:0:
302,171,72426,5,10,0:0:0:0:
501,81,72583,1,8,0:0:0:0:
252,240,72741,2,0,L|154:227,1,99.0000030212403,10|0,0:0|0:0,0:0:0:0:
366,80,73057,5,10,0:0:0:0:
126,134,73215,1,8,0:0:0:0:
337,280,73373,2,0,P|347:233|337:184,1,99.0000030212403,10|0,0:0|1:2,0:0:0:0:
176,32,73689,5,10,0:0:0:0:
115,313,73847,1,8,0:0:0:0:
263,109,74004,1,0,1:2:0:0:
8,222,74162,1,8,0:0:0:0:
211,268,74320,5,0,1:2:0:0:
126,134,74478,1,8,0:0:0:0:
59,381,74636,2,0,P|123:347|196:363,1,148.50000453186,8|0,0:0|0:0,0:0:0:0:
214,378,74952,6,0,L|303:367,1,90,6|0,1:2|0:0,0:0:0:0:
447,278,75268,2,0,L|357:267,1,90,10|0,0:0|0:0,0:0:0:0:
205,165,75583,1,2,1:2:0:0:
373,112,75741,1,0,1:2:0:0:
191,193,75899,1,10,0:0:0:0:
377,86,76057,6,0,B|417:65|417:65|462:125|433:196,1,180,2|0,1:2|1:2,0:0:0:0:
331,308,76531,2,0,L|320:218,1,90,8|0,0:0|0:0,0:0:0:0:
266,63,76847,1,0,1:2:0:0:
205,165,77004,1,2,1:2:0:0:
377,86,77162,1,10,0:0:0:0:
164,37,77320,1,2,0:0:0:0:
320,218,77478,6,0,P|378:193|447:202,1,135,2|0,1:2|0:0,0:0:0:0:
474,222,77794,2,0,L|463:312,1,90,10|0,0:0|0:0,0:0:0:0:
248,278,78110,1,2,1:2:0:0:
399,374,78268,1,0,1:2:0:0:
320,218,78426,1,10,0:0:0:0:
212,360,78583,6,0,B|143:350|143:350|108:371|108:371|38:362,1,180,2|0,1:2|1:2,0:0:0:0:
73,210,79057,2,0,L|78:254,3,45,8|2|2|2,0:0|0:0|0:0|0:0,0:0:0:0:
174,194,79373,1,0,1:2:0:0:
175,182,79452,1,2,0:0:0:0:
176,171,79531,1,0,1:2:0:0:
178,160,79610,1,2,0:0:0:0:
179,149,79689,2,0,L|184:104,3,45,8|2|2|2,0:0|0:0|0:0|0:0,0:0:0:0:
138,30,80004,6,0,B|69:-5|-2:30|-2:30|40:59,1,198.000006042481,6|10,1:2|0:0,0:0:0:0:
261,212,80478,1,0,1:2:0:0:
98,156,80636,2,0,L|0:143,1,99.0000030212403,10|0,0:0|1:2,0:0:0:0:
157,279,80952,1,10,0:0:0:0:
249,70,81110,1,2,1:2:0:0:
50,281,81268,6,0,P|64:327|97:363,1,99.0000030212403,8|0,0:0|1:2,0:0:0:0:
330,268,81583,1,8,0:0:0:0:
98,156,81741,1,0,1:2:0:0:
98,156,81820,1,0,1:2:0:0:
98,156,81899,1,8,0:0:0:0:
245,323,82057,1,2,1:2:0:0:
341,78,82215,1,10,0:0:0:0:
157,279,82373,1,2,1:2:0:0:
413,152,82531,6,0,L|511:139,1,99.0000030212403,10|0,0:0|0:0,0:0:0:0:
257,44,82847,1,10,0:0:0:0:
357,244,83004,1,0,1:2:0:0:
506,20,83162,2,0,P|458:9|410:20,1,99.0000030212403,10|0,0:0|1:2,0:0:0:0:
214,140,83478,1,10,0:0:0:0:
460,235,83636,6,0,B|501:171|460:98|460:98|418:131,1,198.000006042481,6|0,1:2|1:2,0:0:0:0:
246,241,84110,1,8,0:0:0:0:
437,328,84268,1,8,0:0:0:0:
437,328,84347,1,8,0:0:0:0:
437,328,84426,1,0,1:2:0:0:
340,177,84583,1,0,1:2:0:0:
340,177,84662,1,0,1:2:0:0:
340,177,84741,2,0,L|333:226,3,49.5000015106202,8|8|8|8,0:0|0:0|0:0|0:0,0:0:0:0:
269,324,85057,5,10,0:0:0:0:
209,121,85215,1,8,0:0:0:0:
144,347,85373,2,0,P|101:356|57:347,1,90,10|0,0:0|1:2,0:0:0:0:
110,86,85689,5,10,0:0:0:0:
192,256,85847,1,0,1:2:0:0:
161,0,86004,1,10,0:0:0:0:
0,172,86162,2,0,B|68:162|68:162|103:183|103:183|173:174,1,180,6|0,1:2|1:2,0:0:0:0:
199,172,86557,1,0,1:2:0:0:
199,172,86636,5,8,0:0:0:0:
363,73,86794,1,0,1:2:0:0:
89,57,86952,1,8,0:0:0:0:
352,226,87110,5,8,0:0:0:0:
248,31,87268,1,8,0:0:0:0:
85,294,87426,6,0,B|122:308|159:294|159:294|194:324|194:324|235:311|268:324,1,198,8|0,0:0|0:0,0:0:0:0:
280,310,87939,2,0,L|284:274,3,36,8|0|0|0,0:0|1:2|1:2|1:2,0:0:0:0:
