osu file format v14

[General]
AudioFilename: audio.mp3
AudioLeadIn: 0
PreviewTime: 48504
Countdown: 0
SampleSet: Soft
StackLeniency: 0.7
Mode: 0
LetterboxInBreaks: 0
WidescreenStoryboard: 0

[Editor]
Bookmarks: 21031,21583,25531,25689,26478,32004,38004,38162,41004,42268,42347,47715,55452,65004,70452,70768,71083,71399,79689,79847,80794,81268,81347,81504,81583,83636
DistanceSpacing: 0.9
BeatDivisor: 4
GridSize: 4
TimelineZoom: 3.499999

[Metadata]
Title:GROWING* (TV Size)
TitleUnicode:GROWING* (TV Size)
Artist:Hitotsuyanagi-tai
ArtistUnicode:一柳隊
Creator:SkyZaf
Version:BLOSSOM
Source:アサルトリリィ BOUQUET
Tags:kpmy sightread [yoshino] suimya sekai sekaii sekai-nyan -nanoripe- freezinganimenz assault lily ブーケ ラスバレ last bullet episode 8 ed ending short version anime japanese pop jpop j-pop tai hitotsuyanagi riri ひとつやなぎ りり 一柳梨璃 akao hikaru あかお ひかる 赤尾ひかる shirai yuyu しらい ゆゆ 白井夢結 natsuyoshi yuuko なつよし ゆうこ 夏吉ゆうこ kaede johan nouvel かえで ぬーべる 楓・j・ヌーベル izawa mikako いざわ みかこ 井澤美香子 futagawa fumi ふたがわ ふみ 二川二水 nishimoto rimi にしもと りみ 西本りみ ando tazusa あんどう たずさ 安藤鶴紗 tsumugi risa つむぎ りさ 紡木吏佐 yoshimura thi mai よしむら まい 吉村・thi・梅 iwata haruki いわた はるき 岩田陽葵 kuo shenlin 郭神琳 hoshimori sana ほしもり さな 星守紗凪 wang yujia 王雨嘉 tono とおの 遠野ひかる miliam miriam hildegard von guropius みりあむ ひるでがるど ぐろぴうす ミリアム・ヒルデガルド・v・グロピウス takahashi karin たかはし かりん 高橋花林
BeatmapID:4482144
BeatmapSetID:2130981

[Difficulty]
HPDrainRate:6
CircleSize:4.2
OverallDifficulty:9
ApproachRate:9.3
SliderMultiplier:1.8
SliderTickRate:1

[Events]
//Background and Video events
0,0,"Blossom.jpg",0,0
Video,-1050,"ed 8.mp4"
//Break Periods
//Storyboard Layer 0 (Background)
//Storyboard Layer 1 (Fail)
//Storyboard Layer 2 (Pass)
//Storyboard Layer 3 (Foreground)
//Storyboard Layer 4 (Overlay)
//Storyboard Sound Samples

[TimingPoints]
426,315.789473684211,4,2,1,75,1,0
583,-133.333333333333,4,2,1,55,0,0
1531,-125,4,2,1,58,0,0
6741,-100,4,2,1,65,0,0
11794,-111.111111111111,4,2,1,60,0,0
16847,-95.2380952380952,4,2,1,65,0,0
21899,-100,4,2,1,63,0,0
29320,-95.2380952380952,4,2,1,63,0,0
32004,-111.111111111111,4,2,1,60,0,0
37057,-100,4,2,1,63,0,0
39583,-117.647058823529,4,2,1,60,0,0
41636,-100,4,2,1,60,0,0
42110,-117.647058823529,4,2,1,60,0,0
44162,-100,4,2,1,60,0,0
44636,-117.647058823529,4,2,1,60,0,0
46689,-100,4,2,1,60,0,0
47162,-95.2380952380952,4,2,1,65,0,0
49215,-142.857142857143,4,2,1,65,0,0
49452,-105.263157894737,4,2,1,5,0,0
49531,-90.9090909090909,4,2,1,75,0,1
58610,-90.9090909090909,4,2,1,75,0,1
58689,-90.9090909090909,4,2,1,75,0,1
69899,-86.9565217391304,4,2,1,80,0,1
72426,-86.9565217391304,4,2,1,75,0,1
74952,-95.2380952380952,4,2,1,70,0,0
80004,-86.9565217391304,4,2,1,80,0,0
83636,-95.2380952380952,4,2,1,80,0,0
85057,-95.2380952380952,4,2,1,70,0,0
86162,-95.2380952380952,4,2,1,75,0,0
89478,-95.2380952380952,4,2,1,75,0,0

[Colours]
Combo1 : 204,147,136
Combo2 : 58,162,237
Combo3 : 251,149,213
Combo4 : 249,220,106
Combo5 : 163,86,105

[HitObjects]
73,131,1531,6,0,B|117:112|161:133|141:151|186:168|233:139,1,144,6|2,1:2|0:0,0:0:0:0:
304,234,2004,2,0,P|302:190|286:140,1,72,2|2,0:0|0:0,0:0:0:0:
396,74,2320,2,0,P|388:109|387:145,1,72,2|2,0:0|0:0,0:0:0:0:
462,218,2636,1,0,0:0:0:0:
388,344,2794,6,0,P|308:346|228:362,1,144,2|2,0:0|0:0,0:0:0:0:
184,291,3268,1,2,0:0:0:0:
184,291,3426,1,2,0:0:0:0:
124,384,3583,1,2,0:0:0:0:
53,315,3741,2,0,L|39:223,1,72,2|0,0:0|0:0,0:0:0:0:
0,70,4057,6,0,P|55:25|139:58,1,144,2|2,0:0|0:0,0:0:0:0:
172,122,4531,2,0,P|222:112|271:110,1,72,2|2,0:0|0:0,0:0:0:0:
340,151,4847,1,2,0:0:0:0:
340,151,5004,1,2,0:0:0:0:
437,92,5162,1,0,0:0:0:0:
336,33,5320,1,2,0:0:0:0:
455,111,5478,6,0,P|447:146|446:182,1,72
431,314,5794,2,0,P|390:321|349:300,1,72,2|0,0:0|0:0,0:0:0:0:
250,188,6110,1,2,0:0:0:0:
270,383,6268,1,8,0:0:0:0:
270,383,6347,1,8,0:0:0:0:
270,383,6426,2,0,L|278:311,1,72,10|2,0:0|0:0,0:0:0:0:
295,118,6741,6,0,P|228:98|167:213,1,180,6|10,1:2|0:0,0:0:0:0:
146,205,7136,1,8,0:0:0:0:
146,205,7215,1,8,0:0:0:0:
31,384,7373,2,0,P|26:291|4:174,1,180,2|8,1:2|0:0,0:0:0:0:
7,180,7768,1,8,0:0:0:0:
7,180,7847,1,8,0:0:0:0:
121,43,8004,6,0,B|176:21|227:36|201:69|261:76|317:48,1,180,2|10,1:2|0:0,0:0:0:0:
319,40,8399,1,8,0:0:0:0:
319,40,8478,1,8,0:0:0:0:
503,175,8636,2,0,B|429:184|429:184|403:214|403:214|323:223,1,180,2|10,1:2|0:0,0:0:0:0:
310,249,9031,1,8,0:0:0:0:
310,249,9110,1,8,0:0:0:0:
419,78,9268,5,10,0:0:0:0:
425,292,9426,1,8,0:0:0:0:
233,164,9583,1,10,0:0:0:0:
230,151,9899,5,10,0:0:0:0:
35,282,10057,1,8,0:0:0:0:
25,59,10215,1,10,0:0:0:0:
22,40,10531,6,0,P|110:54|200:59,1,180,6|0,1:2|1:2,0:0:0:0:
306,129,11004,1,0,0:0:0:0:
390,31,11162,1,2,1:2:0:0:
494,142,11320,1,8,0:0:0:0:
390,40,11478,2,0,P|400:83|405:132,1,90,2|0,1:2|0:0,0:0:0:0:
475,288,11794,6,0,B|408:294|408:294|377:318|377:318|299:324,1,161.999995056153,6|0,1:2|0:0,0:0:0:0:
255,239,12268,1,0,1:2:0:0:
174,305,12426,2,0,L|191:410,1,80.9999975280763,2|0,0:0|1:2,0:0:0:0:
75,253,12741,2,0,P|70:209|97:168,1,80.9999975280763,8|0,0:0|0:0,0:0:0:0:
252,158,13057,6,0,P|208:163|164:174,1,80.9999975280763,2|0,1:2|0:0,0:0:0:0:
49,71,13373,2,0,P|88:80|128:84,1,80.9999975280763,2|0,0:0|1:2,0:0:0:0:
264,153,13689,1,2,0:0:0:0:
148,81,13847,1,0,1:2:0:0:
268,19,14004,2,0,P|315:15|360:44,1,80.9999975280763,10|0,0:0|0:0,0:0:0:0:
498,223,14320,6,0,B|447:213|398:224|419:249|376:259|312:238,1,161.999995056153,2|0,1:2|0:0,0:0:0:0:
439,384,14794,2,0,P|443:343|452:304,1,80.9999975280763,0|0,1:2|0:0,0:0:0:0:
369,169,15110,1,0,1:2:0:0:
295,312,15268,2,0,P|252:315|210:279,1,80.9999975280763,10|2,0:0|0:0,0:0:0:0:
60,156,15583,6,0,P|77:227|85:340,1,161.999995056153,0|0,1:2|0:0,0:0:0:0:
214,376,16057,2,0,P|218:307|225:275,1,80.9999975280763,0|0,1:2|0:0,0:0:0:0:
387,248,16373,1,8,0:0:0:0:
387,248,16452,1,8,0:0:0:0:
387,248,16531,1,8,0:0:0:0:
273,128,16689,1,2,0:0:0:0:
477,203,16847,6,0,L|487:298,1,94.499997116089,6|2,1:2|0:0,0:0:0:0:
283,115,17162,2,0,L|292:21,1,94.499997116089,10|0,0:0|0:0,0:0:0:0:
387,248,17478,1,2,1:2:0:0:
193,148,17636,1,2,1:2:0:0:
400,72,17794,1,10,0:0:0:0:
251,208,17952,6,0,P|186:232|151:222,1,94.499997116089,2|0,0:0|1:2,0:0:0:0:
47,60,18268,2,0,P|57:105|63:152,1,94.499997116089,2|8,1:2|0:0,0:0:0:0:
26,358,18583,1,2,0:0:0:0:
65,180,18741,1,0,1:2:0:0:
175,339,18899,1,2,1:2:0:0:
278,166,19057,2,0,L|292:277,1,94.499997116089,10|0,0:0|0:0,0:0:0:0:
462,377,19373,6,0,B|468:304|468:304|494:275|494:275|501:191,1,188.999994232178,2|8,1:2|0:0,0:0:0:0:
361,44,19847,1,0,0:0:0:0:
420,246,20004,1,0,1:2:0:0:
294,159,20162,1,0,1:2:0:0:
482,69,20320,1,8,0:0:0:0:
272,170,20478,6,0,P|220:189|152:171,1,94.499997116089,0|0,1:2|0:0,0:0:0:0:
55,60,20794,2,0,P|65:105|72:151,1,94.499997116089,8|0,0:0|1:2,0:0:0:0:
248,270,21110,2,0,P|254:222|265:177,1,94.499997116089,8|2,0:0|1:2,0:0:0:0:
142,23,21426,1,8,0:0:0:0:
27,210,21583,2,0,P|70:230|140:200,1,94.499997116089,10|0,0:0|0:0,0:0:0:0:
235,50,21899,6,0,B|291:72|334:54|312:36|364:24|425:52,1,180,6|8,1:2|0:0,0:0:0:0:
501,162,22373,1,0,0:0:0:0:
363,110,22531,1,2,1:2:0:0:
486,31,22689,1,0,1:2:0:0:
416,175,22847,2,0,L|425:264,1,90,8|0,0:0|0:0,0:0:0:0:
255,335,23162,6,0,L|264:246,1,90,2|0,1:2|1:2,0:0:0:0:
198,115,23478,2,0,P|138:119|107:150,1,90,10|0,0:0|0:0,0:0:0:0:
50,284,23794,1,2,1:2:0:0:
171,199,23952,1,0,1:2:0:0:
28,113,24110,2,0,P|42:182|45:221,1,90,10|0,0:0|0:0,0:0:0:0:
120,337,24426,6,0,P|193:324|310:319,1,180,2|8,1:2|0:0,0:0:0:0:
447,240,24899,1,0,0:0:0:0:
384,367,25057,2,0,B|405:322|393:270|366:296|357:249|379:193,1,180,2|8,1:2|0:0,0:0:0:0:
488,96,25531,1,10,0:0:0:0:
488,96,25610,1,10,0:0:0:0:
488,96,25689,6,0,P|444:68|376:80,1,90,2|0,1:2|1:2,0:0:0:0:
280,206,26004,2,0,P|331:202|379:153,1,90,8|0,0:0|0:0,0:0:0:0:
243,94,26320,1,2,1:2:0:0:
158,236,26478,1,2,1:2:0:0:
101,67,26636,1,10,0:0:0:0:
76,264,26794,1,2,1:2:0:0:
76,264,26873,1,8,0:0:0:0:
76,264,26952,6,0,P|115:313|234:274,1,180,4|8,1:2|0:0,0:0:0:0:
253,105,27426,1,0,1:2:0:0:
253,105,27504,1,8,0:0:0:0:
253,105,27583,2,0,P|267:174|270:213,1,90,2|0,1:2|1:2,0:0:0:0:
343,306,27899,1,10,0:0:0:0:
458,138,28057,6,0,P|445:211|440:328,1,180,2|0,1:2|1:2,0:0:0:0:
258,384,28531,2,0,P|255:312|244:262,1,90,10|0,0:0|1:2,0:0:0:0:
160,142,28847,1,10,0:0:0:0:
135,352,29004,1,2,1:2:0:0:
13,196,29162,1,10,0:0:0:0:
267,290,29320,6,0,B|340:296|340:296|369:322|369:322|453:329,1,188.999994232178,6|0,1:2|1:2,0:0:0:0:
512,139,29794,2,0,L|388:152,1,94.499997116089,8|0,0:0|1:2,0:0:0:0:
266,123,30110,1,8,0:0:0:0:
430,45,30268,1,0,1:2:0:0:
416,231,30426,1,8,0:0:0:0:
339,72,30583,1,0,1:2:0:0:
239,269,30741,6,0,P|189:281|136:254,1,94.499997116089,8|0,0:0|1:2,0:0:0:0:
42,132,31057,1,8,0:0:0:0:
191,192,31215,1,8,0:0:0:0:
191,192,31294,1,8,0:0:0:0:
191,192,31373,5,0,1:2:0:0:
167,87,31531,1,0,1:2:0:0:
263,22,31689,1,0,1:2:0:0:
357,93,31847,1,10,0:0:0:0:
478,14,32004,6,0,P|481:85|494:192,1,161.999995056153,6|0,1:2|0:0,0:0:0:0:
452,266,32478,1,2,1:2:0:0:
452,266,32636,2,0,B|398:254|366:269|386:287|344:301|295:283,1,161.999995056153,10|0,0:0|0:0,0:0:0:0:
116,354,33110,1,0,1:2:0:0:
116,354,33189,1,8,0:0:0:0:
116,354,33268,5,2,1:2:0:0:
56,288,33426,1,10,0:0:0:0:
56,288,33583,2,0,P|66:234|68:184,1,80.9999975280763,2|0,1:2|0:0,0:0:0:0:
42,106,33899,2,0,B|113:113|113:113|134:139|134:139|217:146,1,161.999995056153,10|0,0:0|0:0,0:0:0:0:
232,61,34373,1,10,0:0:0:0:
335,200,34531,6,0,P|403:219|474:142,1,161.999995056153,2|0,1:2|0:0,0:0:0:0:
448,24,35004,1,2,1:2:0:0:
448,24,35162,1,10,0:0:0:0:
359,122,35320,2,0,P|278:128|190:144,1,161.999995056153,2|2,0:0|1:2,0:0:0:0:
155,142,35715,1,8,0:0:0:0:
155,142,35794,6,0,P|152:101|143:62,1,80.9999975280763,2|8,1:2|0:0,0:0:0:0:
44,149,36110,2,0,P|46:189|55:228,1,80.9999975280763,2|0,1:2|0:0,0:0:0:0:
196,329,36426,2,0,B|250:317|282:332|262:350|304:364|350:346,1,161.999995056153,10|8,0:0|0:0,0:0:0:0:
486,203,36899,1,10,0:0:0:0:
486,203,36978,1,8,0:0:0:0:
486,203,37057,6,0,P|488:247|497:292,1,90,6|0,1:2|0:0,0:0:0:0:
399,97,37373,1,8,0:0:0:0:
319,237,37531,1,2,1:2:0:0:
319,237,37610,1,8,0:0:0:0:
319,237,37689,2,0,P|270:229|235:179,1,90,2|0,1:2|1:2,0:0:0:0:
107,95,38004,1,8,0:0:0:0:
159,292,38162,1,0,1:2:0:0:
159,292,38241,1,8,0:0:0:0:
159,292,38320,6,0,L|148:184,1,90,2|0,1:2|1:2,0:0:0:0:
0,274,38636,1,10,0:0:0:0:
127,384,38794,1,0,1:2:0:0:
127,384,38873,1,8,0:0:0:0:
127,384,38952,2,0,B|196:375|196:375|219:355|219:355|302:343,1,180,2|8,1:2|0:0,0:0:0:0:
338,233,39426,1,0,1:2:0:0:
489,316,39583,6,0,P|487:225|494:136,1,153.000002918243,10|2,0:0|0:0,0:0:0:0:
424,84,40057,1,2,0:0:0:0:
424,84,40215,2,0,B|381:96|336:86|365:65|318:46|279:60,1,153.000002918243,2|2,0:0|0:0,0:0:0:0:
211,150,40689,6,0,P|200:102|199:57,1,76.5000014591217,2|0,0:0|0:0,0:0:0:0:
114,7,41004,1,2,0:0:0:0:
114,7,41162,2,0,P|110:45|101:82,1,76.5000014591217,2|0,0:0|0:0,0:0:0:0:
27,144,41478,1,2,0:0:0:0:
212,308,41636,5,8,0:0:0:0:
99,100,41794,1,8,0:0:0:0:
12,337,41952,1,8,0:0:0:0:
167,178,42110,6,0,L|274:190,1,76.5000014591217,10|2,0:0|0:0,0:0:0:0:
331,298,42426,2,0,L|322:221,1,76.5000014591217,2|2,0:0|0:0,0:0:0:0:
287,84,42741,2,0,P|331:38|423:65,1,153.000002918243,2|2,0:0|0:0,0:0:0:0:
503,99,43215,2,0,B|495:159|495:159|471:184|471:184|465:241,1,153.000002918243,2|2,0:0|0:0,0:0:0:0:
419,330,43689,2,0,P|369:341|331:323,1,76.5000014591217,2|0,0:0|0:0,0:0:0:0:
371,255,44004,1,2,0:0:0:0:
192,129,44162,5,8,0:0:0:0:
255,374,44320,1,8,0:0:0:0:
398,162,44478,1,8,0:0:0:0:
187,301,44636,6,0,P|148:304|111:313,1,76.5000014591217,10|2,0:0|0:0,0:0:0:0:
22,352,44952,1,2,0:0:0:0:
22,352,45110,1,2,0:0:0:0:
42,255,45268,2,0,B|41:166|20:85,1,153.000002918243,2|2,0:0|0:0,0:0:0:0:
205,7,45741,1,2,1:2:0:0:
205,7,45820,1,0,1:2:0:0:
205,7,45899,6,0,P|198:54|199:86,1,76.5000014591217,8|2,0:0|0:0,0:0:0:0:
272,160,46215,2,0,P|321:159|342:145,1,76.5000014591217,2|0,0:0|0:0,0:0:0:0:
380,60,46531,1,2,0:0:0:0:
458,242,46689,5,8,0:0:0:0:
284,57,46847,1,8,0:0:0:0:
265,311,47004,1,8,0:0:0:0:
508,189,47162,6,0,P|460:188|414:183,1,94.499997116089,6|2,1:2|1:2,0:0:0:0:
320,0,47478,5,10,0:0:0:0:
342,255,47636,1,0,1:2:0:0:
206,86,47794,5,10,0:0:0:0:
497,106,47952,1,2,1:2:0:0:
248,292,48110,5,10,0:0:0:0:
121,12,48268,1,2,1:2:0:0:
121,12,48583,5,10,0:0:0:0:
121,12,48662,1,8,0:0:0:0:
121,12,48741,2,0,L|135:122,1,94.499997116089,10|2,0:0|1:2,0:0:0:0:
166,261,49057,1,10,0:0:0:0:
17,178,49215,2,0,L|11:281,1,94.499997116089,10|0,0:0|0:0,0:0:0:0:
13,322,49531,6,0,B|66:303|131:309|112:355|164:361|241:313,1,198.000006042481,6|2,1:2|1:2,0:0:0:0:
268,149,50004,1,10,0:0:0:0:
377,357,50162,1,0,1:2:0:0:
377,357,50241,1,8,0:0:0:0:
377,357,50320,2,0,P|423:346|481:341,1,99.0000030212403,2|2,1:2|1:2,0:0:0:0:
346,176,50636,1,8,0:0:0:0:
203,332,50794,6,0,P|147:357|65:242,1,198.000006042481,2|2,1:2|1:2,0:0:0:0:
22,51,51268,1,10,0:0:0:0:
58,256,51426,1,2,0:0:0:0:
158,81,51583,2,0,P|205:60|281:80,1,99.0000030212403,2|2,1:2|1:2,0:0:0:0:
348,234,51899,1,8,0:0:0:0:
461,15,52057,6,0,B|445:96|452:221,1,198.000006042481,2|2,1:2|1:2,0:0:0:0:
318,358,52531,1,10,0:0:0:0:
372,159,52689,1,2,0:0:0:0:
512,291,52847,2,0,P|462:297|414:308,1,99.0000030212403,2|2,1:2|1:2,0:0:0:0:
294,132,53162,1,8,0:0:0:0:
231,290,53320,6,0,B|149:299|149:299|121:326|121:326|34:336,1,198.000006042481,2|0,1:2|1:2,0:0:0:0:
75,135,53794,2,0,L|96:265,1,99.0000030212403,8|0,0:0|0:0,0:0:0:0:
18,70,54110,1,0,1:2:0:0:
5,226,54268,1,0,1:2:0:0:
153,91,54426,1,8,0:0:0:0:
237,275,54583,1,2,1:2:0:0:
237,275,54662,1,8,0:0:0:0:
237,275,54741,6,0,P|328:293|380:216,1,198.000006042481,6|8,1:2|0:0,0:0:0:0:
420,63,55215,1,0,0:0:0:0:
297,203,55373,2,0,P|291:156|279:105,1,99.0000030212403,2|2,1:2|1:2,0:0:0:0:
512,44,55689,2,0,P|501:89|495:144,1,99.0000030212403,10|0,0:0|1:2,0:0:0:0:
496,182,55926,1,8,0:0:0:0:
496,182,56004,1,2,1:2:0:0:
288,79,56162,1,0,1:2:0:0:
300,293,56320,6,0,P|243:295|196:252,1,99.0000030212403,10|0,0:0|1:2,0:0:0:0:
201,249,56557,1,8,0:0:0:0:
201,249,56636,2,0,L|216:151,1,99.0000030212403,2|0,1:2|1:2,0:0:0:0:
20,135,56952,1,10,0:0:0:0:
193,19,57110,1,0,1:2:0:0:
193,19,57189,1,8,0:0:0:0:
193,19,57268,6,0,P|255:19|291:66,1,99.0000030212403,6|0,1:2|0:0,0:0:0:0:
438,266,57583,1,10,0:0:0:0:
456,103,57741,1,0,1:2:0:0:
222,177,57899,1,10,0:0:0:0:
388,346,58057,1,0,1:2:0:0:
460,82,58215,1,10,0:0:0:0:
284,328,58373,6,0,B|236:314|195:335|215:353|169:368|116:340,1,148.50000453186,2|0,1:2|0:0,0:0:0:0:
97,336,58689,6,0,L|77:264,1,49.5000015106202,10|8,0:0|0:0,0:0:0:0:
80,131,58847,1,10,0:0:0:0:
109,91,58925,1,8,0:0:0:0:
153,70,59004,1,10,0:0:0:0:
200,70,59083,1,8,0:0:0:0:
244,96,59162,1,2,1:2:0:0:
345,283,59320,1,2,1:2:0:0:
362,300,59636,6,0,P|446:319|501:202,1,198.000006042481,6|2,1:2|1:2,0:0:0:0:
467,49,60110,1,10,0:0:0:0:
373,209,60268,1,2,1:2:0:0:
373,209,60347,1,8,0:0:0:0:
373,209,60426,2,0,P|313:211|276:188,1,99.0000030212403,2|2,1:2|1:2,0:0:0:0:
189,23,60741,1,8,0:0:0:0:
19,137,60899,6,0,B|35:218|28:343,1,198.000006042481,2|2,1:2|1:2,0:0:0:0:
195,384,61373,2,0,P|201:337|217:274,1,99.0000030212403,10|2,0:0|0:0,0:0:0:0:
339,140,61689,1,0,1:2:0:0:
282,358,61847,1,2,1:2:0:0:
124,189,62004,1,8,0:0:0:0:
305,279,62162,6,0,B|356:258|425:278|395:307|454:325|532:275,1,198.000006042481,2|2,1:2|1:2,0:0:0:0:
430,111,62636,2,0,P|441:159|447:208,1,99.0000030212403,10|2,0:0|0:0,0:0:0:0:
310,118,62952,1,2,1:2:0:0:
502,40,63110,1,0,1:2:0:0:
447,228,63268,1,8,0:0:0:0:
331,25,63426,6,0,B|249:34|249:34|221:61|221:61|134:71,1,198.000006042481,2|0,1:2|1:2,0:0:0:0:
2,232,63899,2,0,L|99:248,1,99.0000030212403,8|0,0:0|0:0,0:0:0:0:
233,235,64215,1,0,1:2:0:0:
82,346,64373,1,0,1:2:0:0:
93,145,64531,1,8,0:0:0:0:
255,339,64689,1,2,1:2:0:0:
255,339,64768,1,8,0:0:0:0:
255,339,64847,6,0,P|306:339|366:273,1,99.0000030212403,6|0,1:2|0:0,0:0:0:0:
355,112,65162,1,10,0:0:0:0:
496,275,65320,1,0,1:2:0:0:
496,275,65399,1,8,0:0:0:0:
496,275,65478,2,0,P|501:225|513:177,1,99.0000030212403,2|0,1:2|1:2,0:0:0:0:
426,7,65794,1,8,0:0:0:0:
249,75,65952,1,0,1:2:0:0:
249,75,66031,1,8,0:0:0:0:
249,75,66110,6,0,P|260:123|265:172,1,99.0000030212403,2|0,1:2|1:2,0:0:0:0:
143,350,66426,2,0,P|85:361|41:329,1,99.0000030212403,10|0,0:0|1:2,0:0:0:0:
187,162,66741,1,2,1:2:0:0:
246,365,66899,1,0,1:2:0:0:
104,235,67057,1,10,0:0:0:0:
322,322,67215,1,0,1:2:0:0:
322,322,67294,1,8,0:0:0:0:
322,322,67373,6,0,L|450:309,1,99.0000030212403,2|0,1:2|0:0,0:0:0:0:
512,111,67689,2,0,L|384:98,1,99.0000030212403,10|0,0:0|0:0,0:0:0:0:
226,27,68004,1,2,1:2:0:0:
359,184,68162,1,0,1:2:0:0:
209,25,68320,2,0,P|153:24|107:60,1,99.0000030212403,10|0,0:0|1:2,0:0:0:0:
86,77,68557,1,8,0:0:0:0:
86,77,68636,6,0,P|102:123|108:173,1,99.0000030212403,2|0,1:2|1:2,0:0:0:0:
277,215,68952,1,8,0:0:0:0:
133,331,69110,1,0,1:2:0:0:
133,331,69189,1,8,0:0:0:0:
133,331,69268,1,0,1:2:0:0:
207,159,69426,1,0,1:2:0:0:
265,329,69583,1,0,1:2:0:0:
96,241,69741,1,2,1:2:0:0:
285,330,69899,6,0,P|337:318|411:314,1,103.500001974106,6|0,1:2|0:0,0:0:0:0:
431,124,70215,5,10,0:0:0:0:
488,335,70373,1,0,1:2:0:0:
274,169,70531,5,10,0:0:0:0:
511,75,70689,1,0,1:2:0:0:
403,296,70847,5,8,0:0:0:0:
375,48,71004,1,0,1:2:0:0:
293,369,71162,5,10,0:0:0:0:
328,113,71319,1,0,1:2:0:0:
103,228,71478,5,10,0:0:0:0:
379,293,71635,1,0,1:2:0:0:
129,132,71794,5,10,0:0:0:0:
174,370,71952,1,0,1:2:0:0:
254,64,72110,5,10,0:0:0:0:
228,306,72268,1,0,0:0:0:0:
474,141,72426,5,10,0:0:0:0:
420,384,72583,1,8,0:0:0:0:
283,168,72741,2,0,B|229:184|178:186,1,103.500001974106,10|0,0:0|0:0,0:0:0:0:
339,70,73057,5,10,0:0:0:0:
512,217,73215,1,8,0:0:0:0:
313,347,73373,2,0,P|321:283|321:224,1,103.500001974106,10|0,0:0|1:2,0:0:0:0:
188,97,73689,5,10,0:0:0:0:
235,364,73847,1,8,0:0:0:0:
430,152,74004,1,0,1:2:0:0:
182,185,74162,5,8,0:0:0:0:
437,323,74320,1,0,1:2:0:0:
418,58,74478,1,8,0:0:0:0:
309,245,74636,2,0,P|228:255|123:281,1,155.250002961159,8|0,0:0|0:0,0:0:0:0:
110,286,74952,6,0,P|77:249|79:187,1,94.499997116089,6|0,1:2|0:0,0:0:0:0:
183,40,75268,2,0,P|185:86|160:125,1,94.499997116089,10|0,0:0|0:0,0:0:0:0:
0,277,75583,1,2,1:2:0:0:
59,81,75741,1,0,1:2:0:0:
178,261,75899,1,10,0:0:0:0:
329,45,76057,6,0,P|409:15|479:100,1,188.999994232178,2|0,1:2|1:2,0:0:0:0:
390,241,76531,2,0,P|388:189|380:142,1,94.499997116089,8|0,0:0|0:0,0:0:0:0:
186,40,76847,1,0,1:2:0:0:
372,118,77004,1,2,1:2:0:0:
217,244,77162,1,10,0:0:0:0:
302,53,77320,1,2,0:0:0:0:
512,176,77478,6,0,L|378:193,1,94.499997116089,2|0,1:2|0:0,0:0:0:0:
313,345,77794,2,0,L|406:356,1,94.499997116089,10|0,0:0|0:0,0:0:0:0:
230,154,78110,1,2,1:2:0:0:
239,384,78268,1,0,1:2:0:0:
399,209,78426,1,10,0:0:0:0:
223,304,78583,6,0,B|141:313|141:313|113:340|113:340|31:350,1,188.999994232178,2|0,1:2|1:2,0:0:0:0:
76,156,79057,1,10,0:0:0:0:
76,156,79136,1,2,0:0:0:0:
76,156,79215,2,0,L|91:230,1,47.2499985580445,2|2,0:0|0:0,0:0:0:0:
232,304,79373,1,2,1:2:0:0:
232,304,79452,1,2,0:0:0:0:
232,304,79531,2,0,L|241:257,1,47.2499985580445,2|2,1:2|0:0,0:0:0:0:
312,112,79689,5,10,0:0:0:0:
351,86,79767,1,2,0:0:0:0:
398,83,79846,1,2,0:0:0:0:
440,102,79925,1,2,0:0:0:0:
469,139,80004,6,0,L|459:246,1,103.500001974106,6|0,1:2|0:0,0:0:0:0:
307,359,80320,5,10,0:0:0:0:
231,103,80478,1,0,1:2:0:0:
143,317,80636,5,10,0:0:0:0:
191,32,80794,1,0,1:2:0:0:
340,232,80952,5,10,0:0:0:0:
93,109,81110,1,2,1:2:0:0:
186,370,81268,2,0,L|191:247,1,103.500001974106,8|0,0:0|1:2,0:0:0:0:
362,106,81583,5,8,0:0:0:0:
407,384,81741,1,0,1:2:0:0:
407,384,81820,1,0,1:2:0:0:
407,384,81899,1,8,0:0:0:0:
504,159,82057,5,2,1:2:0:0:
256,319,82215,1,10,0:0:0:0:
279,32,82373,1,2,1:2:0:0:
430,206,82531,6,0,L|440:309,1,103.500001974106,10|0,0:0|0:0,0:0:0:0:
236,173,82847,5,10,0:0:0:0:
505,76,83004,1,0,1:2:0:0:
336,290,83162,5,10,0:0:0:0:
361,22,83320,1,0,1:2:0:0:
507,242,83478,1,10,0:0:0:0:
281,96,83636,6,0,B|242:74|182:93|204:111|143:132|94:108,1,188.999994232178,6|0,1:2|1:2,0:0:0:0:
0,0,84110,1,8,0:0:0:0:
110,209,84268,1,8,0:0:0:0:
110,209,84347,1,8,0:0:0:0:
110,209,84426,1,0,1:2:0:0:
185,54,84583,1,0,1:2:0:0:
0,153,84741,2,0,P|15:208|23:284,1,94.499997116089,8|8,0:0|0:0,0:0:0:0:
165,362,85057,5,10,0:0:0:0:
241,163,85215,1,8,0:0:0:0:
372,357,85373,2,0,P|433:355|476:318,1,94.499997116089,10|0,0:0|1:2,0:0:0:0:
241,140,85689,5,10,0:0:0:0:
348,368,85847,1,0,1:2:0:0:
465,105,86004,1,10,0:0:0:0:
236,306,86162,2,0,P|133:314|48:334,1,188.999994232178,6|0,1:2|1:2,0:0:0:0:
19,339,86557,1,0,1:2:0:0:
19,339,86636,1,8,0:0:0:0:
140,213,86794,1,0,1:2:0:0:
9,104,86952,5,8,0:0:0:0:
230,0,87110,1,8,0:0:0:0:
241,226,87268,1,8,0:0:0:0:
127,85,87426,1,8,0:0:0:0:
120,75,87939,6,0,L|106:25,3,47.2499985580445,8|0|0|0,0:0|1:2|1:2|1:2,0:0:0:0:
