osu file format v14

[General]
AudioFilename: audio.mp3
AudioLeadIn: 0
PreviewTime: 78868
Countdown: 0
SampleSet: Soft
StackLeniency: 0.7
Mode: 0
LetterboxInBreaks: 0
WidescreenStoryboard: 1

[Editor]
Bookmarks: 1659,11922,21870,31975,42238,52343,62448,79975,100343,117870,128133,128212,128291,128370,128448,128527,128606,128685,128764,128843,128922,129001,129080,129159,129238,129317,129396,129475,129554,129633,129712,129791,129870,129948,130027,130106,130185,130264,130343,130422,130501,130580,130659,130738,130817,130896,130975,131054,131133,131212,131291,131370,131448,131527,131606,131685,131764,131843,131922,132001,132080,132159,132238,132317,132396,132475,132554,132633,132712,132791,132870,132948,133027,133106,133185,133264,133343,133422,133501,133580,133659,133738,133817,133896,133975,134054,134133,134212,134291,134370,134448,134527,134606,134685,134764,134843,134922,135001,135080,135159,148343,165870,191133,201396,213870,231712,249238,259343,275291
DistanceSpacing: 0.4
BeatDivisor: 4
GridSize: 8
TimelineZoom: 1.8

[Metadata]
Title:GROWING*
TitleUnicode:GROWING*
Artist:Hitotsuyanagi-tai
ArtistUnicode:一柳隊
Creator:Andrea
Version:Kanui & pnky's INSANE
Source:アサルトリリィ BOUQUET
Tags:osuplayer111 Sekai Sekaii Sekai-nyan pnky Kanui Leomine LeomineXD assault lily ブーケ ラスバレ last bullet episode 8 ed ending full version anime japanese pop jpop j-pop tai Hitotsuyanagi Riri ひとつやなぎ りり 一柳梨璃 Akao Hikaru あかお ひかる 赤尾ひかる Shirai Yuyu しらい ゆゆ 白井夢結 Natsuyoshi Yuuko なつよし ゆうこ 夏吉ゆうこ Kaede Johan Nouvel かえで ぬーべる 楓・J・ヌーベル Izawa Mikako いざわ みかこ 井澤美香子 Futagawa Fumi ふたがわ ふみ 二川二水 Nishimoto Rimi にしもと りみ 西本りみ Ando Tazusa あんどう たずさ 安藤鶴紗 Tsumugi Risa つむぎ りさ 紡木吏佐 Yoshimura Thi Mai よしむら まい 吉村・Thi・梅 Iwata Haruki いわた はるき 岩田陽葵 Kuo Shenlin 郭神琳 Hoshimori Sana ほしもり さな 星守紗凪 Wang Yujia 王雨嘉 Tono とおの 遠野ひかる Miliam Miriam Hildegard von Guropius みりあむ ひるでがるど ぐろぴうす ミリアム・ヒルデガルド・v・グロピウス Takahashi Karin たかはし かりん 高橋花林
BeatmapID:4024010
BeatmapSetID:1945009

[Difficulty]
HPDrainRate:5
CircleSize:4.1
OverallDifficulty:8
ApproachRate:9
SliderMultiplier:1.64
SliderTickRate:1

[Events]
//Background and Video events
0,0,"BG.jpg",0,0
//Break Periods
2,128332,134637
2,153595,154847
//Storyboard Layer 0 (Background)
//Storyboard Layer 1 (Fail)
//Storyboard Layer 2 (Pass)
//Storyboard Layer 3 (Foreground)
//Storyboard Layer 4 (Overlay)
//Storyboard Sound Samples

[TimingPoints]
553,315.789473684211,4,2,1,55,1,0
1659,-100,4,2,1,55,0,0
1895,-100,4,2,1,5,0,0
1974,-100,4,2,1,55,0,0
2132,-125,4,2,1,55,0,0
2843,-125,4,2,1,5,0,0
2922,-125,4,2,1,55,0,0
4106,-125,4,2,1,5,0,0
4185,-125,4,2,1,55,0,0
5369,-125,4,2,1,5,0,0
5448,-125,4,2,1,55,0,0
6791,-125,4,2,1,5,0,0
6868,-111.111111111111,4,2,1,70,0,0
7500,-99.9999999999999,4,2,1,70,0,0
7817,-111.111111111111,4,2,1,70,0,0
9317,-111.111111111111,4,2,1,5,0,0
9396,-111.111111111111,4,2,1,78,0,0
10896,-111.111111111111,4,2,1,5,0,0
10975,-111.111111111111,4,2,1,78,0,0
11843,-111.111111111111,4,2,1,5,0,0
11921,-99.9999999999999,4,2,1,80,0,0
16975,-99.9999999999999,4,2,1,80,0,0
17212,-99.9999999999999,4,2,1,5,0,0
17291,-99.9999999999999,4,2,1,80,0,0
21791,-99.9999999999999,4,2,1,5,0,0
21870,-99.9999999999999,4,2,1,80,0,0
27317,-99.9999999999999,4,2,1,5,0,0
27396,-99.9999999999999,4,2,1,80,0,0
28896,-99.9999999999999,4,2,1,5,0,0
28975,-99.9999999999999,4,2,1,80,0,0
29606,-99.9999999999999,4,2,1,80,0,0
39001,-99.9999999999999,4,2,1,5,0,0
39080,-99.9999999999999,4,2,1,80,0,0
40975,-99.9999999999999,4,2,1,80,0,0
42080,-99.9999999999999,4,2,1,5,0,0
42238,-142.857142857143,4,2,1,65,0,0
43422,-142.857142857143,4,2,1,5,0,0
43501,-142.857142857143,4,2,1,65,0,0
46816,-111.111111111111,4,2,1,78,0,0
47212,-111.111111111111,4,2,1,78,0,0
47289,-99.9999999999999,4,2,1,75,0,0
47527,-99.9999999999999,4,2,1,5,0,0
47606,-99.9999999999999,4,2,1,75,0,0
48475,-99.9999999999999,4,2,1,5,0,0
48554,-99.9999999999999,4,2,1,75,0,0
50922,-125,4,2,1,75,0,0
51159,-125,4,2,1,5,0,0
51238,-125,4,2,1,75,0,0
52264,-125,4,2,1,5,0,0
52342,-99.9999999999999,4,2,1,75,0,0
53527,-99.9999999999999,4,2,1,5,0,0
53606,-99.9999999999999,4,2,1,75,0,0
54870,-99.9999999999999,4,2,1,75,0,0
55106,-99.9999999999999,4,2,1,5,0,0
55185,-99.9999999999999,4,2,1,75,0,0
56685,-99.9999999999999,4,2,1,5,0,0
56764,-99.9999999999999,4,2,1,75,0,0
59764,-99.9999999999999,4,2,1,78,0,0
62370,-99.9999999999999,4,2,1,5,0,0
62447,-153.846153846154,4,2,1,60,0,0
67500,-125,4,2,1,75,0,0
69710,-100,4,2,1,75,0,0
70027,-500,4,2,1,70,0,0
72870,-500,4,2,1,5,0,0
74606,-500,4,2,1,70,0,0
75396,-500,4,2,1,5,0,0
76185,-500,4,2,1,70,0,0
76659,-500,4,2,1,5,0,0
77133,-500,4,2,1,70,0,0
77605,-111.111111111111,4,2,1,78,0,0
78710,-99.9999999999999,4,2,1,78,0,0
79738,-99.9999999999999,4,2,1,5,0,0
79974,-90.9090909090909,4,2,1,85,0,1
80212,-90.9090909090909,4,2,1,5,0,1
80291,-90.9090909090909,4,2,1,85,0,1
84475,-90.9090909090909,4,2,1,5,0,1
84554,-90.9090909090909,4,2,1,85,0,1
86370,-90.9090909090909,4,2,1,5,0,1
86448,-90.9090909090909,4,2,1,85,0,1
87633,-90.9090909090909,4,2,1,5,0,1
87712,-90.9090909090909,4,2,1,85,0,1
89054,-90.9090909090909,4,2,1,5,0,1
89133,-90.9090909090909,4,2,1,85,0,1
90001,-90.9090909090909,4,2,1,5,0,1
90080,-90.9090909090909,4,2,1,85,0,1
90317,-90.9090909090909,4,2,1,5,0,1
90396,-90.9090909090909,4,2,1,85,0,1
94580,-90.9090909090909,4,2,1,5,0,1
94659,-90.9090909090909,4,2,1,85,0,1
96475,-90.9090909090909,4,2,1,5,0,1
96554,-90.9090909090909,4,2,1,85,0,1
105317,-90.9090909090909,4,2,1,5,0,1
105395,-100,4,2,1,85,0,1
108159,-100,4,2,1,5,0,1
108238,-100,4,2,1,85,0,1
110685,-100,4,2,1,5,0,1
110764,-100,4,2,1,85,0,1
116843,-100,4,2,1,5,0,1
116922,-100,4,2,1,85,0,1
117791,-100,4,2,1,5,0,1
117868,-100,4,2,1,80,0,0
124896,-100,4,2,1,5,0,0
124975,-100,4,2,1,80,0,0
127975,-100,4,2,1,5,0,0
128133,-100,4,2,1,70,0,0
135238,-111.111111111111,4,2,1,60,0,0
135633,-111.111111111111,4,2,1,5,0,0
135710,-100,4,2,1,78,0,0
136027,-100,4,2,1,5,0,0
136343,-100,4,2,1,78,0,0
136816,-125,4,2,1,78,0,0
136975,-125,4,2,1,5,0,0
137133,-125,4,2,1,78,0,0
137291,-125,4,2,1,5,0,0
137448,-125,4,2,1,78,0,0
138237,-99.9999999999999,4,2,1,75,0,0
139422,-99.9999999999999,4,2,1,5,0,0
139501,-99.9999999999999,4,2,1,75,0,0
140764,-99.9999999999999,4,2,1,75,0,0
141001,-99.9999999999999,4,2,1,5,0,0
141080,-99.9999999999999,4,2,1,75,0,0
141317,-99.9999999999999,4,2,1,5,0,0
141396,-99.9999999999999,4,2,1,75,0,0
142580,-99.9999999999999,4,2,1,5,0,0
142659,-99.9999999999999,4,2,1,75,0,0
145659,-99.9999999999999,4,2,1,78,0,0
148264,-99.9999999999999,4,2,1,5,0,0
148342,-153.846153846154,4,2,1,60,0,0
149212,-153.846153846154,4,2,1,5,0,0
149291,-153.846153846154,4,2,1,60,0,0
153396,-153.846153846154,4,2,1,55,0,0
155605,-125,4,2,1,55,0,0
155843,-125,4,2,1,5,0,0
155921,-111.111111111111,4,2,1,75,0,0
163500,-99.9999999999999,4,2,1,78,0,0
165396,-125,4,2,1,78,0,0
165868,-90.9090909090909,4,2,1,85,0,1
166106,-90.9090909090909,4,2,1,5,0,1
166185,-90.9090909090909,4,2,1,85,0,1
168633,-90.9090909090909,4,2,1,5,0,1
168712,-90.9090909090909,4,2,1,85,0,1
174948,-90.9090909090909,4,2,1,5,0,1
175027,-90.9090909090909,4,2,1,85,0,1
175896,-90.9090909090909,4,2,1,5,0,1
175975,-90.9090909090909,4,2,1,85,0,1
176212,-90.9090909090909,4,2,1,5,0,1
176291,-90.9090909090909,4,2,1,85,0,1
183948,-90.9090909090909,4,2,1,5,0,1
184027,-90.9090909090909,4,2,1,85,0,1
184975,-90.9090909090909,4,2,1,85,0,1
191054,-90.9090909090909,4,2,1,5,0,1
191131,-100,4,2,1,80,0,0
201317,-100,4,2,1,5,0,0
201395,-500,4,2,1,70,0,0
201712,-500,4,2,1,5,0,0
203448,-500,4,2,1,70,0,0
204238,-500,4,2,1,5,0,0
205975,-500,4,2,1,70,0,0
206764,-500,4,2,1,5,0,0
207554,-500,4,2,1,70,0,0
208027,-500,4,2,1,5,0,0
208501,-500,4,2,1,70,0,0
208974,-111.111111111111,4,2,1,78,0,0
211106,-111.111111111111,4,2,1,5,0,0
211342,-1000,4,2,1,55,0,0
213396,-1000,4,2,1,78,0,0
213791,-1000,4,2,1,5,0,0
213868,-90.9090909090909,4,2,1,85,0,1
218370,-90.9090909090909,4,2,1,5,0,1
218448,-90.9090909090909,4,2,1,85,0,1
220422,-90.9090909090909,4,2,1,5,0,1
220501,-90.9090909090909,4,2,1,85,0,1
221370,-90.9090909090909,4,2,1,5,0,1
221448,-90.9090909090909,4,2,1,85,0,1
221685,-90.9090909090909,4,2,1,5,0,1
221764,-90.9090909090909,4,2,1,85,0,1
225948,-90.9090909090909,4,2,1,5,0,1
226027,-90.9090909090909,4,2,1,85,0,1
227843,-90.9090909090909,4,2,1,5,0,1
227922,-90.9090909090909,4,2,1,85,0,1
236685,-90.9090909090909,4,2,1,5,0,1
236763,-100,4,2,1,85,0,1
239527,-100,4,2,1,5,0,1
239606,-100,4,2,1,85,0,1
242054,-100,4,2,1,5,0,1
242133,-100,4,2,1,85,0,1
248212,-100,4,2,1,5,0,1
248291,-100,4,2,1,85,0,1
249159,-100,4,2,1,5,0,1
249237,-100,4,2,1,80,0,0
254685,-100,4,2,1,5,0,0
254764,-100,4,2,1,80,0,0
258317,-100,4,2,1,5,0,0
258396,-100,4,2,1,80,0,0
261317,-100,4,2,1,80,0,0
261396,-100,4,2,1,80,0,0
267080,-100,4,2,1,80,0,0
269289,-125,4,2,1,80,0,0
269606,-100,4,2,1,80,0,0
274500,-125,4,2,1,80,0,0
275026,-125,4,2,1,70,0,0

[Colours]
Combo1 : 128,255,128
Combo2 : 255,128,192
Combo3 : 191,128,255
Combo4 : 128,191,255

[HitObjects]
34,165,1658,6,0,B|73:186|73:186|59:125|108:78|154:117,1,164,4|2,1:2|2:2,0:0:0:0:
203,135,2131,1,2,2:2:0:0:
193,213,2289,2,0,P|155:244|116:245,1,65.6,2|2,2:2|2:2,0:0:0:0:
15,295,2605,2,0,B|88:298|77:331|138:334,1,131.2,2|2,2:2|2:2,0:0:0:0:
282,225,3236,6,0,P|293:141|308:96,1,131.2,2|2,2:2|2:2,0:0:0:0:
373,48,3710,1,2,0:0:0:0:
373,48,3868,2,0,P|419:67|444:66,1,65.6,2|2,2:2|2:2,0:0:0:0:
434,67,4184,2,0,P|369:21|308:22,1,131.2,2|2,2:2|2:2,0:0:0:0:
228,68,4658,2,0,P|200:84|165:83,2,65.6,2|2|2,2:2|2:2|2:2,0:0:0:0:
151,1,5131,2,0,B|121:-10|121:-10|67:23|85:88,1,131.2,2|2,2:2|2:2,0:0:0:0:
151,170,5605,5,2,2:2:0:0:
154,177,5921,1,2,2:2:0:0:
157,184,6236,1,2,2:2:0:0:
107,252,6394,5,0,3:3:0:0:
105,259,6473,1,0,3:3:0:0:
104,267,6552,2,0,B|76:260|59:280|59:280|66:321|47:340,1,98.4,0|0,3:3|0:0,0:0:0:0:
0,382,6869,6,0,B|42:394|93:361|82:329|110:280|180:279|208:304,1,221.399993243408,4|0,1:2|3:3,0:0:0:0:
302,151,7500,2,0,B|268:126|210:163|228:215|228:215|255:234|260:254,1,164,4|0,1:2|3:3,0:0:0:0:
318,383,7974,5,0,3:3:0:0:
318,383,8053,1,0,3:3:0:0:
318,383,8132,2,0,P|330:282|346:213,1,147.599995495606,4|2,1:2|3:2,0:0:0:0:
412,186,8605,1,0,3:3:0:0:
412,186,8684,1,0,3:3:0:0:
412,186,8763,2,0,P|424:85|440:16,1,147.599995495606,4|2,1:2|3:2,0:0:0:0:
512,12,9395,5,10,2:2:0:0:
352,45,9553,1,8,2:2:0:0:
271,63,9711,1,10,2:2:0:0:
192,83,10026,5,10,2:2:0:0:
348,129,10184,1,8,2:2:0:0:
427,154,10342,1,10,2:2:0:0:
507,179,10658,6,0,B|537:224|513:287|513:287|488:254,1,147.599995495606,4|0,1:2|1:1,0:0:0:0:
399,230,11132,1,0,3:3:0:0:
399,375,11290,2,0,P|428:374|482:340,1,73.7999977478028,8|8,2:2|2:2,0:0:0:0:
294,298,11605,2,0,B|237:286|241:336|170:320,1,110.699996621704,8|0,2:2|0:0,0:0:0:0:
117,271,11921,6,0,P|129:233|135:189,1,82,4|0,1:2|0:0,0:0:0:0:
21,96,12237,2,0,P|26:136|39:175,1,82,10|0,2:2|1:0,0:0:0:0:
213,203,12553,1,2,1:2:0:0:
213,203,12711,1,0,1:1:0:0:
110,113,12869,1,10,2:2:0:0:
231,50,13026,6,0,B|318:62|284:115|373:127,1,164,4|0,1:2|1:1,0:0:0:0:
510,204,13500,2,0,P|457:210|321:253,1,164,8|0,2:2|1:1,0:0:0:0:
340,358,13974,1,2,1:2:0:0:
487,285,14132,2,0,P|446:290|407:303,1,82,10|2,2:2|2:2,0:0:0:0:
260,384,14447,6,0,P|210:326|236:224,2,164,4|10|2,1:2|2:2|1:2,0:0:0:0:
141,365,15237,1,0,1:1:0:0:
288,297,15395,1,10,2:2:0:0:
218,163,15553,6,0,B|182:160|156:181|156:181|127:139|65:140,1,164,4|0,1:2|1:1,0:0:0:0:
5,260,16026,2,0,P|42:248|82:228,1,82,8|2,2:2|1:2,0:0:0:0:
108,123,16342,1,2,1:2:0:0:
108,123,16500,1,2,1:2:0:0:
219,243,16658,2,0,P|209:289|193:379,1,123,10|0,2:2|3:3,0:0:0:0:
272,364,16974,6,0,P|280:321|291:274,1,82,4|0,1:2|0:0,0:0:0:0:
455,293,17290,2,0,P|413:307|367:321,1,82,10|0,2:2|1:1,0:0:0:0:
303,171,17605,2,0,P|336:199|371:232,1,82,10|0,2:2|1:1,0:0:0:0:
207,310,17921,1,10,2:2:0:0:
207,310,18079,1,2,1:2:0:0:
38,343,18237,6,0,P|85:352|134:362,1,82,8|0,2:2|1:1,0:0:0:0:
145,227,18553,2,0,P|104:218|64:211,1,82,8|0,2:2|1:1,0:0:0:0:
64,211,18790,1,0,1:2:0:0:
64,211,18869,1,8,2:2:0:0:
155,133,19026,1,2,1:2:0:0:
39,51,19184,2,0,P|39:105|57:127,1,82,8|2,2:2|1:2,0:0:0:0:
229,62,19500,6,0,P|296:18|378:39,1,164,12|10,2:2|2:2,0:0:0:0:
450,92,19974,1,0,1:1:0:0:
329,184,20132,2,0,L|310:99,1,82,10|0,2:2|1:1,0:0:0:0:
422,183,20447,1,10,2:2:0:0:
285,274,20605,6,0,B|235:257|235:257|180:282|117:263,1,164,4|0,1:2|1:1,0:0:0:0:
9,172,21079,2,0,L|110:152,1,82,8|0,2:2|3:3,0:0:0:0:
89,156,21316,1,0,1:2:0:0:
89,156,21395,1,10,2:2:0:0:
177,65,21553,2,0,B|183:23|143:5|143:5|168:29|163:71,1,123,10|0,2:2|0:0,0:0:0:0:
87,60,21869,6,0,L|271:24,1,164,4|2,1:2|1:2,0:0:0:0:
351,147,22342,2,0,P|296:129|271:102,1,82,10|2,2:2|2:2,0:0:0:0:
247,28,22658,1,2,1:2:0:0:
425,120,22816,2,0,P|391:142|351:147,1,82,0|10,1:1|2:2,0:0:0:0:
485,13,23132,6,0,P|466:77|507:175,1,164,2|2,1:2|1:2,0:0:0:0:
316,218,23605,2,0,P|325:178|350:146,1,82,10|2,2:2|2:2,0:0:0:0:
504,269,23921,1,0,1:1:0:0:
410,218,24079,1,2,1:2:0:0:
319,350,24237,1,10,2:2:0:0:
200,281,24395,6,0,B|165:259|165:259|111:312|46:300,1,164,4|2,1:2|1:2,0:0:0:0:
211,183,24869,2,0,P|221:143|217:103,1,82,10|2,2:2|2:2,0:0:0:0:
23,119,25184,1,2,1:2:0:0:
123,180,25342,1,0,1:1:0:0:
159,28,25500,1,10,2:2:0:0:
217,103,25658,6,0,P|273:128|385:125,1,164,2|0,1:2|1:1,0:0:0:0:
352,47,26132,2,0,P|317:67|299:104,1,82,14|0,2:2|0:0,0:0:0:0:
484,227,26447,2,0,P|483:186|461:152,1,82,2|0,1:2|1:1,0:0:0:0:
263,251,26763,2,0,P|298:270|338:268,1,82,14|0,2:2|1:0,0:0:0:0:
195,300,27000,1,0,1:0:0:0:
185,303,27079,6,0,P|214:252|215:179,1,123,4|0,1:2|0:0,0:0:0:0:
151,144,27395,2,0,B|125:135|125:135|97:154|61:153,1,82,8|0,2:2|0:0,0:0:0:0:
237,40,27711,1,2,1:2:0:0:
290,154,27869,1,0,1:1:0:0:
402,99,28026,1,8,2:2:0:0:
484,224,28184,5,2,2:2:0:0:
484,224,28263,1,2,2:2:0:0:
484,224,28342,1,2,1:2:0:0:
373,177,28500,1,0,1:1:0:0:
315,283,28658,2,0,P|311:322|317:367,1,82,10|0,2:2|0:0,0:0:0:0:
91,238,28974,5,2,1:2:0:0:
202,285,29132,1,0,1:1:0:0:
260,179,29290,2,0,P|264:140|258:95,1,82,10|0,2:2|1:0,0:0:0:0:
188,42,29526,1,0,1:0:0:0:
175,55,29605,6,0,P|171:94|177:139,1,82,4|0,1:2|0:0,0:0:0:0:
340,226,29921,2,0,P|362:194|380:152,1,82,8|0,2:2|1:1,0:0:0:0:
56,112,30237,2,0,P|72:147|99:183,1,82,10|0,2:2|1:1,0:0:0:0:
337,326,30553,5,10,2:2:0:0:
258,272,30711,2,0,B|218:242|169:261|169:261|138:309|105:311,1,164,4|10,1:2|2:2,0:0:0:0:
88,228,31105,1,10,2:2:0:0:
78,219,31184,2,0,P|65:181|79:122,1,82,2|0,3:2|3:3,0:0:0:0:
125,82,31421,1,0,3:3:0:0:
144,74,31500,5,10,2:2:0:0:
216,130,31658,1,0,1:1:0:0:
305,111,31816,1,0,3:3:0:0:
194,219,31974,6,0,P|181:305|237:365,1,164,4|2,1:2|1:2,0:0:0:0:
332,235,32447,2,0,P|306:266|267:276,1,82,10|2,2:2|1:2,0:0:0:0:
414,182,32763,2,0,P|374:188|345:217,1,82,2|0,1:2|1:1,0:0:0:0:
267,197,33079,1,10,2:2:0:0:
409,260,33237,6,0,L|446:85,1,164,2|2,1:2|1:2,0:0:0:0:
316,28,33711,2,0,B|296:16|293:-3|293:-3|333:-10|375:30|363:87,1,164,14|2,2:2|1:2,0:0:0:0:
315,143,34184,1,0,1:1:0:0:
207,161,34342,1,10,2:2:0:0:
131,62,34500,6,0,B|49:82|83:136|-3:159,1,164,4|2,1:2|1:2,0:0:0:0:
115,277,34974,2,0,P|118:236|125:195,1,82,10|2,2:2|2:2,0:0:0:0:
42,314,35290,1,2,1:2:0:0:
79,384,35447,1,0,1:1:0:0:
197,277,35605,1,10,2:2:0:0:
265,375,35763,6,0,B|311:359|378:352|378:352|347:347|326:323,1,164,2|0,1:2|1:1,0:0:0:0:
394,234,36237,2,0,P|390:260|384:287,1,41,10|2,2:2|2:2,0:0:0:0:
464,373,36395,1,2,1:2:0:0:
464,373,36474,1,10,2:2:0:0:
464,373,36553,2,0,P|471:327|480:283,1,82,2|2,3:2|3:2,0:0:0:0:
313,260,36869,1,14,2:2:0:0:
411,154,37026,1,2,3:2:0:0:
411,154,37105,1,8,2:2:0:0:
411,154,37184,6,0,B|366:134|366:134|327:190|254:177,2,164,4|10|2,1:2|2:2|1:2,0:0:0:0:
285,90,37974,1,0,1:1:0:0:
208,242,38132,2,0,P|196:202|184:164,1,82,8|2,2:2|2:2,0:0:0:0:
179,143,38369,1,2,2:2:0:0:
179,143,38447,5,2,1:2:0:0:
64,175,38605,1,0,1:1:0:0:
16,19,38763,2,0,P|27:58|40:97,1,82,10|0,2:2|0:0,0:0:0:0:
244,101,39079,2,0,P|204:112|166:125,1,82,2|0,1:2|1:1,0:0:0:0:
0,217,39395,2,0,P|39:205|78:192,1,82,10|0,2:2|3:3,0:0:0:0:
148,215,39632,1,0,3:3:0:0:
162,224,39711,6,0,P|181:307|119:379,1,164,4|10,1:2|2:2,0:0:0:0:
19,308,40184,1,0,1:0:0:0:
19,308,40263,1,0,1:0:0:0:
19,308,40342,2,0,P|58:295|97:283,1,82,2|0,1:2|1:1,0:0:0:0:
209,166,40658,2,0,P|248:178|287:191,1,82,10|0,2:2|1:0,0:0:0:0:
360,216,40895,1,0,1:0:0:0:
371,222,40974,5,4,1:2:0:0:
294,290,41132,1,8,2:2:0:0:
294,290,41211,1,8,2:2:0:0:
294,290,41290,1,8,2:2:0:0:
362,118,41447,1,0,3:3:0:0:
460,244,41605,6,0,L|441:165,1,82,2|0,3:2|3:3,0:0:0:0:
466,68,41921,2,0,L|446:147,1,82,2|0,3:2|0:0,0:0:0:0:
399,308,42237,5,4,1:2:0:0:
177,247,42711,1,0,1:1:0:0:
306,193,43026,2,0,L|296:253,1,57.3999982482911,0|8,1:1|2:2,0:0:0:0:
212,151,43500,5,2,1:2:0:0:
434,90,43974,1,0,1:1:0:0:
305,36,44289,2,0,L|315:96,1,57.3999982482911,0|2,1:0|1:2,0:0:0:0:
347,324,44763,6,0,P|372:293|357:333,1,114.799996496582,6|0,1:2|0:0,0:0:0:0:
242,384,45237,2,0,L|229:315,1,57.3999982482911,0|0,1:1|0:0,0:0:0:0:
279,247,45553,1,0,1:1:0:0:
122,212,45711,1,10,2:2:0:0:
265,139,46026,6,0,P|240:108|255:148,1,114.799996496582,0|0,1:1|0:0,0:0:0:0:
370,199,46500,2,0,L|383:130,1,57.3999982482911,0|2,1:1|0:0,0:0:0:0:
333,62,46816,6,0,L|379:52,1,36.8999988739014,10|0,2:2|1:0,0:0:0:0:
490,27,46974,2,0,L|373:53,1,110.699996621704,0|0,3:3|3:3,0:0:0:0:
292,140,47290,6,0,B|268:131|254:104|254:104|258:148|226:177,1,123,4|0,1:2|0:0,0:0:0:0:
164,208,47605,2,0,P|129:168|119:127,1,82,10|0,2:2|0:0,0:0:0:0:
274,242,47921,1,2,1:2:0:0:
379,338,48079,1,2,1:2:0:0:
379,338,48158,1,0,1:0:0:0:
379,338,48237,2,0,P|307:348|261:387,1,123,10|0,2:2|0:0,0:0:0:0:
190,356,48553,5,0,1:1:0:0:
274,242,48711,1,2,1:2:0:0:
379,338,48869,2,0,P|417:358|469:361,1,82,8|2,2:2|2:2,0:0:0:0:
410,188,49184,2,0,P|452:182|496:155,1,82,0|2,1:1|1:2,0:0:0:0:
322,70,49500,2,0,P|353:41|374:-6,1,82,10|0,2:2|0:0,0:0:0:0:
180,177,49816,6,0,B|145:143|186:81|240:103|240:103|252:125|276:137,1,164,4|8,1:2|2:2,0:0:0:0:
322,70,50290,1,0,0:0:0:0:
260,247,50447,1,2,1:2:0:0:
343,197,50605,2,0,P|380:178|429:172,1,82,2|8,1:2|2:2,0:0:0:0:
182,296,50921,5,2,1:2:0:0:
173,303,51237,2,0,L|165:376,1,65.6,10|0,2:2|1:1,0:0:0:0:
165,309,51553,2,0,L|157:382,1,65.6,10|2,2:2|1:2,0:0:0:0:
86,261,51869,5,10,2:2:0:0:
263,332,52026,1,10,2:2:0:0:
263,332,52342,6,0,B|423:297,1,164,4|8,1:2|2:2,0:0:0:0:
423,297,52816,1,0,0:0:0:0:
482,151,52974,2,0,P|451:178|439:216,1,82,2|0,1:2|1:1,0:0:0:0:
273,192,53290,2,0,P|316:194|353:204,1,82,8|0,2:2|0:0,0:0:0:0:
355,50,53605,5,2,1:2:0:0:
355,50,53763,1,0,1:1:0:0:
194,119,53921,2,0,P|234:115|274:106,1,82,10|0,2:2|1:0,0:0:0:0:
135,210,54237,2,0,P|111:176|83:146,1,82,2|0,1:2|1:1,0:0:0:0:
244,216,54553,2,0,P|226:253|214:292,1,82,10|0,2:2|1:0,0:0:0:0:
176,367,54790,1,0,1:0:0:0:
165,376,54869,6,0,P|112:386|74:333,1,123,2|0,1:2|0:0,0:0:0:0:
171,292,55184,2,0,B|249:281|236:366|321:354,1,164,12|2,2:2|1:2,0:0:0:0:
423,287,55658,1,0,1:1:0:0:
307,207,55816,2,0,P|301:167|291:127,1,82,8|2,2:2|2:2,0:0:0:0:
367,104,56053,1,2,2:2:0:0:
376,112,56132,6,0,P|385:151|392:192,1,82,2|0,1:2|1:1,0:0:0:0:
249,263,56447,2,0,P|185:213|104:237,1,164,8|2,2:2|1:2,0:0:0:0:
167,119,56921,1,2,1:2:0:0:
36,62,57079,2,0,P|51:101|59:140,1,82,10|2,2:2|2:2,0:0:0:0:
225,68,57395,6,0,B|253:68|282:53|282:53|243:100|233:183,1,164,4|8,1:2|2:2,0:0:0:0:
339,210,57869,1,0,1:0:0:0:
339,210,57947,1,0,1:0:0:0:
339,210,58026,2,0,P|373:189|414:180,1,82,2|0,1:2|1:1,0:0:0:0:
404,264,58342,1,10,2:2:0:0:
421,100,58500,6,0,P|340:114|268:156,1,164,2|0,1:2|1:1,0:0:0:0:
137,273,58974,2,0,P|92:260|64:220,1,82,10|0,2:2|1:1,0:0:0:0:
173,109,59290,1,10,2:2:0:0:
215,246,59447,1,2,1:2:0:0:
144,192,59605,1,10,2:2:0:0:
299,234,59763,6,0,B|356:224|356:224|406:274|474:255,1,164,4|0,1:2|1:1,0:0:0:0:
291,384,60237,2,0,P|267:351|267:310,1,82,10|0,2:2|1:1,0:0:0:0:
144,192,60553,2,0,P|136:232|129:272,1,82,10|0,2:2|1:1,0:0:0:0:
292,145,60869,1,10,2:2:0:0:
195,54,61026,6,0,P|202:94|209:134,1,82,2|8,1:2|2:2,0:0:0:0:
57,183,61342,1,2,1:2:0:0:
111,9,61500,2,0,P|103:49|96:89,1,82,14|2,2:2|3:2,0:0:0:0:
96,89,61737,1,8,2:2:0:0:
96,89,61816,5,10,2:2:0:0:
160,216,61974,1,0,3:3:0:0:
267,232,62132,2,0,P|316:199|380:198,1,123,2|0,3:2|0:0,0:0:0:0:
425,260,62447,6,0,P|408:296|490:292,1,159.899992680359,4|2,1:2|1:2,0:0:0:0:
380,130,63079,2,0,P|397:166|315:162,1,159.899992680359,10|0,2:2|1:0,0:0:0:0:
306,153,63632,1,0,1:0:0:0:
293,142,63711,6,0,P|265:130|239:130,1,53.2999975601197,2|2,1:2|3:2,0:0:0:0:
259,240,64026,2,0,P|230:251|212:269,1,53.2999975601197,2|0,1:2|0:0,0:0:0:0:
52,317,64342,2,0,L|158:331,1,106.599995120239,10|0,2:2|1:1,0:0:0:0:
214,266,64816,1,10,2:2:0:0:
269,383,64974,6,0,P|311:318|388:315,1,159.899992680359,4|2,1:2|1:2,0:0:0:0:
423,221,65605,1,10,2:2:0:0:
423,221,65763,2,0,P|391:262|388:315,1,106.599995120239,2|2,2:2|3:2,0:0:0:0:
399,335,66158,1,0,1:0:0:0:
415,351,66237,6,0,P|447:362|470:361,1,53.2999975601197,2|0,1:2|3:3,0:0:0:0:
305,290,66553,2,0,P|273:301|250:300,1,53.2999975601197,2|0,1:2|0:0,0:0:0:0:
423,221,66869,2,0,P|455:232|478:231,1,53.2999975601197,10|0,2:2|1:1,0:0:0:0:
284,140,67184,2,0,P|252:151|229:150,1,53.2999975601197,8|2,2:2|3:2,0:0:0:0:
213,138,67421,1,0,3:3:0:0:
197,124,67500,6,0,P|132:120|74:172,1,131.2,4|8,1:2|2:2,0:0:0:0:
162,256,67974,1,2,3:2:0:0:
162,256,68053,1,0,3:3:0:0:
162,256,68132,2,0,P|129:256|100:243,1,65.6,2|0,1:2|1:1,0:0:0:0:
0,369,68447,2,0,P|16:341|43:321,1,65.6,8|0,2:2|3:3,0:0:0:0:
162,256,68763,6,0,P|232:267|281:319,1,131.2,2|10,1:2|2:2,0:0:0:0:
371,354,69237,1,0,3:3:0:0:
371,354,69316,1,0,3:0:0:0:
371,354,69395,2,0,L|380:283,1,65.6,2|0,1:2|1:1,0:0:0:0:
470,384,69711,6,0,L|493:197,1,164,12|10,2:2|2:2,0:0:0:0:
490,221,72079,5,10,2:2:0:0:
373,125,72237,1,10,2:2:0:0:
348,274,72395,1,10,2:2:0:0:
407,211,72553,2,0,L|400:177,1,32.8,10|0,2:2|0:0,0:0:0:0:
400,178,74605,5,10,2:2:0:0:
283,82,74763,1,10,2:2:0:0:
258,231,74921,1,10,2:2:0:0:
317,168,75079,2,0,L|310:134,1,32.8,10|0,2:2|0:0,0:0:0:0:
318,143,76184,5,2,1:2:0:0:
318,143,76263,1,2,1:2:0:0:
318,143,76342,2,0,L|311:109,1,32.8,10|0,2:2|0:0,0:0:0:0:
311,110,77131,5,12,2:2:0:0:
194,14,77289,1,12,2:2:0:0:
169,163,77447,1,8,2:2:0:0:
228,100,77605,6,0,L|217:177,1,73.7999977478028,6|2,1:2|1:2,0:0:0:0:
75,268,77921,2,0,L|85:194,1,73.7999977478028,10|0,2:2|1:1,0:0:0:0:
277,250,78237,1,2,1:2:0:0:
169,163,78395,1,2,1:2:0:0:
62,351,78553,1,10,2:2:0:0:
300,340,78711,6,0,B|221:356|224:296|142:321,1,164,4|2,1:2|3:2,0:0:0:0:
277,250,79184,1,2,3:2:0:0:
351,193,79342,1,2,3:2:0:0:
351,193,79421,1,0,3:3:0:0:
351,193,79500,1,10,2:2:0:0:
434,211,79658,2,0,L|428:254,1,41,10|0,2:2|0:0,0:0:0:0:
200,208,79974,6,0,P|160:174|165:78,1,135.300004129028,4|0,1:2|0:0,0:0:0:0:
188,27,80290,1,2,1:2:0:0:
33,74,80447,2,0,P|63:40|107:32,1,90.2000027526856,10|0,2:2|1:0,0:0:0:0:
238,130,80763,1,2,1:2:0:0:
331,8,80921,2,0,P|320:52|311:100,1,90.2000027526856,2|8,1:2|2:2,0:0:0:0:
437,242,81237,6,0,P|423:153|403:64,1,180.400005505371,2|2,1:2|1:2,0:0:0:0:
512,191,81711,2,0,P|506:146|494:94,1,90.2000027526856,8|2,2:2|1:2,0:0:0:0:
425,273,82026,1,2,1:2:0:0:
425,273,82184,1,2,1:2:0:0:
328,200,82342,1,8,2:2:0:0:
200,315,82500,6,0,B|140:281|167:204|167:204|169:242|190:264,1,180.400005505371,4|2,1:2|1:2,0:0:0:0:
297,371,82974,2,0,P|305:326|314:282,1,90.2000027526856,10|2,2:2|1:2,0:0:0:0:
345,121,83290,1,2,1:2:0:0:
247,205,83447,2,0,P|238:160|229:116,1,90.2000027526856,2|8,1:2|2:2,0:0:0:0:
100,32,83763,6,0,P|48:81|60:192,1,180.400005505371,2|0,1:2|1:1,0:0:0:0:
116,332,84237,2,0,P|52:329|33:268,1,135.300004129028,12|0,2:2|0:0,0:0:0:0:
111,254,84553,1,0,1:1:0:0:
187,377,84711,1,0,1:1:0:0:
316,287,84869,2,0,P|366:277|423:269,1,90.2000027526856,8|2,2:2|2:2,0:0:0:0:
441,196,85105,1,2,2:2:0:0:
430,179,85184,6,0,B|327:160|327:160|312:200|269:218,2,180.400005505371,4|8|2,1:2|2:2|1:2,0:0:0:0:
244,132,85974,1,0,1:1:0:0:
349,9,86132,2,0,P|318:41|311:85,1,90.2000027526856,10|0,2:2|0:0,0:0:0:0:
189,6,86447,5,2,1:2:0:0:
189,6,86605,1,0,1:0:0:0:
56,103,86763,2,0,B|79:100|102:106|102:106|117:89|140:80,1,90.2000027526856,10|2,2:2|2:2,0:0:0:0:
189,281,87079,5,2,1:2:0:0:
189,281,87237,1,0,1:1:0:0:
9,191,87395,2,0,B|32:194|55:188|55:188|70:205|93:214,1,90.2000027526856,10|0,2:2|0:0,0:0:0:0:
285,151,87711,5,4,1:2:0:0:
285,151,88026,2,0,P|274:204|266:253,1,90.2000027526856,10|0,2:2|1:1,0:0:0:0:
444,362,88342,1,10,2:2:0:0:
374,212,88500,1,0,1:1:0:0:
501,251,88658,1,10,2:2:0:0:
317,323,88816,6,0,B|246:327|272:379|172:383,1,135.300004129028,4|0,1:2|0:0,0:0:0:0:
135,346,89132,2,0,L|145:295,1,45.1000013763428,2|0,1:2|1:1,0:0:0:0:
233,231,89290,1,2,3:2:0:0:
233,231,89369,1,0,3:3:0:0:
233,231,89447,2,0,L|222:180,1,45.1000013763428,2|0,3:2|3:2,0:0:0:0:
152,79,89605,1,10,2:2:0:0:
39,186,89763,2,0,B|132:161|132:161|89:204,1,135.300004129028,2|0,3:2|0:0,0:0:0:0:
17,174,90079,6,0,P|-4:132|30:47,1,135.300004129028,4|0,1:2|0:0,0:0:0:0:
96,25,90395,1,2,1:2:0:0:
240,96,90553,2,0,P|191:87|147:78,1,90.2000027526856,10|2,2:2|1:2,0:0:0:0:
260,181,90869,1,2,1:2:0:0:
376,14,91026,2,0,P|331:22|287:31,1,90.2000027526856,2|8,1:2|2:2,0:0:0:0:
256,205,91342,6,0,P|239:283|223:393,1,180.400005505371,2|2,1:2|1:2,0:0:0:0:
328,260,91816,2,0,P|318:304|312:348,1,90.2000027526856,10|2,2:2|1:2,0:0:0:0:
174,195,92132,1,2,1:2:0:0:
174,195,92290,1,2,1:2:0:0:
154,298,92447,1,8,2:2:0:0:
335,178,92605,6,0,B|426:152|424:232|525:209,1,180.400005505371,4|2,1:2|1:2,0:0:0:0:
250,111,93079,2,0,P|294:101|338:91,1,90.2000027526856,10|2,2:2|1:2,0:0:0:0:
195,207,93395,1,2,1:2:0:0:
368,259,93553,2,0,P|324:269|279:278,1,90.2000027526856,2|8,1:2|2:2,0:0:0:0:
134,378,93869,6,0,P|90:353|95:237,1,180.400005505371,2|0,1:2|1:1,0:0:0:0:
12,119,94342,2,0,B|57:115|89:142|89:142|120:126|167:130,1,135.300004129028,12|0,2:2|0:0,0:0:0:0:
218,130,94658,1,0,1:1:0:0:
131,48,94816,1,0,1:1:0:0:
323,12,94974,2,0,P|295:44|293:92,1,90.2000027526856,8|2,2:2|3:2,0:0:0:0:
337,161,95211,1,8,2:2:0:0:
353,173,95290,6,0,B|389:121|456:127|456:127|481:165|532:168,1,180.400005505371,4|10,1:2|2:2,0:0:0:0:
370,318,95763,1,2,2:2:0:0:
370,318,95842,1,2,0:0:0:0:
370,318,95921,1,2,1:2:0:0:
431,214,96079,1,0,1:1:0:0:
246,178,96237,2,0,P|265:243|285:312,1,135.300004129028,8|0,2:2|0:0,0:0:0:0:
316,384,96553,5,2,1:2:0:0:
316,384,96711,1,0,1:1:0:0:
200,325,96869,2,0,B|165:333|165:333|138:350|138:350|116:355,1,90.2000027526856,10|2,2:2|2:2,0:0:0:0:
171,152,97184,5,2,1:2:0:0:
171,152,97342,1,0,1:1:0:0:
83,275,97500,2,0,B|48:267|48:267|21:249|21:249|0:244,1,90.2000027526856,14|0,2:2|3:3,0:0:0:0:
23,157,97737,1,8,2:2:0:0:
36,145,97816,6,0,P|61:100|55:47,1,90.2000027526856,4|0,1:2|0:0,0:0:0:0:
254,50,98132,2,0,P|204:35|171:-6,1,90.2000027526856,10|0,2:2|0:0,0:0:0:0:
171,152,98447,1,2,1:2:0:0:
171,152,98605,1,0,1:1:0:0:
275,200,98763,2,0,P|319:192|363:179,1,90.2000027526856,14|2,2:2|1:2,0:0:0:0:
394,252,99000,1,0,1:0:0:0:
385,264,99079,6,0,P|341:272|297:285,1,90.2000027526856,4|0,1:2|1:0,0:0:0:0:
199,378,99395,2,0,P|155:365|111:357,1,90.2000027526856,8|0,2:2|3:3,0:0:0:0:
41,336,99632,1,8,2:2:0:0:
28,340,99711,1,8,2:2:0:0:
156,257,99869,1,0,3:3:0:0:
46,160,100026,2,0,P|39:207|68:249,1,90.2000027526856,0|2,3:3|3:2,0:0:0:0:
295,44,100342,5,12,2:2:0:0:
202,9,100500,1,0,1:1:0:0:
234,205,100658,5,10,2:2:0:0:
311,142,100816,1,2,1:2:0:0:
125,71,100974,5,10,2:2:0:0:
141,169,101132,1,0,1:1:0:0:
225,93,101290,6,0,P|201:106|232:100,1,90.2000027526856,8|0,2:2|1:1,0:0:0:0:
386,34,101605,5,10,2:2:0:0:
325,157,101763,1,0,1:1:0:0:
432,237,101921,2,0,P|426:187|417:147,1,90.2000027526856,14|2,2:2|1:2,0:0:0:0:
390,38,102237,5,10,2:2:0:0:
390,38,102395,1,0,1:1:0:0:
417,148,102553,2,0,P|426:192|432:237,1,90.2000027526856,10|0,2:2|1:1,0:0:0:0:
334,324,102869,5,10,2:2:0:0:
195,255,103026,1,8,2:2:0:0:
120,296,103184,2,0,L|136:390,1,90.2000027526856,10|2,2:2|1:2,0:0:0:0:
123,213,103500,5,10,2:2:0:0:
251,128,103657,1,8,2:2:0:0:
254,42,103815,2,0,L|164:8,1,90.2000027526856,10|0,2:2|1:1,0:0:0:0:
325,86,104132,5,6,1:2:0:0:
334,240,104289,1,0,3:3:0:0:
407,285,104447,1,0,3:3:0:0:
409,199,104605,1,8,2:2:0:0:
334,324,104763,5,8,2:2:0:0:
334,324,104921,1,10,2:2:0:0:
195,255,105079,2,0,P|150:244|55:282,1,135.300004129028,10|0,2:2|0:0,0:0:0:0:
11,212,105395,6,0,P|-3:167|0:128,1,82,4|0,1:2|1:0,0:0:0:0:
118,345,105711,2,0,P|73:359|34:356,1,82,10|2,2:2|2:2,0:0:0:0:
251,238,106026,1,2,1:2:0:0:
251,238,106184,1,0,1:1:0:0:
139,181,106342,1,10,2:2:0:0:
258,80,106500,6,0,P|315:75|431:149,1,164,4|0,1:2|1:1,0:0:0:0:
474,294,106974,2,0,B|438:311|398:248|430:210|430:210|457:202|473:182,1,164,8|0,2:2|1:1,0:0:0:0:
498,104,107447,1,2,1:2:0:0:
343,190,107605,2,0,P|332:244|336:283,1,82,10|2,2:2|2:2,0:0:0:0:
134,384,107921,6,0,P|122:319|193:346,2,164,4|10|2,1:2|2:2|1:2,0:0:0:0:
220,247,108711,1,0,1:1:0:0:
97,186,108869,1,10,2:2:0:0:
246,85,109026,6,0,L|219:247,1,164,4|0,1:2|1:1,0:0:0:0:
423,204,109500,2,0,L|382:193,3,41,10|0|2|0,1:2|1:0|1:2|1:0,0:0:0:0:
308,190,109816,2,0,P|311:166|322:146,1,41,2|2,1:2|1:2,0:0:0:0:
497,208,109974,2,0,P|494:232|483:252,1,41,2|2,1:2|1:2,0:0:0:0:
342,314,110132,2,0,P|373:293|419:282,1,82,10|0,2:2|3:3,0:0:0:0:
256,384,110447,6,0,P|222:348|173:330,1,82,4|0,1:2|1:0,0:0:0:0:
63,171,110763,2,0,P|88:213|93:265,1,82,10|2,2:2|1:2,0:0:0:0:
52,384,111079,2,0,L|117:320,1,82,10|0,2:2|1:1,0:0:0:0:
230,207,111395,1,10,2:2:0:0:
230,207,111553,1,2,1:2:0:0:
180,62,111711,6,0,P|162:106|160:146,1,82,8|0,2:2|1:1,0:0:0:0:
356,120,112026,2,0,P|343:165|321:199,1,82,8|0,2:2|1:1,0:0:0:0:
324,194,112263,1,0,1:2:0:0:
324,194,112342,1,8,2:2:0:0:
280,57,112500,1,2,1:2:0:0:
454,95,112658,2,0,P|434:59|405:32,1,82,10|2,2:2|1:2,0:0:0:0:
496,213,112974,6,0,B|474:179|474:179|470:257|430:291,1,164,12|10,2:2|2:2,0:0:0:0:
263,346,113447,1,2,1:2:0:0:
334,281,113605,2,0,P|350:328|358:373,1,82,10|0,2:2|1:1,0:0:0:0:
430,290,113921,1,10,2:2:0:0:
262,200,114079,6,0,B|200:179|165:266|105:245,1,164,4|0,1:2|1:1,0:0:0:0:
235,62,114553,2,0,P|194:120|140:120,1,123,8|0,2:2|1:2,0:0:0:0:
89,72,114869,5,8,2:2:0:0:
63,157,115026,1,0,3:3:0:0:
37,242,115184,1,0,3:3:0:0:
22,250,115500,5,10,2:2:0:0:
161,322,115658,1,8,2:2:0:0:
59,384,115816,2,0,P|65:343|80:305,1,82,10|2,2:2|1:2,0:0:0:0:
270,186,116132,5,10,2:2:0:0:
161,322,116290,1,0,1:1:0:0:
188,169,116447,1,10,2:2:0:0:
243,339,116605,6,0,P|298:364|371:365,1,123,4|0,1:2|0:0,0:0:0:0:
427,320,116921,2,0,L|437:280,1,41,8|8,2:2|2:2,0:0:0:0:
401,198,117079,5,0,3:3:0:0:
365,199,117157,1,0,3:3:0:0:
339,223,117236,1,0,3:3:0:0:
334,258,117315,1,0,3:3:0:0:
352,288,117394,1,8,2:2:0:0:
255,157,117553,2,0,B|225:144|225:144|188:185|135:178,1,123,8|0,2:2|2:2,0:0:0:0:
75,159,117869,6,0,P|31:83|72:9,1,164,4|2,1:2|1:2,0:0:0:0:
199,49,118342,2,0,P|144:67|119:94,1,82,10|0,2:2|0:0,0:0:0:0:
75,159,118658,1,2,1:2:0:0:
273,76,118816,2,0,P|239:54|199:49,1,82,2|10,1:2|2:2,0:0:0:0:
368,5,119132,6,0,P|351:83|342:166,1,164,2|2,1:2|1:2,0:0:0:0:
443,35,119605,2,0,P|431:99|427:147,1,82,10|2,2:2|2:2,0:0:0:0:
351,251,119921,1,0,1:1:0:0:
448,220,120079,1,2,1:2:0:0:
512,340,120237,1,10,2:2:0:0:
339,273,120395,6,0,B|260:288|281:341|204:358,1,164,4|2,1:2|1:2,0:0:0:0:
138,234,120869,2,0,P|168:208|208:199,1,82,10|0,2:2|1:0,0:0:0:0:
266,49,121184,1,2,1:2:0:0:
325,131,121342,1,2,1:2:0:0:
166,59,121500,1,10,2:2:0:0:
118,146,121658,6,0,P|64:140|-1:47,1,164,2|0,1:2|1:1,0:0:0:0:
220,141,122132,2,0,P|201:213|195:257,1,82,14|0,2:2|0:0,0:0:0:0:
134,359,122447,2,0,P|125:318|113:279,1,82,2|0,1:2|1:1,0:0:0:0:
296,246,122763,2,0,P|304:286|316:325,1,82,10|0,2:2|1:0,0:0:0:0:
401,348,123000,1,0,1:0:0:0:
423,356,123079,6,0,P|399:287|371:173,2,164,4|10|2,1:2|2:2|1:2,0:0:0:0:
490,259,123869,1,2,1:2:0:0:
357,189,124026,2,0,P|316:187|282:164,1,82,10|0,2:2|1:0,0:0:0:0:
240,105,124263,1,0,1:0:0:0:
246,91,124342,5,2,1:2:0:0:
179,184,124500,1,0,1:1:0:0:
343,108,124658,2,0,P|349:67|357:27,1,82,10|0,2:2|0:0,0:0:0:0:
141,26,124974,2,0,P|148:66|155:106,1,82,2|0,1:2|1:1,0:0:0:0:
256,192,125290,1,10,2:2:0:0:
127,261,125447,1,0,3:3:0:0:
127,261,125526,1,8,2:2:0:0:
127,261,125605,6,0,B|53:274|28:210|28:210|57:220|93:210,1,164,4|10,1:2|2:2,0:0:0:0:
221,282,126079,1,2,2:2:0:0:
221,282,126158,1,2,0:0:0:0:
221,282,126237,2,0,P|207:345|201:387,1,82,2|0,1:2|1:1,0:0:0:0:
140,186,126553,2,0,P|132:145|123:105,1,82,10|0,2:2|1:0,0:0:0:0:
107,34,126790,1,0,1:0:0:0:
104,16,126869,5,4,1:2:0:0:
34,103,127026,1,0,3:3:0:0:
34,103,127105,1,8,2:2:0:0:
34,103,127184,1,8,2:2:0:0:
204,65,127342,1,0,3:3:0:0:
312,159,127500,6,0,P|272:166|236:148,1,82,2|0,3:2|3:3,0:0:0:0:
335,12,127816,2,0,P|298:-6|259:1,1,82,2|0,3:2|0:0,0:0:0:0:
389,101,128132,5,4,1:2:0:0:
211,117,135237,5,0,3:3:0:0:
211,117,135316,1,0,3:3:0:0:
211,117,135395,2,0,B|191:95|191:95|184:131|151:154|132:146,1,110.699996621704,8|0,2:2|0:0,0:0:0:0:
117,77,135711,6,0,P|196:51|283:46,1,164,4|0,1:2|0:0,0:0:0:0:
476,182,136342,5,12,2:2:0:0:
365,92,136500,1,8,2:2:0:0:
318,227,136658,1,8,2:2:0:0:
392,290,136816,6,0,L|456:278,1,65.6,6|0,1:2|0:0,0:0:0:0:
400,299,137132,2,0,L|464:287,1,65.6,2|0,1:2|0:0,0:0:0:0:
408,308,137447,2,0,L|472:296,1,65.6,14|2,2:2|1:2,0:0:0:0:
500,209,137763,5,12,2:2:0:0:
369,384,137921,2,0,L|297:373,1,65.6,2|0,3:2|3:3,0:0:0:0:
262,302,138158,1,0,3:3:0:0:
262,302,138237,6,0,B|234:318|222:354|222:354|107:334,1,164,4|8,1:2|2:2,0:0:0:0:
49,382,138711,1,0,0:0:0:0:
138,249,138869,2,0,P|137:195|123:164,1,82,2|0,1:2|1:1,0:0:0:0:
44,301,139184,2,0,P|38:341|48:380,1,82,8|0,2:2|0:0,0:0:0:0:
245,267,139500,5,2,1:2:0:0:
245,267,139658,1,0,1:1:0:0:
350,319,139816,2,0,P|392:332|430:330,1,82,10|0,2:2|0:0,0:0:0:0:
410,195,140132,2,0,P|368:208|330:206,1,82,2|0,1:2|1:1,0:0:0:0:
350,71,140447,2,0,P|392:84|430:82,1,82,10|0,2:2|1:0,0:0:0:0:
274,108,140684,1,0,1:0:0:0:
273,125,140763,6,0,P|234:174|174:180,1,123,2|0,1:2|0:0,0:0:0:0:
108,122,141079,2,0,B|67:83|67:83|88:188,1,164,12|2,2:2|1:2,0:0:0:0:
177,180,141553,1,0,1:1:0:0:
73,310,141711,2,0,P|109:276|145:265,1,82,8|2,2:2|2:2,0:0:0:0:
213,297,141947,1,2,2:2:0:0:
221,306,142026,6,0,P|237:343|236:384,1,82,2|0,1:2|1:1,0:0:0:0:
49,387,142342,2,0,P|54:319|133:255,1,164,8|2,2:2|1:2,0:0:0:0:
274,151,142816,1,0,1:1:0:0:
163,99,142974,2,0,L|178:188,1,82,10|2,2:2|2:2,0:0:0:0:
435,190,143290,6,0,P|363:205|324:284,2,164,4|8|2,1:2|2:2|1:2,0:0:0:0:
428,359,144079,2,0,L|414:272,1,82,0|10,1:1|2:2,0:0:0:0:
236,299,144395,6,0,B|161:281|160:361|76:341,1,164,2|0,1:2|1:1,0:0:0:0:
200,211,144869,2,0,P|157:192|111:192,1,82,14|0,2:2|1:1,0:0:0:0:
28,252,145184,1,10,2:2:0:0:
116,95,145342,1,2,1:2:0:0:
39,39,145500,1,10,2:2:0:0:
122,190,145658,6,0,P|181:220|283:213,1,164,4|0,1:2|1:1,0:0:0:0:
268,52,146132,2,0,P|274:107|289:133,1,82,8|0,2:2|1:1,0:0:0:0:
504,151,146447,2,0,P|452:128|422:129,1,82,8|0,2:2|1:1,0:0:0:0:
300,307,146763,5,8,2:2:0:0:
300,307,146921,2,0,P|345:274|360:247,1,82,2|8,1:2|2:2,0:0:0:0:
153,210,147237,1,0,1:1:0:0:
153,210,147395,2,0,P|159:154|174:128,1,82,12|0,2:2|1:1,0:0:0:0:
191,116,147632,1,8,2:2:0:0:
213,110,147711,5,8,2:2:0:0:
202,292,147869,1,0,3:3:0:0:
115,360,148026,2,0,P|74:319|52:242,1,123,0|0,3:3|0:0,0:0:0:0:
73,185,148342,6,0,L|107:25,1,159.899992680359,4|2,1:2|1:2,0:0:0:0:
238,217,148974,2,0,L|203:60,1,159.899992680359,10|0,2:2|1:0,0:0:0:0:
209,44,149527,1,0,1:0:0:0:
222,33,149606,6,0,P|250:21|276:21,1,53.2999975601197,2|2,1:2|3:2,0:0:0:0:
341,131,149921,2,0,P|312:120|294:102,1,53.2999975601197,2|0,1:2|0:0,0:0:0:0:
389,0,150237,2,0,P|418:43|418:95,1,106.599995120239,10|0,2:2|1:1,0:0:0:0:
488,231,150711,1,10,2:2:0:0:
407,187,150869,6,0,B|351:200|372:236|298:250,1,106.599995120239,4|0,1:2|0:0,0:0:0:0:
244,315,151342,1,2,1:2:0:0:
244,315,151500,2,0,P|279:321|316:328,1,53.2999975601197,10|2,2:2|2:2,0:0:0:0:
162,247,151816,2,0,P|197:241|234:234,1,53.2999975601197,2|2,2:2|3:2,0:0:0:0:
231,230,152053,1,0,3:3:0:0:
247,214,152132,6,0,P|258:182|257:159,1,53.2999975601197,2|0,1:2|3:3,0:0:0:0:
330,118,152447,2,0,P|307:92|287:81,1,53.2999975601197,2|0,1:2|0:0,0:0:0:0:
189,0,152763,6,0,L|205:72,1,71.066663413493,12|0,2:2|3:0,0:0:0:0:
190,103,153079,2,0,L|137:89,2,35.5333317067465,0|0|0,3:3|3:0|3:0,0:0:0:0:
82,73,153395,5,4,1:2:0:0:
327,227,155447,5,0,3:3:0:0:
327,227,155526,1,0,3:3:0:0:
327,227,155605,2,0,B|374:214|374:214|403:223|403:223|433:214,1,98.4,0|0,1:1|0:0,0:0:0:0:
496,203,155921,6,0,P|498:240|479:272,1,73.7999977478028,4|2,1:2|2:2,0:0:0:0:
389,139,156237,2,0,P|387:102|406:70,1,73.7999977478028,10|2,2:2|3:2,0:0:0:0:
419,62,156474,1,0,3:3:0:0:
419,62,156553,2,0,L|491:73,1,73.7999977478028,2|0,1:2|1:1,0:0:0:0:
314,152,156869,1,10,2:2:0:0:
230,61,157026,6,0,B|199:48|199:48|161:100|93:91,1,147.599995495606,2|2,1:2|1:2,0:0:0:0:
46,191,157500,2,0,B|80:183|80:183|86:187|86:187|117:179,1,73.7999977478028,10|0,2:2|3:3,0:0:0:0:
137,179,157737,1,0,3:3:0:0:
137,179,157816,2,0,P|156:209|157:246,1,73.7999977478028,2|0,1:2|1:1,0:0:0:0:
324,256,158132,2,0,P|306:288|275:307,1,73.7999977478028,8|0,2:2|3:3,0:0:0:0:
198,313,158369,1,8,2:2:0:0:
206,325,158447,6,0,P|266:341|353:374,1,147.599995495606,4|10,1:2|2:2,0:0:0:0:
418,278,158921,1,2,3:2:0:0:
418,278,159000,1,0,3:3:0:0:
418,278,159079,2,0,P|425:242|437:206,1,73.7999977478028,2|0,1:2|1:1,0:0:0:0:
488,319,159395,1,10,2:2:0:0:
360,179,159553,6,0,B|355:133|335:84|335:84|358:100|377:109,1,147.599995495606,2|2,1:2|1:2,0:0:0:0:
209,217,160026,2,0,P|171:210|119:203,1,73.7999977478028,12|2,2:2|3:2,0:0:0:0:
118,201,160263,1,0,3:3:0:0:
118,201,160342,2,0,P|99:166|105:128,1,73.7999977478028,2|0,1:2|1:1,0:0:0:0:
64,272,160658,1,8,2:2:0:0:
190,126,160816,1,8,2:2:0:0:
190,126,160895,1,8,2:2:0:0:
190,126,160974,6,0,P|203:59|208:32,1,73.7999977478028,2|2,1:2|2:2,0:0:0:0:
312,223,161290,2,0,P|305:186|297:150,1,73.7999977478028,10|2,2:2|3:2,0:0:0:0:
295,131,161526,1,0,3:3:0:0:
295,131,161605,1,2,1:2:0:0:
209,217,161763,1,0,1:1:0:0:
320,302,161921,2,0,P|355:292|379:265,1,73.7999977478028,10|2,2:2|3:2,0:0:0:0:
415,196,162158,1,8,2:2:0:0:
427,182,162237,6,0,B|458:187|458:187|462:193|462:193|496:199,1,73.7999977478028,0|2,1:1|1:2,0:0:0:0:
308,101,162553,2,0,B|342:95|342:95|346:89|346:89|377:83,1,73.7999977478028,10|0,2:2|3:3,0:0:0:0:
398,82,162790,1,0,3:3:0:0:
398,82,162869,1,2,1:2:0:0:
271,180,163026,1,12,2:2:0:0:
211,36,163184,1,10,2:2:0:0:
282,199,163342,1,8,2:2:0:0:
135,110,163500,6,0,P|94:101|6:190,1,164,12|2,2:2|1:2,0:0:0:0:
190,329,163974,1,8,2:2:0:0:
97,194,164132,1,2,1:2:0:0:
54,273,164290,1,2,1:2:0:0:
188,186,164447,1,10,2:2:0:0:
280,359,164605,2,0,P|269:302|261:257,1,82,2|0,1:2|1:1,0:0:0:0:
444,245,164921,5,10,2:2:0:0:
444,245,165000,1,0,3:3:0:0:
444,245,165079,2,0,L|386:256,1,41,2|0,3:2|3:3,0:0:0:0:
271,150,165237,2,0,L|312:158,1,41,2|0,3:2|3:3,0:0:0:0:
392,114,165395,5,2,2:2:0:0:
320,248,165553,2,0,P|294:270|251:278,1,65.6,2|2,2:2|0:0,0:0:0:0:
194,247,165790,1,2,0:0:0:0:
180,237,165869,6,0,P|170:140|156:87,1,135.300004129028,4|0,1:2|0:0,0:0:0:0:
104,45,166184,1,2,1:2:0:0:
95,217,166342,2,0,P|88:156|79:123,1,90.2000027526856,10|2,2:2|1:2,0:0:0:0:
186,21,166658,1,2,1:2:0:0:
0,149,166816,2,0,P|10:192|13:237,1,90.2000027526856,2|8,1:2|2:2,0:0:0:0:
142,384,167132,6,0,P|179:331|305:329,1,180.400005505371,2|2,1:2|1:2,0:0:0:0:
394,225,167605,2,0,P|405:168|414:133,1,90.2000027526856,10|2,2:2|1:2,0:0:0:0:
397,333,167921,1,2,1:2:0:0:
397,333,168079,1,2,1:2:0:0:
291,218,168237,1,8,2:2:0:0:
433,125,168395,6,0,B|446:65|460:16|460:16|429:43,1,135.300004129028,4|0,1:2|0:0,0:0:0:0:
357,63,168711,1,2,1:2:0:0:
357,63,168869,2,0,P|309:53|260:48,1,90.2000027526856,10|2,2:2|1:2,0:0:0:0:
174,238,169184,1,2,1:2:0:0:
115,163,169342,2,0,P|163:153|212:148,1,90.2000027526856,2|8,1:2|2:2,0:0:0:0:
80,248,169658,6,0,P|29:194|56:96,1,180.400005505371,2|0,1:2|1:1,0:0:0:0:
174,238,170132,2,0,P|184:286|189:335,1,90.2000027526856,12|0,2:2|0:0,0:0:0:0:
92,384,170447,1,0,1:1:0:0:
272,324,170605,1,0,1:1:0:0:
421,384,170763,2,0,P|431:336|436:287,1,90.2000027526856,8|2,2:2|2:2,0:0:0:0:
377,240,171000,1,2,2:2:0:0:
361,232,171079,6,0,P|344:195|435:197,2,180.400005505371,4|10|2,1:2|2:2|1:2,0:0:0:0:
512,164,171869,1,0,1:1:0:0:
428,14,172026,2,0,P|439:57|467:92,1,90.2000027526856,10|0,2:2|0:0,0:0:0:0:
269,145,172342,5,2,1:2:0:0:
269,145,172500,1,0,1:1:0:0:
94,100,172658,2,0,B|116:104|149:77|149:77|178:82,1,90.2000027526856,10|2,2:2|2:2,0:0:0:0:
83,280,172974,5,2,1:2:0:0:
83,280,173132,1,0,1:1:0:0:
258,235,173290,2,0,B|235:239|202:212|202:212|173:217,1,90.2000027526856,10|0,2:2|1:0,0:0:0:0:
404,384,173605,5,4,1:2:0:0:
404,384,173921,2,0,P|410:334|417:292,1,90.2000027526856,10|0,2:2|1:1,0:0:0:0:
459,59,174237,1,10,2:2:0:0:
356,218,174395,1,0,1:1:0:0:
487,190,174553,1,10,2:2:0:0:
328,87,174711,6,0,B|291:61|251:78|251:78|221:107|184:104,1,135.300004129028,4|0,1:2|0:0,0:0:0:0:
185,20,175026,2,0,L|136:15,1,45.1000013763428,2|0,1:2|1:1,0:0:0:0:
90,158,175184,1,2,3:2:0:0:
90,158,175263,1,0,3:3:0:0:
90,158,175342,2,0,L|139:153,1,45.1000013763428,2|0,3:2|3:2,0:0:0:0:
186,274,175500,1,10,2:2:0:0:
186,274,175658,2,0,L|50:262,1,135.300004129028,2|0,3:2|0:0,0:0:0:0:
0,334,175974,6,0,B|22:320|44:302|44:302|87:333|124:356,1,135.300004129028,4|0,1:2|0:0,0:0:0:0:
196,359,176290,1,2,1:2:0:0:
292,247,176447,2,0,P|284:203|278:158,1,90.2000027526856,10|2,2:2|1:2,0:0:0:0:
377,307,176763,1,2,1:2:0:0:
278,159,176921,2,0,P|272:114|267:67,1,90.2000027526856,2|8,1:2|2:2,0:0:0:0:
462,2,177237,6,0,P|488:55|393:45,1,180.400005505371,2|2,1:2|1:2,0:0:0:0:
379,219,177711,2,0,P|421:185|463:186,1,90.2000027526856,10|2,2:2|1:2,0:0:0:0:
381,311,178026,1,2,1:2:0:0:
381,311,178184,1,2,1:2:0:0:
278,159,178342,1,8,2:2:0:0:
96,298,178500,6,0,P|181:307|234:239,1,180.400005505371,4|2,1:2|1:2,0:0:0:0:
97,111,178974,2,0,L|189:120,1,90.2000027526856,10|2,2:2|1:2,0:0:0:0:
278,159,179290,1,2,1:2:0:0:
107,15,179447,2,0,L|199:24,1,90.2000027526856,2|8,1:2|2:2,0:0:0:0:
454,0,179763,6,0,P|389:31|377:135,1,180.400005505371,2|0,1:2|1:1,0:0:0:0:
499,241,180237,2,0,L|487:146,1,90.2000027526856,12|0,2:2|1:0,0:0:0:0:
487,151,180474,1,0,1:0:0:0:
487,151,180553,1,0,1:1:0:0:
314,246,180711,1,0,1:1:0:0:
412,328,180869,2,0,L|400:233,1,90.2000027526856,8|2,2:2|3:2,0:0:0:0:
300,162,181105,1,8,2:2:0:0:
283,150,181184,6,0,B|203:126|199:213|114:190,1,180.400005505371,4|10,1:2|2:2,0:0:0:0:
64,92,181658,1,2,2:2:0:0:
64,92,181737,1,2,0:0:0:0:
64,92,181816,1,2,1:2:0:0:
0,241,181974,1,0,1:1:0:0:
127,279,182132,2,0,P|122:234|115:190,1,90.2000027526856,8|0,2:2|0:0,0:0:0:0:
36,360,182447,5,2,1:2:0:0:
36,360,182605,1,0,1:1:0:0:
219,305,182763,2,0,B|243:310|261:323|261:323|282:314|311:312,1,90.2000027526856,10|2,2:2|2:2,0:0:0:0:
383,148,183079,5,2,1:2:0:0:
383,148,183237,1,0,1:1:0:0:
200,93,183395,2,0,B|176:98|158:111|158:111|137:102|108:100,1,90.2000027526856,14|0,2:2|3:3,0:0:0:0:
220,174,183632,1,8,2:2:0:0:
241,170,183711,6,0,P|280:120|269:46,1,135.300004129028,4|0,1:2|0:0,0:0:0:0:
346,9,184026,2,0,B|370:14|388:27|388:27|409:18|438:16,1,90.2000027526856,10|0,2:2|0:0,0:0:0:0:
200,93,184342,1,2,1:2:0:0:
200,93,184500,1,0,1:1:0:0:
350,182,184658,2,0,B|374:177|392:164|392:164|413:173|442:175,1,90.2000027526856,14|0,2:2|1:0,0:0:0:0:
462,253,184895,1,0,1:0:0:0:
445,254,184974,6,0,B|421:259|403:272|403:272|382:263|353:261,1,90.2000027526856,4|0,1:2|0:0,0:0:0:0:
209,371,185290,2,0,B|185:366|167:353|167:353|146:362|117:364,1,90.2000027526856,8|0,2:2|3:3,0:0:0:0:
57,326,185526,1,8,2:2:0:0:
51,308,185605,1,8,2:2:0:0:
194,209,185763,1,0,3:3:0:0:
42,132,185921,1,0,3:3:0:0:
83,215,186079,1,2,3:2:0:0:
151,94,186237,6,0,P|158:46|167:3,1,90.2000027526856,12|0,2:2|1:1,0:0:0:0:
359,173,186553,2,0,P|366:125|375:82,1,90.2000027526856,10|2,2:2|1:2,0:0:0:0:
232,242,186869,2,0,P|239:194|248:151,1,90.2000027526856,10|0,2:2|1:1,0:0:0:0:
440,321,187185,2,0,P|447:273|456:230,1,90.2000027526856,8|0,2:2|1:1,0:0:0:0:
312,349,187500,5,10,2:2:0:0:
232,242,187658,1,0,1:1:0:0:
49,362,187816,2,0,P|94:357|139:349,1,90.2000027526856,14|2,2:2|1:2,0:0:0:0:
236,246,188132,5,10,2:2:0:0:
236,246,188290,1,0,1:1:0:0:
138,349,188447,2,0,P|93:357|49:362,1,90.2000027526856,10|0,2:2|1:1,0:0:0:0:
363,295,188763,6,0,P|371:340|376:384,1,90.2000027526856,12|0,2:2|1:2,0:0:0:0:
309,70,189079,2,0,P|354:62|398:57,1,90.2000027526856,10|2,2:2|1:2,0:0:0:0:
84,124,189395,2,0,P|76:79|71:35,1,90.2000027526856,10|0,2:2|1:2,0:0:0:0:
138,349,189711,2,0,P|93:357|49:362,1,90.2000027526856,10|0,2:2|1:1,0:0:0:0:
223,189,190026,6,0,P|268:197|312:202,1,90.2000027526856,4|0,1:2|3:3,0:0:0:0:
312,202,190263,1,0,3:3:0:0:
312,202,190342,1,0,1:1:0:0:
408,87,190500,1,0,1:1:0:0:
408,87,190579,1,0,1:1:0:0:
408,87,190658,1,10,2:2:0:0:
512,253,190816,2,0,P|500:177|492:115,1,135.300004129028,10|0,2:2|0:0,0:0:0:0:
408,87,191132,6,0,B|376:89|347:79|347:79|307:90|307:90|279:77|235:78,1,164,4|0,1:2|1:1,0:0:0:0:
105,23,191605,2,0,P|146:13|190:-1,1,82,10|2,2:2|2:2,0:0:0:0:
157,111,191921,1,0,1:1:0:0:
157,111,192079,1,0,1:1:0:0:
257,53,192237,1,10,2:2:0:0:
325,182,192395,6,0,B|346:253|292:297|292:297|277:285|259:274,1,164,2|2,1:2|1:2,0:0:0:0:
118,347,192869,1,10,2:2:0:0:
118,347,193026,2,0,P|125:308|136:256,1,82,2|0,1:2|1:1,0:0:0:0:
0,171,193342,1,2,1:2:0:0:
40,261,193500,1,10,2:2:0:0:
208,198,193658,6,0,B|255:200|290:213|290:213|323:195|365:184,1,164,4|0,1:2|1:1,0:0:0:0:
470,83,194132,2,0,P|384:71|297:51,1,164,8|2,2:2|1:2,0:0:0:0:
392,198,194605,1,0,1:1:0:0:
283,130,194763,1,10,2:2:0:0:
185,278,194921,6,0,P|127:219|145:140,1,164,2|2,1:2|1:2,0:0:0:0:
288,277,195395,2,0,P|279:317|271:357,1,82,14|2,2:2|1:2,0:0:0:0:
208,198,195711,1,2,1:2:0:0:
377,288,195869,1,2,1:2:0:0:
377,288,195947,1,2,1:2:0:0:
377,288,196026,2,0,B|408:276|408:276|444:290|478:277,1,82,10|2,2:2|3:2,0:0:0:0:
502,213,196263,1,0,3:0:0:0:
512,197,196342,6,0,P|512:152|491:123,1,82,4|2,1:2|2:2,0:0:0:0:
388,26,196658,2,0,P|388:71|409:100,1,82,10|2,2:2|1:2,0:0:0:0:
351,196,196974,1,2,1:2:0:0:
351,196,197132,1,0,1:1:0:0:
221,108,197290,2,0,B|188:104|188:104|176:95|176:95|143:90,1,82,10|2,2:2|1:2,0:0:0:0:
70,72,197526,1,2,1:2:0:0:
55,68,197605,5,2,1:2:0:0:
140,179,197763,1,0,1:1:0:0:
12,234,197921,2,0,B|18:212|31:197|31:197|26:178|27:158,1,82,10|2,2:2|2:2,0:0:0:0:
225,290,198237,5,2,1:2:0:0:
140,179,198395,1,2,1:2:0:0:
268,124,198553,2,0,B|261:145|248:160|248:160|253:179|252:199,1,82,14|0,2:2|1:1,0:0:0:0:
321,245,198790,1,0,1:1:0:0:
339,241,198869,6,0,P|396:227|433:218,1,82,12|8,2:2|2:2,0:0:0:0:
466,342,199184,2,0,P|426:332|387:323,1,82,8|8,2:2|2:2,0:0:0:0:
173,241,199500,6,0,P|116:227|79:218,1,82,0|0,3:3|3:3,0:0:0:0:
45,342,199815,2,0,P|85:332|125:323,1,82,0|0,3:3|3:3,0:0:0:0:
255,211,200132,5,12,2:2:0:0:
195,29,200290,1,12,2:2:0:0:
348,141,200447,1,12,2:2:0:0:
159,140,200605,1,0,1:1:0:0:
313,29,200763,1,12,2:2:0:0:
256,113,200921,5,0,1:1:0:0:
256,113,201000,1,0,1:1:0:0:
256,113,201079,1,0,1:1:0:0:
256,328,201395,6,0,L|256:295,1,32.8,10|0,2:2|0:0,0:0:0:0:
114,348,203447,5,10,2:2:0:0:
139,199,203605,1,10,2:2:0:0:
256,295,203763,1,10,2:2:0:0:
173,285,203921,2,0,L|166:251,1,32.8,10|0,2:2|0:0,0:0:0:0:
398,348,205974,5,10,2:2:0:0:
373,199,206132,1,10,2:2:0:0:
256,295,206290,1,10,2:2:0:0:
339,285,206448,2,0,L|346:251,1,32.8,10|0,2:2|0:0,0:0:0:0:
256,327,207553,5,2,1:2:0:0:
256,327,207632,1,2,1:2:0:0:
256,327,207711,2,0,L|256:295,1,32.8,10|0,2:2|0:0,0:0:0:0:
260,298,208500,5,12,2:2:0:0:
256,90,208658,1,12,2:2:0:0:
260,298,208816,1,8,2:2:0:0:
154,192,208974,6,0,P|114:186|70:183,1,73.7999977478028,4|2,1:2|1:2,0:0:0:0:
358,192,209290,2,0,P|398:186|442:183,1,73.7999977478028,10|0,2:2|1:1,0:0:0:0:
256,90,209605,5,10,2:2:0:0:
260,298,209763,1,2,1:2:0:0:
154,192,209921,1,10,2:2:0:0:
358,192,210079,2,0,P|398:186|442:183,1,73.7999977478028,4|0,1:2|0:0,0:0:0:0:
333,267,210395,5,10,2:2:0:0:
339,280,210474,1,0,3:3:0:0:
344,293,210553,1,2,3:2:0:0:
179,267,210711,5,2,3:2:0:0:
173,280,210790,1,0,3:3:0:0:
168,293,210869,1,10,2:2:0:0:
256,384,211026,6,0,L|256:344,1,36.8999988739014,10|0,2:2|0:0,0:0:0:0:
256,59,211342,6,0,L|256:152,1,90.2,4|2,1:2|2:2,0:0:0:0:
169,162,213395,5,10,2:2:0:0:
343,49,213553,1,10,2:2:0:0:
360,35,213869,6,0,B|432:9|482:67|482:67|456:71|433:94,1,180.400005505371,4|2,1:2|1:2,0:0:0:0:
429,285,214342,2,0,P|440:237|449:183,1,90.2000027526856,10|2,2:2|1:2,0:0:0:0:
371,120,214658,1,2,1:2:0:0:
259,249,214816,2,0,P|266:204|277:160,1,90.2000027526856,2|8,1:2|2:2,0:0:0:0:
194,27,215132,6,0,B|105:41|129:108|30:122,1,180.400005505371,2|0,1:2|1:1,0:0:0:0:
163,244,215605,2,0,P|127:217|83:212,1,90.2000027526856,12|0,2:2|0:0,0:0:0:0:
194,115,215921,1,0,1:1:0:0:
288,224,216079,1,0,1:1:0:0:
177,332,216237,2,0,L|162:242,1,90.2000027526856,8|2,2:2|2:2,0:0:0:0:
267,312,216474,1,2,2:2:0:0:
287,324,216553,6,0,B|326:279|392:284|392:284|415:324|459:331,2,180.400005505371,4|10|2,1:2|2:2|1:2,0:0:0:0:
465,247,217342,1,0,1:1:0:0:
346,152,217500,2,0,P|319:116|312:72,1,90.2000027526856,10|0,2:2|1:0,0:0:0:0:
244,206,217816,5,2,1:2:0:0:
244,206,217974,1,0,1:1:0:0:
399,84,218132,2,0,B|432:92|432:92|453:107|453:107|503:118,1,90.2000027526856,10|0,2:2|0:0,0:0:0:0:
281,35,218447,5,2,1:2:0:0:
281,35,218605,1,0,1:1:0:0:
126,157,218763,2,0,B|93:149|93:149|72:134|72:134|22:123,1,90.2000027526856,10|0,2:2|1:0,0:0:0:0:
203,356,219079,5,4,1:2:0:0:
203,356,219395,2,0,P|213:287|219:249,1,90.2000027526856,10|0,2:2|1:1,0:0:0:0:
314,140,219711,1,10,2:2:0:0:
144,233,219869,1,0,1:1:0:0:
332,128,220026,1,10,2:2:0:0:
172,27,220184,6,0,P|186:93|199:159,1,135.300004129028,4|0,1:2|0:0,0:0:0:0:
263,208,220500,1,2,1:2:0:0:
296,216,220578,1,0,1:1:0:0:
329,222,220657,1,2,3:2:0:0:
362,228,220736,1,0,3:3:0:0:
395,234,220816,2,0,L|384:183,1,45.1000013763428,2|0,3:2|1:2,0:0:0:0:
341,84,220974,2,0,L|331:128,1,45.1000013763428,10|0,2:2|3:3,0:0:0:0:
463,175,221132,2,0,P|496:114|462:47,1,135.300004129028,2|0,3:2|0:0,0:0:0:0:
324,47,221447,6,0,B|282:71|232:68|232:68|263:74|290:103,1,135.300004129028,4|0,1:2|0:0,0:0:0:0:
332,128,221763,1,2,1:2:0:0:
204,236,221921,2,0,P|213:184|220:142,1,90.2000027526856,10|2,2:2|1:2,0:0:0:0:
277,287,222237,1,2,1:2:0:0:
135,125,222395,2,0,P|128:169|119:213,1,90.2000027526856,2|8,1:2|2:2,0:0:0:0:
8,357,222711,6,0,P|51:312|174:327,1,180.400005505371,2|2,1:2|1:2,0:0:0:0:
305,384,223184,2,0,P|275:352|269:305,1,90.2000027526856,10|2,2:2|1:2,0:0:0:0:
416,227,223500,1,2,1:2:0:0:
416,227,223658,1,2,1:2:0:0:
357,315,223816,1,8,2:2:0:0:
312,109,223974,6,0,P|280:192|203:235,1,180.400005505371,4|2,1:2|1:2,0:0:0:0:
141,1,224447,2,0,P|185:6|228:19,1,90.2000027526856,10|2,2:2|1:2,0:0:0:0:
59,44,224763,1,2,1:2:0:0:
203,135,224921,2,0,P|158:129|115:116,1,90.2000027526856,2|8,1:2|2:2,0:0:0:0:
23,267,225237,6,0,B|106:253|118:332|217:313,1,180.400005505371,2|0,1:2|1:1,0:0:0:0:
337,193,225711,2,0,P|275:192|256:255,1,135.300004129028,12|0,2:2|0:0,0:0:0:0:
331,276,226026,1,0,1:1:0:0:
265,365,226184,1,0,1:1:0:0:
410,239,226342,2,0,P|419:200|425:150,1,90.2000027526856,8|2,2:2|3:2,0:0:0:0:
465,66,226579,1,8,2:2:0:0:
455,44,226658,6,0,B|418:21|418:21|362:76|294:63,1,180.400005505371,4|10,1:2|2:2,0:0:0:0:
184,5,227132,1,2,2:2:0:0:
184,5,227211,1,2,0:0:0:0:
184,5,227290,1,2,1:2:0:0:
269,152,227447,1,0,1:1:0:0:
175,229,227605,2,0,P|128:207|113:129,1,135.300004129028,8|0,2:2|0:0,0:0:0:0:
173,87,227921,5,2,1:2:0:0:
173,87,228079,1,0,1:1:0:0:
296,175,228237,2,0,B|327:165|327:165|352:187|388:185,1,90.2000027526856,10|2,2:2|2:2,0:0:0:0:
180,352,228553,5,2,1:2:0:0:
180,352,228711,1,0,1:1:0:0:
362,265,228869,2,0,B|393:274|393:274|418:252|454:254,1,90.2000027526856,14|0,2:2|3:3,0:0:0:0:
504,169,229105,1,8,2:2:0:0:
509,149,229184,6,0,L|491:59,1,90.2000027526856,4|0,1:2|0:0,0:0:0:0:
396,0,229500,2,0,L|378:88,1,90.2000027526856,10|0,2:2|0:0,0:0:0:0:
283,191,229816,1,2,1:2:0:0:
283,191,229974,1,0,1:1:0:0:
491,60,230132,2,0,L|509:149,1,90.2000027526856,14|2,2:2|1:2,0:0:0:0:
473,243,230369,1,0,1:0:0:0:
463,264,230447,6,0,B|424:266|421:298|381:300,1,90.2000027526856,4|0,1:2|0:0,0:0:0:0:
201,239,230763,1,8,2:2:0:0:
249,102,230921,1,0,3:3:0:0:
249,102,231000,1,8,2:2:0:0:
249,102,231079,1,8,2:2:0:0:
107,55,231237,1,0,3:3:0:0:
56,196,231395,1,0,3:3:0:0:
150,149,231553,1,2,3:2:0:0:
70,284,231711,6,0,P|64:240|56:196,1,90.2000027526856,12|0,2:2|1:1,0:0:0:0:
270,70,232026,2,0,P|263:114|255:158,1,90.2000027526856,10|2,2:2|1:2,0:0:0:0:
201,353,232342,6,0,P|194:308|186:264,1,90.2000027526856,10|0,2:2|1:1,0:0:0:0:
401,139,232657,2,0,P|394:183|386:227,1,90.2000027526856,8|0,2:2|1:1,0:0:0:0:
395,303,232974,5,10,2:2:0:0:
308,217,233132,1,0,1:1:0:0:
236,63,233290,5,14,2:2:0:0:
206,179,233447,1,2,1:2:0:0:
107,320,233605,5,10,2:2:0:0:
224,287,233763,1,0,1:1:0:0:
107,140,233921,6,0,L|78:52,1,90.2000027526856,10|0,2:2|1:1,0:0:0:0:
320,123,234237,5,12,2:2:0:0:
130,223,234395,1,8,2:2:0:0:
43,203,234553,2,0,L|14:115,1,90.2000027526856,10|2,2:2|1:2,0:0:0:0:
72,284,234869,5,10,2:2:0:0:
262,384,235027,1,8,2:2:0:0:
349,364,235185,2,0,L|378:276,1,90.2000027526856,10|0,2:2|1:1,0:0:0:0:
262,384,235500,5,4,1:2:0:0:
350,178,235658,1,0,3:3:0:0:
377,278,235816,1,0,3:3:0:0:
282,247,235974,1,8,2:2:0:0:
452,202,236132,5,8,2:2:0:0:
452,202,236290,1,10,2:2:0:0:
323,86,236447,2,0,P|252:71|181:71,1,135.300004129028,10|0,2:2|0:0,0:0:0:0:
104,96,236763,6,0,P|85:48|88:8,1,82,4|0,1:2|1:0,0:0:0:0:
51,184,237079,2,0,P|89:198|130:196,1,82,10|2,2:2|2:2,0:0:0:0:
4,101,237395,1,2,1:2:0:0:
4,101,237553,1,0,1:1:0:0:
45,284,237711,1,10,2:2:0:0:
185,127,237869,6,0,P|256:88|337:86,1,164,4|0,1:2|1:1,0:0:0:0:
466,231,238342,2,0,B|356:213|356:213|331:239|299:244,1,164,8|0,2:2|1:1,0:0:0:0:
369,118,238816,1,2,1:2:0:0:
225,240,238974,2,0,P|234:290|239:337,1,82,10|2,2:2|1:2,0:0:0:0:
466,231,239290,6,0,P|475:139|485:63,2,164,4|10|2,1:2|2:2|1:2,0:0:0:0:
381,305,240079,1,0,1:1:0:0:
270,163,240237,1,10,2:2:0:0:
100,226,240395,6,0,B|113:249|124:277|124:277|175:255|230:238,1,164,4|0,1:2|1:1,0:0:0:0:
211,73,240869,2,0,P|207:91|204:116,3,41,10|0|2|0,1:2|1:0|1:2|1:0,0:0:0:0:
283,30,241184,2,0,P|303:33|322:38,1,41,2|2,1:2|1:2,0:0:0:0:
351,156,241342,2,0,P|371:153|390:148,1,41,2|2,1:2|1:2,0:0:0:0:
475,14,241500,2,0,P|450:64|451:103,1,82,10|0,2:2|3:3,0:0:0:0:
320,244,241816,6,0,P|276:209|260:173,1,82,4|0,1:2|1:0,0:0:0:0:
175,352,242132,2,0,P|226:331|265:335,1,82,10|2,2:2|1:2,0:0:0:0:
153,172,242447,2,0,P|144:227|121:258,1,82,10|0,2:2|1:1,0:0:0:0:
69,338,242763,1,10,2:2:0:0:
69,338,242921,1,2,1:2:0:0:
41,213,243079,6,0,P|49:157|72:126,1,82,8|0,2:2|1:1,0:0:0:0:
215,99,243395,2,0,P|206:43|183:12,1,82,8|0,2:2|1:1,0:0:0:0:
193,22,243632,1,0,1:2:0:0:
193,22,243711,1,8,2:2:0:0:
82,16,243869,1,2,1:2:0:0:
153,172,244026,2,0,P|190:183|235:191,1,82,8|2,2:2|1:2,0:0:0:0:
449,70,244342,6,0,P|369:74|309:133,1,164,12|10,2:2|2:2,0:0:0:0:
232,190,244816,1,2,1:2:0:0:
343,303,244974,2,0,P|332:266|324:221,1,82,10|0,2:2|1:1,0:0:0:0:
405,162,245290,1,10,2:2:0:0:
249,284,245447,6,0,B|171:265|176:338|80:314,1,164,4|0,1:2|1:1,0:0:0:0:
48,149,245921,2,0,P|55:200|125:222,1,123,8|8,2:2|2:2,0:0:0:0:
164,164,246237,5,8,2:2:0:0:
257,150,246395,1,0,3:3:0:0:
350,136,246553,1,0,3:3:0:0:
363,143,246869,5,10,2:2:0:0:
501,212,247026,1,8,2:2:0:0:
402,288,247184,2,0,P|410:251|417:207,1,82,10|2,2:2|1:2,0:0:0:0:
146,300,247500,5,10,2:2:0:0:
333,348,247658,1,0,1:1:0:0:
163,384,247816,1,10,2:2:0:0:
316,264,247974,6,0,P|295:192|286:141,1,123,4|0,1:2|0:0,0:0:0:0:
232,50,248290,2,0,P|224:75|220:97,1,41,8|8,2:2|2:2,0:0:0:0:
137,112,248447,5,0,3:3:0:0:
116,140,248525,1,0,3:3:0:0:
120,174,248604,1,0,3:3:0:0:
148,197,248683,1,0,3:3:0:0:
182,194,248762,1,8,2:2:0:0:
34,333,248921,2,0,P|42:292|128:288,1,123,8|2,2:2|2:2,0:0:0:0:
199,277,249237,6,0,P|284:274|338:331,1,164,4|2,1:2|1:2,0:0:0:0:
432,195,249710,2,0,P|379:218|357:248,1,82,10|0,2:2|1:0,0:0:0:0:
336,327,250026,1,2,1:2:0:0:
508,214,250184,2,0,P|471:195|431:194,1,82,2|10,1:2|2:2,0:0:0:0:
297,189,250500,6,0,L|275:27,1,164,2|2,1:2|1:2,0:0:0:0:
386,1,250974,2,0,L|364:87,1,82,10|2,2:2|1:2,0:0:0:0:
207,153,251289,1,2,1:2:0:0:
197,64,251447,1,2,1:2:0:0:
297,189,251605,1,10,2:2:0:0:
159,232,251763,6,0,B|83:224|89:289|5:285,1,164,4|2,1:2|1:2,0:0:0:0:
219,363,252237,2,0,P|229:323|225:283,1,82,10|0,2:2|1:0,0:0:0:0:
69,164,252552,1,2,1:2:0:0:
159,232,252711,1,2,1:2:0:0:
194,83,252868,1,10,2:2:0:0:
278,115,253026,6,0,B|319:100|319:100|373:151|443:137,1,164,2|0,1:2|1:1,0:0:0:0:
300,207,253500,2,0,P|299:247|322:281,1,82,14|0,2:2|1:0,0:0:0:0:
472,240,253815,2,0,P|435:220|395:222,1,82,2|0,1:2|1:1,0:0:0:0:
360,369,254131,2,0,P|393:348|412:312,1,82,14|0,2:2|1:0,0:0:0:0:
267,336,254368,1,0,1:3:0:0:
251,331,254447,6,0,P|222:282|210:209,1,123,4|0,1:2|0:0,0:0:0:0:
158,150,254763,2,0,B|123:144|123:144|109:148|109:148|65:143,1,82,8|2,2:2|0:0,0:0:0:0:
104,231,255079,1,2,1:2:0:0:
53,134,255237,1,0,1:1:0:0:
194,78,255394,1,8,2:2:0:0:
240,188,255552,5,2,2:2:0:0:
240,188,255631,1,2,2:2:0:0:
240,188,255710,1,2,1:2:0:0:
351,235,255868,1,0,1:1:0:0:
409,129,256026,2,0,P|413:90|407:45,1,82,10|2,2:2|2:2,0:0:0:0:
268,270,256342,5,2,1:2:0:0:
157,317,256500,1,0,1:1:0:0:
99,211,256658,2,0,P|95:172|101:127,1,82,10|0,2:2|1:0,0:0:0:0:
155,61,256894,1,0,1:0:0:0:
169,49,256973,6,0,P|218:40|270:29,1,82,4|0,1:2|0:0,0:0:0:0:
388,163,257290,2,0,P|347:155|307:147,1,82,8|0,2:2|1:1,0:0:0:0:
157,317,257605,2,0,P|206:308|258:297,1,82,10|0,2:2|1:1,0:0:0:0:
449,353,257921,5,10,2:2:0:0:
498,272,258079,2,0,P|411:266|357:330,1,164,4|10,1:2|2:2,0:0:0:0:
305,250,258473,1,8,2:2:0:0:
294,239,258552,2,0,P|272:205|286:144,1,82,2|0,3:2|3:3,0:0:0:0:
310,99,258789,1,0,3:3:0:0:
322,91,258868,5,10,2:2:0:0:
216,107,259026,1,0,3:3:0:0:
151,27,259184,1,2,1:2:0:0:
187,214,259342,6,0,P|129:268|50:259,1,164,4|2,1:2|1:2,0:0:0:0:
16,158,259816,2,0,L|107:168,1,82,10|0,2:2|1:0,0:0:0:0:
232,18,260132,2,0,L|141:28,1,82,2|2,1:2|1:2,0:0:0:0:
51,41,260447,1,10,2:2:0:0:
189,180,260605,6,0,L|356:198,1,164,2|0,1:2|1:1,0:0:0:0:
435,27,261079,2,0,P|390:51|400:129,1,123,14|0,2:2|1:0,0:0:0:0:
477,135,261395,1,2,1:2:0:0:
352,197,261553,1,0,1:1:0:0:
497,281,261711,1,10,2:2:0:0:
454,381,261869,6,0,L|436:210,1,164,4|2,1:2|1:2,0:0:0:0:
309,322,262342,2,0,P|270:308|221:304,1,82,10|0,2:2|1:0,0:0:0:0:
93,372,262658,1,2,1:2:0:0:
138,286,262816,1,2,1:2:0:0:
39,126,262974,1,10,2:2:0:0:
0,218,263132,6,0,P|81:205|161:174,1,164,2|0,1:2|1:1,0:0:0:0:
84,40,263605,2,0,P|109:49|138:56,1,41,10|2,2:2|0:0,0:0:0:0:
165,183,263763,1,2,2:2:0:0:
165,183,263842,1,2,0:0:0:0:
165,183,263921,2,0,P|210:159|234:138,1,82,2|2,1:2|1:2,0:0:0:0:
273,5,264237,1,14,2:2:0:0:
396,65,264395,5,0,3:3:0:0:
396,65,264474,1,0,3:3:0:0:
396,65,264553,2,0,B|402:97|402:97|341:174|341:174|349:214,2,164,4|10|2,1:2|2:2|1:2,0:0:0:0:
472,174,265342,1,0,1:1:0:0:
371,290,265500,2,0,B|397:286|420:264|420:264|446:266,1,82,8|2,2:2|2:2,0:0:0:0:
445,265,265737,1,2,2:2:0:0:
445,265,265816,5,2,1:2:0:0:
347,206,265974,1,0,1:1:0:0:
292,375,266132,2,0,P|281:318|277:276,1,82,10|2,2:2|2:2,0:0:0:0:
159,95,266447,2,0,P|170:152|174:194,1,82,2|0,1:2|1:1,0:0:0:0:
5,204,266763,2,0,B|31:206|31:206|54:184|80:180,1,82,10|0,2:2|1:0,0:0:0:0:
23,291,267000,1,0,1:0:0:0:
29,306,267079,6,0,P|90:357|170:350,1,164,4|10,1:2|2:2,0:0:0:0:
304,278,267553,1,0,1:0:0:0:
304,278,267632,1,0,1:0:0:0:
304,278,267711,2,0,P|293:221|289:179,1,82,2|2,1:2|1:2,0:0:0:0:
478,336,268026,2,0,P|467:279|463:237,1,82,10|0,2:2|1:0,0:0:0:0:
512,117,268342,5,4,1:2:0:0:
391,163,268500,1,0,1:1:0:0:
331,55,268658,1,8,2:2:0:0:
290,197,268816,5,0,3:3:0:0:
290,197,268895,1,8,2:2:0:0:
290,197,268974,1,8,2:2:0:0:
169,151,269132,1,0,3:3:0:0:
109,259,269290,2,0,P|118:303|129:345,1,65.6,0|0,3:3|3:3,0:0:0:0:
200,236,269605,5,12,2:2:0:0:
65,158,269763,1,0,1:0:0:0:
225,55,269921,1,10,2:2:0:0:
169,151,270079,5,0,1:1:0:0:
169,151,270158,1,0,1:0:0:0:
169,151,270237,1,10,2:2:0:0:
368,171,270395,1,0,1:1:0:0:
200,236,270553,1,8,2:2:0:0:
337,86,270711,5,2,1:2:0:0:
337,86,270790,1,0,1:0:0:0:
337,86,270869,2,0,P|377:70|419:61,1,82,10|0,2:2|1:1,0:0:0:0:
150,111,271184,2,0,P|134:71|125:29,1,82,14|2,2:2|1:2,0:0:0:0:
175,298,271500,2,0,P|135:314|93:323,1,82,10|0,2:2|1:1,0:0:0:0:
362,273,271816,2,0,P|378:313|387:355,1,82,10|0,2:2|1:1,0:0:0:0:
368,171,272132,5,10,2:2:0:0:
368,171,272290,1,10,2:2:0:0:
226,88,272447,1,10,2:2:0:0:
144,213,272605,1,0,1:1:0:0:
268,286,272763,2,0,P|284:326|293:368,1,82,10|0,2:2|1:1,0:0:0:0:
248,170,273079,1,10,2:2:0:0:
169,312,273237,6,0,P|92:341|11:349,1,164,4|0,1:2|1:1,0:0:0:0:
11,349,273632,1,0,1:1:0:0:
11,349,273711,1,8,2:2:0:0:
144,213,273869,1,0,1:1:0:0:
11,125,274026,5,14,2:2:0:0:
41,239,274184,1,14,2:2:0:0:
248,170,274342,1,14,2:2:0:0:
218,56,274500,2,0,B|290:32|324:84|324:84|364:132|410:127,1,218.666666666667,14|8,2:2|2:2,0:0:0:0:
471,74,275105,2,0,P|474:48|484:12,1,54.6666666666667,0|0,3:3|1:1,0:0:0:0:
