osu file format v14

[General]
AudioFilename: audio.mp3
AudioLeadIn: 0
PreviewTime: 53744
Countdown: 0
SampleSet: Soft
StackLeniency: 0.6
Mode: 0
LetterboxInBreaks: 0
WidescreenStoryboard: 1

[Editor]
DistanceSpacing: 1
BeatDivisor: 4
GridSize: 16
TimelineZoom: 1.7

[Metadata]
Title:Heart+Heart (TV Size)
TitleUnicode:Heart+Heart (TV Size)
Artist:Hitotsuyanagi Riri & Shirai Yuyu (CV: Akao Hikaru & Natsuyoshi Yuuko)
ArtistUnicode:一柳梨璃&白井夢結 (CV: 赤尾ひかる&夏吉ゆうこ)
Creator:Crysisters
Version:Shirai Yuyu's Normal
Source:アサルトリリィ BOUQUET
Tags:assault lily ブーケ last bullet ラスバレ episode 5 ed ending short version yuri anime japanese j pop j-pop cookies white valentines valentine's day pi 3 14 Asukow Grazukow GodKei ztumpie -_Shirai_Yuyu_-
BeatmapID:3449433
BeatmapSetID:1670233

[Difficulty]
HPDrainRate:4
CircleSize:3
OverallDifficulty:4
ApproachRate:5.5
SliderMultiplier:1
SliderTickRate:1

[Events]
//Background and Video events
0,0,"bg.jpg",0,0
Video,0,"video.mp4"
//Break Periods
//Storyboard Layer 0 (Background)
//Storyboard Layer 1 (Fail)
//Storyboard Layer 2 (Pass)
//Storyboard Layer 3 (Foreground)
//Storyboard Layer 4 (Overlay)
//Storyboard Sound Samples

[TimingPoints]
519,322.58064516129,4,2,1,25,1,0
519,-111.111111111111,4,2,1,25,0,0
5357,-111.111111111111,4,2,1,45,0,0
5680,-100,4,2,1,60,0,0
10841,-111.111111111111,4,2,1,45,0,0
18583,-111.111111111111,4,2,1,55,0,0
21164,-105.263157894737,4,2,1,50,0,0
28906,-105.263157894737,4,2,1,70,0,0
29228,-105.263157894737,4,2,1,40,0,0
29389,-105.263157894737,4,2,1,45,0,0
29551,-105.263157894737,4,2,1,50,0,0
29712,-105.263157894737,4,2,1,55,0,0
29873,-105.263157894737,4,2,1,60,0,0
30035,-105.263157894737,4,2,1,65,0,0
30196,-105.263157894737,4,2,1,70,0,0
31486,-100,4,2,1,55,0,0
36648,-100,4,2,1,65,0,0
39228,-111.111111111111,4,2,1,40,0,0
43099,-111.111111111111,4,2,1,50,0,0
43422,-111.111111111111,4,2,1,55,0,0
43744,-111.111111111111,4,2,1,60,0,0
44389,-105.263157894737,4,2,1,70,0,0
49551,-105.263157894737,4,2,1,35,0,0
51809,-105.263157894737,4,2,1,60,0,0
52131,-105.263157894737,4,2,1,50,0,0
52293,-105.263157894737,4,2,1,55,0,0
52454,-105.263157894737,4,2,1,60,0,0
52615,-105.263157894737,4,2,1,65,0,0
52777,-105.263157894737,4,2,1,70,0,0
52938,-105.263157894737,4,2,1,75,0,0
53099,-105.263157894737,4,2,1,80,0,0
53260,-105.263157894737,4,2,1,85,0,0
53422,-105.263157894737,4,2,1,85,0,0
54712,-90.9090909090909,4,2,1,80,0,1
64389,-90.9090909090909,4,2,1,70,0,1
64712,-90.9090909090909,4,2,1,75,0,1
65035,-100,4,2,1,80,0,1
70196,-90.9090909090909,4,2,1,70,0,1
71486,-90.9090909090909,4,2,1,75,0,1
72615,-90.9090909090909,4,2,1,38,0,1
72696,-90.9090909090909,4,2,1,44,0,1
72777,-90.9090909090909,4,2,1,100,0,1
72857,-90.9090909090909,4,2,1,50,0,1
72938,-90.9090909090909,4,2,1,53,0,1
73018,-90.9090909090909,4,2,1,56,0,1
73099,-90.9090909090909,4,2,1,59,0,1
73180,-90.9090909090909,4,2,1,62,0,1
73260,-90.9090909090909,4,2,1,65,0,1
73422,-90.9090909090909,4,2,1,68,0,1
73502,-90.9090909090909,4,2,1,71,0,1
73583,-90.9090909090909,4,2,1,74,0,1
73664,-90.9090909090909,4,2,1,77,0,1
73744,-90.9090909090909,4,2,1,80,0,1
75357,-111.111111111111,4,2,1,60,0,0
80518,-111.111111111111,4,2,1,75,0,0

[Colours]
Combo1 : 250,105,199
Combo2 : 90,110,245

[HitObjects]
64,32,5680,6,0,L|191:43,1,100,6|2,3:0|3:2,0:0:0:0:
234,111,6325,2,0,L|333:119,1,100,2|0,3:2|3:0,0:0:0:0:
383,128,6809,1,2,0:2:0:0:
364,226,7131,2,0,L|355:325,1,100,2|2,0:2|0:2,0:0:0:0:
319,361,7615,1,2,3:2:0:0:
248,290,7938,2,0,L|198:286,1,50,0|2,3:0|3:2,0:0:0:0:
162,250,8260,6,0,P|89:238|25:275,2,150,14|10|10,3:2|3:2|3:2,0:0:0:0:
260,362,9712,2,0,B|297:387|343:387|378:366|378:366|378:366|378:366|416:342|464:346|497:370,1,250,6|4,3:2|3:0,0:0:0:0:
496,279,10841,6,0,L|480:99,1,179.999994506836,4|0,3:2|0:0,0:0:0:0:
416,35,11809,1,2,0:0:0:0:
391,121,12131,2,0,B|279:137|279:137|219:107,1,179.999994506836
136,71,13099,1,2,0:0:0:0:
102,164,13422,5,2,0:2:0:0:
174,230,13744,2,0,P|213:250|258:246,1,89.9999972534181,2|2,0:0|0:2,0:0:0:0:
321,183,14389,2,0,L|326:79,2,89.9999972534181,2|0|0,0:0|0:0|0:0,0:0:0:0:
384,246,15357,1,2,0:0:0:0:
320,309,15680,2,0,L|276:313,1,44.999998626709,2|0,0:0|3:0,0:0:0:0:
243,344,16002,6,0,P|155:351|94:289,1,179.999994506836,4|0,0:2|0:0,0:0:0:0:
94,199,16970,1,2,0:0:0:0:
157,135,17293,2,0,P|200:125|243:137,1,89.9999972534181,0|2,0:2|0:0,0:0:0:0:
306,201,17938,2,0,L|297:296,1,89.9999972534181,0|0,0:0|3:2,0:0:0:0:
233,354,18583,6,0,P|168:335|103:350,2,134.999995880127,6|4|14,3:2|3:0|0:0,0:0:0:0:
365,379,20035,1,8,0:0:0:0:
428,315,20357,2,0,L|420:219,1,89.9999972534181,0|0,3:0|3:0,0:0:0:0:
388,193,20841,2,0,L|382:129,1,44.999998626709,2|0,3:2|3:0,0:0:0:0:
350,114,21164,6,0,P|304:103|259:116,1,94.9999974632264,6|10,3:2|0:0,0:0:0:0:
200,190,21809,2,0,P|154:198|109:184,1,94.9999974632264,2|10,3:2|0:0,0:0:0:0:
46,111,22454,1,4,3:0:0:0:
79,22,22777,1,10,0:0:0:0:
165,60,23099,2,0,L|161:108,2,47.4999987316132,2|2|10,3:2|0:0|0:0,0:0:0:0:
250,19,23744,6,0,L|344:11,1,94.9999974632264,4|10,3:0|0:2,0:0:0:0:
439,7,24389,1,2,3:2:0:0:
506,74,24712,1,10,0:2:0:0:
495,168,25035,2,0,L|487:263,1,94.9999974632264,4|4,3:0|3:0,0:0:0:0:
486,313,25518,1,8,0:0:0:0:
486,313,25680,1,2,3:2:0:0:
417,380,26002,2,0,L|370:376,1,47.4999987316132,10|2,0:2|3:2,0:0:0:0:
325,359,26325,6,0,P|278:355|235:373,2,94.9999974632264,4|10|2,3:2|0:2|3:2,0:0:0:0:
385,286,27293,1,10,0:2:0:0:
385,286,27454,2,0,B|396:263|394:238|384:218|384:218|372:195|372:170|382:149,1,142.49999619484,6|8,0:2|0:0,0:0:0:0:
331,68,28260,2,0,P|285:56|239:67,1,94.9999974632264,2|8,3:2|0:0,0:0:0:0:
202,87,28744,1,2,3:2:0:0:
202,87,28906,5,4,0:2:0:0:
134,154,29228,2,0,L|87:150,2,47.4999987316132,0|0|0,3:0|3:0|3:0,0:0:0:0:
113,202,29712,1,0,3:0:0:0:
113,202,29873,2,0,L|108:265,1,47.4999987316132,0|0,3:0|3:0,0:0:0:0:
142,283,30196,6,0,L|148:346,1,47.4999987316132,4|0,3:2|3:0,0:0:0:0:
154,376,30518,1,10,3:2:0:0:
249,376,30841,1,10,0:2:0:0:
344,376,31164,1,10,0:2:0:0:
414,305,31486,5,10,0:2:0:0:
414,305,31648,1,0,3:0:0:0:
484,234,31970,1,8,0:0:0:0:
472,84,32454,1,2,3:2:0:0:
472,84,32615,1,2,3:2:0:0:
401,13,32938,1,8,0:0:0:0:
267,76,33421,1,2,3:2:0:0:
267,76,33583,2,0,P|245:118|246:168,1,100,10|2,0:2|0:2,0:0:0:0:
278,215,34067,5,0,3:0:0:0:
278,215,34228,1,0,3:0:0:0:
352,148,34551,1,8,0:0:0:0:
504,131,35035,1,2,3:2:0:0:
504,131,35196,1,2,3:2:0:0:
510,231,35518,1,8,0:0:0:0:
403,337,36002,1,2,3:2:0:0:
403,337,36164,2,0,L|304:346,1,100,10|2,0:2|3:2,0:0:0:0:
268,310,36648,6,0,L|219:305,1,50,4|0,3:2|3:0,0:0:0:0:
169,303,36970,1,10,0:2:0:0:
74,336,37293,1,10,0:2:0:0:
12,265,37615,1,10,0:2:0:0:
12,265,37777,2,0,L|21:165,1,100,4|0,3:2|3:0,0:0:0:0:
45,121,38260,2,0,P|58:73|45:25,2,100,10|6|6,0:2|0:3|0:3,0:0:0:0:
117,175,39228,6,0,L|207:167,1,89.9999972534181,6|0,0:2|3:0,0:0:0:0:
271,103,39873,1,2,3:2:0:0:
362,103,40196,1,0,3:0:0:0:
426,166,40518,2,0,L|435:266,2,89.9999972534181,2|0|0,3:2|3:0|3:0,0:0:0:0:
454,80,41486,1,2,3:2:0:0:
391,16,41809,6,0,L|302:24,1,89.9999972534181,6|0,3:2|3:0,0:0:0:0:
238,87,42454,2,0,P|195:79|153:95,1,89.9999972534181,2|0,3:2|3:0,0:0:0:0:
121,127,42938,1,2,3:2:0:0:
121,127,43099,2,0,L|112:216,1,89.9999972534181,2|2,3:2|3:2,0:0:0:0:
172,284,43744,1,2,3:2:0:0:
263,284,44067,1,10,3:2:0:0:
331,216,44389,6,0,P|375:201|421:212,1,94.9999974632264,6|8,3:2|0:0,0:0:0:0:
465,297,45035,2,0,P|421:312|375:301,1,94.9999974632264,0|10,3:0|0:2,0:0:0:0:
342,335,45518,1,2,0:2:0:0:
342,335,45680,2,0,L|242:344,1,94.9999974632264,0|8,3:0|0:0,0:0:0:0:
152,345,46325,1,0,3:0:0:0:
84,277,46648,2,0,L|80:230,1,47.4999987316132,10|2,3:2|3:2,0:0:0:0:
79,182,46970,6,0,P|61:138|68:91,1,94.9999974632264,6|0,3:2|3:0,0:0:0:0:
94,53,47454,1,12,0:2:0:0:
217,126,47938,2,0,B|276:131|276:131|308:113,1,94.9999974632264,6|0,3:2|3:0,0:0:0:0:
347,86,48422,1,14,0:2:0:0:
414,152,48744,1,0,3:0:0:0:
414,152,48906,2,0,L|461:148,2,47.4999987316132,2|0|2,3:2|3:0|3:2,0:0:0:0:
347,219,49551,5,6,3:2:0:0:
256,192,49631,12,6,52131,3:2:0:0:
310,190,53422,5,8,3:2:0:0:
310,190,53583,1,8,3:2:0:0:
206,294,54067,5,10,0:2:0:0:
206,294,54228,1,8,0:0:0:0:
90,177,54712,6,0,P|72:125|81:72,1,110.000003356934,6|10,3:2|0:2,0:0:0:0:
120,33,55196,1,2,3:2:0:0:
198,110,55518,1,0,3:0:0:0:
198,110,55680,2,0,L|253:105,1,55.0000016784668,10|0,0:2|0:0,0:0:0:0:
292,66,56002,6,0,P|346:52|398:66,1,110.000003356934,6|10,3:2|0:2,0:0:0:0:
437,105,56486,1,2,3:2:0:0:
500,196,56809,1,0,3:0:0:0:
500,196,56970,2,0,L|506:275,1,55.0000016784668,10|2,0:2|0:2,0:0:0:0:
505,306,57293,6,0,P|452:292|400:306,1,110.000003356934,6|8,3:2|0:0,0:0:0:0:
361,345,57777,1,2,3:2:0:0:
361,345,57938,2,0,L|252:336,1,110.000003356934,2|8,3:2|0:0,0:0:0:0:
144,360,58583,6,0,P|91:368|40:349,1,110.000003356934,6|10,3:2|0:2,0:0:0:0:
18,297,59067,2,0,L|28:185,1,110.000003356934,2|2,3:2|3:2,0:0:0:0:
75,90,59712,1,2,0:2:0:0:
75,90,59873,6,0,P|128:76|181:90,1,110.000003356934,6|10,3:2|0:2,0:0:0:0:
219,128,60357,2,0,L|329:138,1,110.000003356934,2|0,3:2|3:0,0:0:0:0:
383,142,60841,1,10,0:2:0:0:
486,174,61164,6,0,L|480:238,1,55.0000016784668,6|0,3:2|3:0,0:0:0:0:
470,287,61486,1,10,0:2:0:0:
470,287,61648,2,0,P|419:269|368:284,1,110.000003356934,0|0,3:0|3:0,0:0:0:0:
329,323,62131,2,0,L|274:319,1,55.0000016784668,10|0,0:2|3:0,0:0:0:0:
236,358,62454,6,0,P|185:376|133:360,1,110.000003356934,4|8,3:2|0:0,0:0:0:0:
56,282,63099,2,0,L|62:218,1,55.0000016784668,0|0,3:0|3:0,0:0:0:0:
65,172,63422,1,10,0:2:0:0:
165,126,63744,6,0,L|275:136,1,110.000003356934,6|8,3:2|0:0,0:0:0:0:
317,179,64228,1,0,3:0:0:0:
317,179,64389,1,0,3:0:0:0:
418,137,64712,2,0,L|422:82,1,55.0000016784668,8|0,0:0|3:0,0:0:0:0:
428,32,65035,5,4,3:2:0:0:
331,7,65357,2,0,L|232:-1,2,100,10|2|10,0:2|3:2|0:2,0:0:0:0:
279,92,66325,1,6,3:2:0:0:
269,191,66648,1,10,0:2:0:0:
171,210,66970,2,0,L|71:218,1,100,2|10,3:2|0:2,0:0:0:0:
24,305,67615,6,0,B|89:299|89:299|121:314,1,100,6|8,3:2|0:0,0:0:0:0:
192,382,68260,1,2,3:2:0:0:
263,311,68583,1,10,0:2:0:0:
334,381,68906,2,0,L|433:372,2,100,4|8|0,3:2|0:0|3:0,0:0:0:0:
263,311,69873,2,0,L|258:261,1,50,10|0,0:2|3:0,0:0:0:0:
231,212,70196,6,0,B|264:189|305:189|336:208|336:208|336:208|336:208|369:229|412:226|441:204,1,220.000006713867,6|0,3:0|3:0,0:0:0:0:
490,108,71164,2,0,L|494:53,1,55.0000016784668,2|2,3:2|3:2,0:0:0:0:
466,5,71486,1,4,3:2:0:0:
355,2,71809,2,0,L|301:7,1,55.0000016784668,10|0,0:2|3:0,0:0:0:0:
258,42,72131,2,0,L|195:37,1,55.0000016784668,10|0,0:2|3:0,0:0:0:0:
147,36,72454,1,10,0:2:0:0:
104,140,72777,5,2,3:2:0:0:
104,140,72938,2,0,P|51:133|0:154,1,110.000003356934,0|0,3:0|3:0,0:0:0:0:
0,209,73422,2,0,L|5:263,1,55.0000016784668,2|0,3:2|3:0,0:0:0:0:
15,317,73744,1,4,3:2:0:0:
105,379,74067,2,0,L|160:374,1,55.0000016784668,10|8,0:2|0:0,0:0:0:0:
212,358,74389,1,10,3:2:0:0:
290,280,74712,1,2,0:2:0:0:
398,254,75035,2,0,L|453:249,1,55.0000016784668,10|2,0:2|0:2,0:0:0:0:
485,217,75357,6,0,P|496:151|464:93,2,134.999995880127,10|2|10,0:2|3:2|0:2,0:0:0:0:
453,249,76486,1,2,3:2:0:0:
390,312,76809,2,0,L|327:317,1,44.999998626709,2|10,0:2|0:2,0:0:0:0:
301,320,77131,2,0,P|260:302|216:306,1,89.9999972534181,2|2,3:2|3:2,0:0:0:0:
178,330,77615,1,10,0:2:0:0:
115,266,77938,6,0,L|104:131,2,134.999995880127,8|2|10,0:2|3:2|0:2,0:0:0:0:
120,310,79067,1,2,3:2:0:0:
184,373,79389,1,2,0:2:0:0:
184,373,79551,2,0,L|228:377,1,44.999998626709,10|0,0:2|3:2,0:0:0:0:
273,381,79873,1,10,0:2:0:0:
337,317,80196,2,0,L|340:272,1,44.999998626709,2|2,3:2|3:2,0:0:0:0:
309,240,80518,6,0,L|305:195,1,44.999998626709,4|2,3:0|3:2,0:0:0:0:
333,161,80841,1,10,0:2:0:0:
333,161,81002,2,0,P|345:118|333:76,1,89.9999972534181,4|2,3:2|3:2,0:0:0:0:
302,50,81486,1,10,0:2:0:0:
302,50,81648,1,2,3:2:0:0:
218,26,81970,2,0,L|173:29,1,44.999998626709,0|8,3:2|0:2,0:0:0:0:
140,60,82293,2,0,P|151:104|139:146,1,89.9999972534181,4|0,3:2|3:0,0:0:0:0:
108,177,82777,1,2,3:2:0:0:
173,241,83099,6,0,P|216:255|260:249,1,89.9999972534181,4|8,3:2|0:0,0:0:0:0:
300,229,83583,1,0,3:0:0:0:
364,165,83906,2,0,L|367:120,1,44.999998626709,6|2,0:3|3:2,0:0:0:0:
369,76,84228,1,10,0:2:0:0:
290,31,84551,2,0,L|245:34,2,44.999998626709,8|8|8,0:0|0:0|0:0,0:0:0:0:
322,0,85035,1,8,0:0:0:0:
