osu file format v14

[General]
AudioFilename: audio.mp3
AudioLeadIn: 0
PreviewTime: 53744
Countdown: 0
SampleSet: Soft
StackLeniency: 0.6
Mode: 0
LetterboxInBreaks: 0
WidescreenStoryboard: 1

[Editor]
DistanceSpacing: 1.2
BeatDivisor: 8
GridSize: 32
TimelineZoom: 1.7

[Metadata]
Title:Heart+Heart (TV Size)
TitleUnicode:Heart+Heart (TV Size)
Artist:Hitotsuyanagi Riri & Shirai Yuyu (CV: Akao Hikaru & Natsuyoshi Yuuko)
ArtistUnicode:一柳梨璃&白井夢結 (CV: 赤尾ひかる&夏吉ゆうこ)
Creator:Crysisters
Version:Gift
Source:アサルトリリィ BOUQUET
Tags:assault lily ブーケ last bullet ラスバレ episode 5 ed ending short version yuri anime japanese j pop j-pop cookies white valentines valentine's day pi 3 14 Asukow Grazukow GodKei ztumpie -_Shirai_Yuyu_-
BeatmapID:3411339
BeatmapSetID:1670233

[Difficulty]
HPDrainRate:5.6
CircleSize:4.2
OverallDifficulty:8.6
ApproachRate:9.3
SliderMultiplier:1.8
SliderTickRate:1

[Events]
//Background and Video events
0,0,"bg.jpg",0,0
Video,0,"video.mp4"
//Break Periods
//Storyboard Layer 0 (Background)
//Storyboard Layer 1 (Fail)
//Storyboard Layer 2 (Pass)
//Storyboard Layer 3 (Foreground)
//Storyboard Layer 4 (Overlay)
//Storyboard Sound Samples

[TimingPoints]
519,322.58064516129,4,2,1,25,1,0
519,-200,4,2,1,25,0,0
5196,-133.333333333333,4,2,1,25,0,0
5277,-133.333333333333,4,2,1,25,0,0
5357,-133.333333333333,4,2,1,45,0,0
5599,-133.333333333333,4,2,1,5,0,0
5680,-100,4,2,1,60,0,0
9712,-200,4,2,1,60,0,0
10841,-133.333333333333,4,2,1,45,0,0
18583,-83.3333333333333,4,2,1,55,0,0
18825,-83.3333333333333,4,2,1,5,0,0
18906,-83.3333333333333,4,2,1,55,0,0
19309,-83.3333333333333,4,2,1,5,0,0
19389,-83.3333333333333,4,2,1,55,0,0
20035,-111.111111111111,4,2,1,55,0,0
21164,-105.263157894737,4,2,1,50,0,0
21406,-105.263157894737,4,2,1,5,0,0
21486,-105.263157894737,4,2,1,50,0,0
22696,-105.263157894737,4,2,1,5,0,0
22777,-105.263157894737,4,2,1,50,0,0
23986,-105.263157894737,4,2,1,5,0,0
24067,-105.263157894737,4,2,1,50,0,0
25277,-105.263157894737,4,2,1,5,0,0
25357,-105.263157894737,4,2,1,50,0,0
26567,-105.263157894737,4,2,1,5,0,0
26648,-105.263157894737,4,2,1,50,0,0
28906,-105.263157894737,4,2,1,70,0,0
29148,-105.263157894737,4,2,1,5,0,0
29228,-105.263157894737,4,2,1,40,0,0
29389,-105.263157894737,4,2,1,45,0,0
29551,-105.263157894737,4,2,1,50,0,0
29712,-105.263157894737,4,2,1,55,0,0
29873,-105.263157894737,4,2,1,60,0,0
30035,-105.263157894737,4,2,1,65,0,0
30196,-105.263157894737,4,2,1,70,0,0
31486,-105.263157894737,4,2,1,55,0,0
31809,-117.647058823529,4,2,1,55,0,0
36648,-117.647058823529,4,2,1,65,0,0
38018,-117.647058823529,4,2,1,5,0,0
38099,-117.647058823529,4,2,1,65,0,0
39228,-133.333333333333,4,2,1,40,0,0
41486,-222.222222222222,4,2,1,40,0,0
41809,-133.333333333333,4,2,1,40,0,0
43099,-117.647058823529,4,2,1,50,0,0
43341,-117.647058823529,4,2,1,5,0,0
43422,-105.263157894737,4,2,1,55,0,0
43664,-105.263157894737,4,2,1,5,0,0
43744,-90.9090909090909,4,2,1,60,0,0
44309,-90.9090909090909,4,2,1,60,0,0
44389,-90.9090909090909,4,2,1,70,0,0
44712,-100,4,2,1,70,0,0
46244,-100,4,2,1,5,0,0
46325,-100,4,2,1,70,0,0
46970,-90.9090909090909,4,2,1,70,0,0
47212,-90.9090909090909,4,2,1,5,0,0
47293,-90.9090909090909,4,2,1,70,0,0
47454,-83.3333333333333,4,2,1,70,0,0
47696,-83.3333333333333,4,2,1,5,0,0
47777,-83.3333333333333,4,2,1,70,0,0
47938,-76.9230769230769,4,2,1,70,0,0
48180,-76.9230769230769,4,2,1,5,0,0
48260,-76.9230769230769,4,2,1,70,0,0
48664,-76.9230769230769,4,2,1,5,0,0
48744,-90.9090909090909,4,2,1,70,0,0
48906,-90.9090909090909,4,2,1,70,0,0
49148,-90.9090909090909,4,2,1,5,0,0
49228,-90.9090909090909,4,2,1,70,0,0
49470,-90.9090909090909,4,2,1,5,0,0
49551,-90.9090909090909,4,2,1,35,0,0
49873,-125,4,2,1,35,0,0
51809,-111.111111111111,4,2,1,60,0,0
52131,-111.111111111111,4,2,1,50,0,0
52293,-111.111111111111,4,2,1,55,0,0
52454,-111.111111111111,4,2,1,60,0,0
52615,-111.111111111111,4,2,1,65,0,0
52777,-111.111111111111,4,2,1,70,0,0
52938,-111.111111111111,4,2,1,75,0,0
53099,-111.111111111111,4,2,1,80,0,0
53260,-111.111111111111,4,2,1,85,0,0
53422,-111.111111111111,4,2,1,85,0,0
53744,-166.666666666667,4,2,1,85,0,0
54712,-83.3333333333333,4,2,1,80,0,1
54954,-83.3333333333333,4,2,1,5,0,1
55035,-83.3333333333333,4,2,1,80,0,1
57535,-83.3333333333333,4,2,1,5,0,1
57615,-83.3333333333333,4,2,1,80,0,1
60115,-83.3333333333333,4,2,1,5,0,1
60196,-83.3333333333333,4,2,1,80,0,1
61406,-83.3333333333333,4,2,1,5,0,1
61486,-83.3333333333333,4,2,1,80,0,1
64389,-83.3333333333333,4,2,1,70,0,1
64712,-83.3333333333333,4,2,1,75,0,1
65035,-83.3333333333333,4,2,1,80,0,1
65277,-83.3333333333333,4,2,1,5,0,1
65357,-83.3333333333333,4,2,1,80,0,1
67857,-83.3333333333333,4,2,1,5,0,1
67938,-83.3333333333333,4,2,1,80,0,1
69148,-83.3333333333333,4,2,1,5,0,1
69228,-83.3333333333333,4,2,1,80,0,1
70196,-71.4285714285714,4,2,1,70,0,1
71164,-83.3333333333333,4,2,1,70,0,1
71486,-83.3333333333333,4,2,1,75,0,1
72615,-83.3333333333333,4,2,1,38,0,1
72696,-83.3333333333333,4,2,1,44,0,1
72777,-83.3333333333333,4,2,1,100,0,1
72857,-83.3333333333333,4,2,1,50,0,1
72938,-83.3333333333333,4,2,1,53,0,1
73018,-83.3333333333333,4,2,1,56,0,1
73099,-83.3333333333333,4,2,1,59,0,1
73180,-83.3333333333333,4,2,1,62,0,1
73260,-83.3333333333333,4,2,1,65,0,1
73422,-83.3333333333333,4,2,1,68,0,1
73502,-83.3333333333333,4,2,1,71,0,1
73583,-83.3333333333333,4,2,1,74,0,1
73664,-83.3333333333333,4,2,1,77,0,1
73744,-83.3333333333333,4,2,1,80,0,1
74067,-83.3333333333333,4,2,1,80,0,0
74389,-90.9090909090909,4,2,1,80,0,0
75277,-90.9090909090909,4,2,1,5,0,0
75357,-111.111111111111,4,2,1,60,0,0
77938,-111.111111111111,4,2,1,60,0,0
79873,-100,4,2,1,60,0,0
80115,-100,4,2,1,5,0,0
80196,-100,4,2,1,60,0,0
80518,-90.9090909090909,4,2,1,75,0,0
81244,-90.9090909090909,4,2,1,5,0,0
81325,-90.9090909090909,4,2,1,75,0,0

[Colours]
Combo1 : 250,105,199
Combo2 : 90,110,245

[HitObjects]
145,93,519,5,2,0:0:0:0:
195,12,680,2,0,L|252:8,1,45,2|2,0:0|0:0,0:0:0:0:
145,93,1002,5,2,0:0:0:0:
66,40,1164,1,2,0:0:0:0:
15,120,1326,1,2,0:0:0:0:
94,171,1486,5,2,0:0:0:0:
44,250,1647,2,0,L|-11:255,1,45,2|2,0:0|0:0,0:0:0:0:
94,171,1969,5,2,0:0:0:0:
173,223,2131,1,2,0:0:0:0:
224,143,2293,1,2,0:0:0:0:
351,301,3099,5,2,0:0:0:0:
300,379,3260,2,0,L|244:383,1,45,2|2,0:0|0:0,0:0:0:0:
351,301,3582,5,2,0:0:0:0:
428,352,3744,1,2,0:0:0:0:
479,273,3906,1,2,0:0:0:0:
401,223,4066,5,2,0:0:0:0:
450,145,4227,2,0,L|504:139,1,45,2|2,0:0|0:0,0:0:0:0:
401,223,4551,5,2,0:0:0:0:
322,171,4711,1,2,0:0:0:0:
272,250,4873,1,2,0:0:0:0:
260,264,5196,6,0,L|213:252,1,33.7500012874604,2|2,0:0|0:0,0:0:0:0:
145,187,5357,2,0,B|101:193|101:193|82:212|82:212|44:219,1,101.250003862381,4|0,0:0|0:0,0:0:0:0:
5,282,5680,6,0,P|31:251|27:201,1,90,6|2,3:0|0:2,0:0:0:0:
96,0,6002,2,0,P|70:31|74:81,1,90,2|2,3:2|0:2,0:0:0:0:
145,187,6325,1,2,3:2:0:0:
315,87,6486,2,0,L|224:70,1,90,2|0,0:2|3:0,0:0:0:0:
428,205,6809,6,0,L|334:227,1,90,2|0,0:2|3:0,0:0:0:0:
404,109,7131,1,2,0:2:0:0:
262,291,7293,1,2,3:2:0:0:
294,154,7454,1,2,0:2:0:0:
427,307,7615,1,2,3:2:0:0:
237,290,7777,5,2,3:2:0:0:
211,295,7857,1,0,3:0:0:0:
186,300,7938,1,0,3:0:0:0:
161,306,8018,1,0,3:0:0:0:
136,311,8099,1,2,3:2:0:0:
27,230,8260,5,14,3:2:0:0:
157,81,8422,1,0,3:0:0:0:
247,143,8583,1,0,3:0:0:0:
0,53,8744,5,10,3:2:0:0:
172,158,8906,1,0,3:0:0:0:
234,67,9067,1,0,3:0:0:0:
10,246,9228,5,10,3:2:0:0:
105,357,9389,2,0,L|177:333,1,45,0|0,3:0|3:0,0:0:0:0:
307,279,9551,1,0,3:0:0:0:
445,383,9712,6,0,B|471:342|428:280|428:280|357:317|371:370,1,225,6|4,3:2|3:0,0:0:0:0:
472,158,10841,6,0,B|392:126|402:187|334:156,1,135.000005149842,4|2,3:2|0:0,0:0:0:0:
270,102,11325,1,2,0:0:0:0:
199,50,11486,2,0,B|187:66|172:89|172:89|191:125|196:172,1,135.000005149842,0|2,0:0|0:0,0:0:0:0:
274,231,11970,1,2,0:0:0:0:
150,251,12131,6,0,B|102:237|102:237|59:251|59:251|20:241,1,135.000005149842,0|2,0:0|0:0,0:0:0:0:
55,161,12615,1,2,0:0:0:0:
110,324,12777,2,0,P|137:340|176:340,1,67.5000025749208
276,264,13099,2,0,L|261:192,1,67.5000025749208,2|0,0:0|0:0,0:0:0:0:
373,93,13422,6,0,B|338:86|338:86|300:106,1,67.5000025749208,2|0,0:2|0:0,0:0:0:0:
178,203,13744,2,0,B|213:210|213:210|251:190,1,67.5000025749208,2|0,0:0|0:0,0:0:0:0:
399,283,14067,2,0,B|370:297|370:297|335:290,1,67.5000025749208,2|0,0:2|0:0,0:0:0:0:
177,367,14389,2,0,B|212:374|212:374|250:354,1,67.5000025749208,2|0,0:0|0:0,0:0:0:0:
42,353,14712,6,0,P|53:290|62:218,1,135.000005149842
118,137,15196,1,0,0:0:0:0:
97,53,15357,2,0,P|60:65|42:87,1,67.5000025749208,2|0,0:0|0:0,0:0:0:0:
170,3,15680,1,2,0:0:0:0:
211,141,15841,1,0,3:0:0:0:
346,47,16002,6,0,B|382:47|411:71|411:71|438:44|478:40,1,135.000005149842,4|2,0:2|0:0,0:0:0:0:
479,127,16486,1,2,0:0:0:0:
408,184,16648,2,0,L|336:167,1,67.5000025749208
474,264,16970,1,2,0:0:0:0:
391,357,17131,1,2,0:0:0:0:
237,231,17293,6,0,B|284:238|284:238|309:261|309:261|361:272,1,135.000005149842,0|2,0:2|0:0,0:0:0:0:
241,382,17777,2,0,P|229:345|244:310,1,67.5000025749208,2|0,0:0|0:0,0:0:0:0:
350,186,18099,1,2,0:0:0:0:
299,90,18260,5,0,3:2:0:0:
274,94,18340,1,0,3:0:0:0:
249,98,18421,1,0,3:0:0:0:
224,103,18501,1,0,3:0:0:0:
197,107,18583,6,0,B|170:120|154:137|154:137|100:114|45:106,1,161.999995056153,6|0,3:2|0:0,0:0:0:0:
22,99,18906,1,10,0:2:0:0:
233,368,19067,6,0,B|243:348|263:325|263:325|245:281|232:216,1,161.999995056153,4|0,3:0|0:0,0:0:0:0:
225,193,19390,1,4,0:3:0:0:
39,368,19551,6,0,P|14:312|132:266,1,215.999993408203,14|0,0:0|3:0,0:0:0:0:
314,362,20035,2,0,L|232:369,1,80.9999975280763,8|0,0:0|0:0,0:0:0:0:
292,160,20357,2,0,P|322:184|328:241,1,80.9999975280763,0|0,3:0|0:0,0:0:0:0:
235,233,20680,1,0,3:0:0:0:
424,9,20841,5,2,3:2:0:0:
429,34,20921,1,0,3:0:0:0:
434,59,21002,1,0,3:0:0:0:
439,84,21082,1,0,3:0:0:0:
444,109,21164,6,0,B|392:102|392:102|361:122|361:122|315:117,1,128.249996575356,6|0,3:2|0:0,0:0:0:0:
287,116,21486,2,0,P|266:73|283:29,1,85.4999977169037,10|0,0:0|0:0,0:0:0:0:
131,201,21809,1,2,3:2:0:0:
186,106,21970,1,0,0:0:0:0:
321,273,22131,2,0,L|226:291,1,85.4999977169037,10|0,0:0|0:0,0:0:0:0:
13,374,22454,2,0,P|51:337|30:238,1,128.249996575356,4|0,3:0|0:0,0:0:0:0:
31,235,22777,6,0,B|67:248|67:248|114:233,1,85.4999977169037,10|0,0:0|0:0,0:0:0:0:
274,137,23099,1,2,3:2:0:0:
198,256,23260,1,2,0:0:0:0:
148,58,23422,1,10,0:0:0:0:
68,160,23583,1,2,0:0:0:0:
268,51,23744,6,0,B|338:39|323:97|396:80,1,128.249996575356,4|0,3:0|0:0,0:0:0:0:
420,82,24067,2,0,B|439:47|439:47|416:-4,1,85.4999977169037,10|0,0:2|0:0,0:0:0:0:
272,137,24389,1,2,3:2:0:0:
356,237,24551,1,0,0:0:0:0:
167,150,24712,2,0,P|147:179|147:244,1,85.4999977169037,10|0,0:2|0:0,0:0:0:0:
295,372,25035,6,0,B|263:368|232:349|232:349|192:363|145:357,1,128.249996575356,4|0,3:0|0:0,0:0:0:0:
134,351,25357,1,4,3:0:0:0:
229,209,25518,1,8,0:0:0:0:
36,82,25680,5,2,3:2:0:0:
70,201,25841,1,2,0:2:0:0:
181,40,26002,2,0,L|165:-13,1,42.7499988584519,10|0,0:2|3:0,0:0:0:0:
240,170,26164,2,0,L|227:210,1,42.7499988584519,2|0,3:2|3:2,0:0:0:0:
374,72,26325,6,0,P|415:141|380:194,1,128.249996575356,4|0,3:2|0:0,0:0:0:0:
373,208,26648,2,0,L|473:193,1,85.4999977169037,10|0,0:2|0:0,0:0:0:0:
323,321,26970,2,0,P|276:338|223:306,1,85.4999977169037,2|0,3:2|3:0,0:0:0:0:
373,208,27293,1,10,0:2:0:0:
164,380,27454,6,0,B|152:352|134:330|134:330|158:284|175:223,1,170.999995433807,6|0,0:2|3:0,0:0:0:0:
174,225,27938,1,8,0:0:0:0:
120,38,28099,5,2,0:2:0:0:
233,129,28260,1,2,3:2:0:0:
101,187,28422,1,2,3:2:0:0:
215,28,28583,1,8,0:0:0:0:
321,226,28744,2,0,L|301:280,1,42.7499988584519,2|0,3:2|3:0,0:0:0:0:
341,138,28906,6,0,B|385:155|385:155|399:181|399:181|448:200,1,128.249996575356,4|0,0:2|0:0,0:0:0:0:
477,219,29228,1,0,3:0:0:0:
436,50,29389,1,0,3:0:0:0:
235,247,29551,5,0,3:0:0:0:
397,178,29712,1,0,3:0:0:0:
223,28,29873,1,0,3:0:0:0:
163,306,30035,1,0,3:0:0:0:
323,69,30196,5,4,3:2:0:0:
69,166,30357,1,0,3:0:0:0:
178,326,30518,5,10,3:2:0:0:
339,39,30841,5,10,0:2:0:0:
47,174,31164,5,10,0:2:0:0:
347,148,31486,5,10,0:2:0:0:
228,33,31648,1,0,3:0:0:0:
364,159,31809,2,0,L|444:151,1,76.5000014591217,2|8,0:2|0:0,0:0:0:0:
286,267,32131,1,2,0:2:0:0:
214,198,32292,1,2,0:2:0:0:
269,120,32454,1,2,3:2:0:0:
430,289,32615,6,0,B|465:249|465:249|436:138,1,153.000002918243,2|8,3:2|0:0,0:0:0:0:
243,384,33260,2,0,P|205:370|162:362,1,76.5000014591217,2|2,0:2|3:2,0:0:0:0:
65,235,33583,1,10,0:2:0:0:
8,328,33744,1,2,0:2:0:0:
167,262,33906,1,2,0:2:0:0:
29,97,34067,5,0,3:0:0:0:
70,253,34228,1,0,3:0:0:0:
20,74,34389,2,0,L|37:-1,1,76.5000014591217,2|8,0:2|0:0,0:0:0:0:
224,94,34712,1,2,0:2:0:0:
128,156,34873,1,2,0:2:0:0:
128,53,35035,1,2,3:2:0:0:
246,271,35196,6,0,B|201:295|201:295|226:181,1,153.000002918243,2|8,3:2|0:0,0:0:0:0:
407,36,35841,2,0,P|370:18|327:36,1,76.5000014591217,2|2,0:2|3:2,0:0:0:0:
303,189,36164,2,0,L|351:179,1,38.2500007295609,10|0,0:2|3:0,0:0:0:0:
466,279,36325,2,0,L|421:265,1,38.2500007295609,2|0,3:2|3:2,0:0:0:0:
322,367,36486,2,0,L|330:313,1,38.2500007295609,2|0,3:2|3:2,0:0:0:0:
178,127,36648,5,4,3:2:0:0:
243,298,36809,1,0,3:0:0:0:
27,257,36970,2,0,L|125:231,1,76.5000014591217,10|0,0:2|3:0,0:0:0:0:
133,230,37212,1,0,3:0:0:0:
133,230,37293,1,10,0:2:0:0:
83,363,37454,1,0,3:0:0:0:
21,151,37615,1,10,0:2:0:0:
243,298,37777,6,0,B|291:302|291:302|305:313|305:313|376:320,1,114.750002188683,4|0,3:2|0:0,0:0:0:0:
387,324,38099,1,0,3:0:0:0:
317,86,38260,6,0,L|297:177,1,76.5000014591217,10|0,0:2|3:0,0:0:0:0:
295,197,38502,1,0,3:0:0:0:
295,197,38583,5,6,0:3:0:0:
155,44,38744,1,0,3:0:0:0:
161,65,38824,1,0,3:0:0:0:
168,87,38905,5,6,0:3:0:0:
0,278,39067,1,0,3:0:0:0:
10,247,39147,1,0,3:0:0:0:
21,216,39228,6,0,L|9:142,1,67.5000025749208,6|0,0:2|0:0,0:0:0:0:
89,4,39551,2,0,L|78:70,1,67.5000025749208,0|0,3:0|0:0,0:0:0:0:
150,195,39873,2,0,B|180:198|180:198|190:206|190:206|228:212,1,67.5000025749208,2|0,3:2|0:0,0:0:0:0:
213,209,40115,1,2,3:2:0:0:
213,209,40196,1,0,3:0:0:0:
293,272,40357,1,2,3:2:0:0:
363,112,40518,6,0,P|334:130|295:130,1,67.5000025749208,2|0,3:2|0:0,0:0:0:0:
512,175,40841,2,0,P|483:157|444:157,1,67.5000025749208,0|0,3:0|0:0,0:0:0:0:
428,1,41164,2,0,P|446:30|446:69,1,67.5000025749208,0|0,3:0|0:0,0:0:0:0:
384,209,41486,1,2,3:2:0:0:
373,226,41809,6,0,L|297:235,1,67.5000025749208,6|0,3:2|0:0,0:0:0:0:
154,289,42131,2,0,L|221:300,1,67.5000025749208,0|0,3:0|0:0,0:0:0:0:
60,116,42454,2,0,P|99:128|121:160,1,67.5000025749208,2|0,3:2|0:0,0:0:0:0:
115,147,42696,1,2,3:2:0:0:
115,147,42777,1,0,3:0:0:0:
43,204,42938,1,2,3:2:0:0:
119,32,43099,6,0,P|168:19|224:44,1,114.750002188683,2|0,3:2|0:0,0:0:0:0:
227,82,43422,6,0,P|172:51|111:69,1,128.249996575356,2|0,3:2|0:0,0:0:0:0:
91,93,43744,6,0,L|100:140,6,24.7500007553101,2|0|0|0|0|0|0,3:2|0:0|0:0|0:0|3:0|0:0|3:0,0:0:0:0:
138,187,44067,6,0,P|118:237|28:209,1,148.50000453186,10|0,3:2|3:0,0:0:0:0:
225,161,44389,6,0,P|219:206|248:258,1,99.0000030212403,6|0,3:2|0:0,0:0:0:0:
371,334,44712,2,0,L|262:348,1,90,8|0,0:0|0:0,0:0:0:0:
421,189,45035,2,0,L|530:203,1,90,0|0,3:0|0:0,0:0:0:0:
321,83,45357,1,10,0:2:0:0:
262,218,45518,1,2,0:2:0:0:
158,6,45680,1,0,3:0:0:0:
300,95,45841,1,0,0:0:0:0:
69,159,46002,6,0,B|115:148|115:148|151:168|151:168|203:156,1,135,8|0,0:0|0:0,0:0:0:0:
231,150,46325,1,0,3:0:0:0:
61,63,46486,1,0,0:0:0:0:
134,291,46648,2,0,L|144:229,1,45,10|0,3:2|3:2,0:0:0:0:
223,105,46809,2,0,L|230:149,1,45,2|0,3:2|3:2,0:0:0:0:
325,248,46970,6,0,B|347:224|381:199|381:199|364:163|358:108,1,148.50000453186,6|0,3:2|0:0,0:0:0:0:
349,87,47293,1,0,3:0:0:0:
79,364,47454,6,0,B|105:313|170:319|170:319|190:351|244:351,1,161.999995056153,12|0,0:2|0:0,0:0:0:0:
251,351,47777,1,0,3:0:0:0:
162,45,47938,6,0,B|125:43|102:77|102:77|124:194,1,175.499991966248,6|0,3:2|0:0,0:0:0:0:
128,218,48260,1,0,3:0:0:0:
377,378,48422,6,0,B|415:360|404:322|415:304|415:304|396:301|372:265|330:291,1,175.499991966248,14|0,0:2|0:0,0:0:0:0:
258,356,48744,1,0,3:0:0:0:
258,356,48825,1,0,3:0:0:0:
258,356,48906,6,0,P|214:317|248:237,1,148.50000453186,2|0,3:2|0:0,0:0:0:0:
225,124,49228,6,0,P|268:162|234:242,1,148.50000453186,2|0,3:2|0:0,0:0:0:0:
240,238,49551,5,6,3:2:0:0:
111,106,49873,6,0,L|40:117,2,48,2|0|0,0:0|0:0|0:0,0:0:0:0:
166,40,50196,1,10,0:2:0:0:
301,199,50518,6,0,L|366:211,2,48,2|0|0,0:0|0:0|0:0,0:0:0:0:
246,133,50841,1,10,0:0:0:0:
429,15,51164,6,0,L|494:3,2,48,2|0|0,0:0|0:0|0:0,0:0:0:0:
374,81,51487,1,10,0:0:0:0:
488,336,51809,6,0,B|475:282|475:282|480:260|480:260|465:199,1,121.499996292114,4|0,3:0|3:2,0:0:0:0:
460,186,52131,5,6,3:2:0:0:
389,308,52293,1,6,3:0:0:0:
268,240,52454,1,6,3:0:0:0:
335,117,52615,1,6,3:0:0:0:
442,66,52777,5,4,3:0:0:0:
225,131,52939,1,6,3:0:0:0:
288,341,53100,1,6,3:0:0:0:
500,283,53261,1,4,3:0:0:0:
197,322,53422,5,8,3:2:0:0:
129,61,53583,1,8,3:2:0:0:
287,13,54067,5,10,0:2:0:0:
214,295,54228,1,8,0:0:0:0:
480,158,54712,6,0,B|394:114|403:194|318:145,1,161.999995056153,6|0,3:2|0:0,0:0:0:0:
271,98,55035,2,0,P|289:133|261:211,1,107.999996704102,10|2,0:2|3:2,0:0:0:0:
217,253,55277,1,0,3:0:0:0:
203,267,55357,1,0,3:0:0:0:
388,374,55518,1,0,3:0:0:0:
205,141,55680,2,0,L|78:163,1,107.999996704102,10|0,0:2|0:0,0:0:0:0:
299,376,56002,6,0,L|316:257,1,107.999996704102,6|0,3:2|3:0,0:0:0:0:
381,61,56325,1,10,0:2:0:0:
200,143,56486,1,2,3:2:0:0:
215,147,56566,1,0,3:0:0:0:
230,150,56647,1,0,3:0:0:0:
406,198,56809,1,0,3:0:0:0:
274,69,56970,1,10,0:2:0:0:
147,247,57131,1,2,0:2:0:0:
28,64,57293,6,0,B|64:45|86:4|86:4|123:31|172:29,1,161.999995056153,6|0,3:2|0:0,0:0:0:0:
234,5,57615,2,0,P|196:36|203:100,1,107.999996704102,8|2,0:0|3:2,0:0:0:0:
243,161,57857,1,0,3:0:0:0:
252,176,57937,1,2,3:2:0:0:
155,359,58099,1,0,3:0:0:0:
351,259,58260,1,8,0:0:0:0:
139,198,58422,1,2,3:2:0:0:
304,381,58583,6,0,L|414:361,1,107.999996704102,6|0,3:2|3:0,0:0:0:0:
225,276,58906,1,10,0:2:0:0:
381,136,59067,2,0,L|398:214,1,53.9999983520508,2|0,3:2|3:0,0:0:0:0:
324,74,59228,1,0,3:0:0:0:
258,193,59389,1,2,3:2:0:0:
406,33,59551,1,8,0:0:0:0:
464,251,59712,1,2,0:2:0:0:
187,35,59873,6,0,B|97:7|97:7|46:36|75:79,1,161.999995056153,6|0,3:2|0:0,0:0:0:0:
72,95,60196,1,10,0:2:0:0:
180,254,60357,1,2,3:2:0:0:
185,234,60437,1,0,3:0:0:0:
189,214,60518,1,0,3:0:0:0:
72,301,60680,1,0,3:0:0:0:
277,227,60841,2,0,L|259:119,1,107.999996704102,10|0,0:2|0:0,0:0:0:0:
336,338,61164,6,0,B|357:309|392:290|392:290|379:245|371:171,1,161.999995056153,6|0,3:2|0:0,0:0:0:0:
371,175,61486,1,10,0:2:0:0:
197,361,61648,1,0,3:0:0:0:
194,334,61728,1,0,3:0:0:0:
191,307,61809,1,0,3:0:0:0:
414,379,61970,1,0,3:0:0:0:
277,227,62131,2,0,L|290:168,1,53.9999983520508,10|0,0:2|3:0,0:0:0:0:
431,66,62293,2,0,L|417:13,1,53.9999983520508,0|0,3:0|3:0,0:0:0:0:
296,134,62454,6,0,B|240:148|183:104|228:69|166:22|114:44,1,215.999993408203,4|8,3:2|0:0,0:0:0:0:
109,140,62938,1,0,3:0:0:0:
113,161,63018,1,0,3:0:0:0:
118,182,63099,1,0,3:0:0:0:
290,40,63260,1,0,3:0:0:0:
111,274,63422,2,0,L|5:250,1,107.999996704102,10|0,0:2|0:0,0:0:0:0:
180,359,63744,5,6,3:2:0:0:
357,214,63906,1,0,3:0:0:0:
109,140,64067,1,8,0:0:0:0:
306,28,64228,1,0,3:0:0:0:
316,47,64308,1,0,3:0:0:0:
327,69,64389,6,0,L|311:142,1,53.9999983520508,0|0,3:0|3:0,0:0:0:0:
408,278,64551,1,0,3:0:0:0:
388,288,64631,1,0,3:0:0:0:
367,300,64712,6,0,L|294:284,1,53.9999983520508,8|0,0:0|3:0,0:0:0:0:
29,279,64873,1,0,3:0:0:0:
29,279,64954,1,0,3:0:0:0:
29,279,65035,6,0,B|71:273|102:241|64:218|99:179|143:180,1,161.999995056153,4|0,3:2|0:0,0:0:0:0:
190,249,65357,2,0,P|160:205|169:147,1,107.999996704102,10|0,0:2|0:0,0:0:0:0:
368,317,65680,2,0,P|345:364|290:385,1,107.999996704102,2|0,3:2|0:0,0:0:0:0:
259,179,66002,2,0,B|318:167|352:219|352:219|426:207,1,161.999995056153,10|0,0:2|0:0,0:0:0:0:
467,155,66325,6,0,P|490:189|475:261,1,107.999996704102,6|0,3:2|0:0,0:0:0:0:
334,107,66648,2,0,L|355:1,1,107.999996704102,10|0,0:2|0:0,0:0:0:0:
150,244,66970,2,0,L|170:350,1,107.999996704102,2|0,3:2|0:0,0:0:0:0:
250,83,67293,2,0,B|196:52|140:90|140:90|77:65,1,161.999995056153,10|0,0:2|0:0,0:0:0:0:
33,27,67615,6,0,B|79:14|86:64|86:64|55:143,1,161.999995056153,6|0,3:2|0:0,0:0:0:0:
0,201,67938,2,0,B|37:187|37:187|52:196|52:196|108:183,1,107.999996704102,8|0,0:0|0:0,0:0:0:0:
337,148,68260,1,2,3:2:0:0:
177,72,68422,1,0,0:0:0:0:
304,263,68583,2,0,B|356:276|383:235|383:235|345:249|307:236,1,161.999995056153,10|0,0:2|0:0,0:0:0:0:
217,181,68906,6,0,B|183:226|183:226|207:337,1,161.999995056153,4|0,3:2|0:0,0:0:0:0:
286,376,69228,2,0,P|257:332|190:339,1,107.999996704102,8|0,0:0|0:0,0:0:0:0:
459,177,69551,1,0,3:0:0:0:
359,312,69712,1,0,0:0:0:0:
474,156,69873,2,0,L|457:46,1,107.999996704102,10|0,0:2|3:0,0:0:0:0:
389,9,70115,1,0,3:0:0:0:
377,25,70196,6,0,B|398:193|398:193|345:126,1,251.999992309571,6|0,3:0|3:0,0:0:0:0:
255,9,70680,1,0,3:0:0:0:
87,270,70841,1,0,3:0:0:0:
83,243,70921,1,0,3:0:0:0:
79,216,71002,1,0,3:0:0:0:
75,189,71082,1,0,3:0:0:0:
71,162,71164,6,0,L|130:152,1,53.9999983520508,2|0,3:2|3:0,0:0:0:0:
272,247,71325,2,0,L|213:237,1,53.9999983520508,2|0,3:2|3:0,0:0:0:0:
172,67,71486,6,0,P|209:90|225:164,1,107.999996704102,4|0,3:2|0:0,0:0:0:0:
0,209,71808,1,10,0:2:0:0:
88,29,71970,1,0,3:0:0:0:
210,329,72131,1,10,0:2:0:0:
124,152,72293,1,0,3:0:0:0:
115,380,72454,6,0,B|101:357|77:337|77:337|103:295|121:227,1,161.999995056153,10|0,0:2|3:0,0:0:0:0:
192,187,72777,5,2,3:2:0:0:
233,179,72857,1,0,3:0:0:0:
272,196,72938,1,0,3:0:0:0:
301,229,73018,1,0,3:0:0:0:
328,270,73099,5,2,3:2:0:0:
364,305,73180,1,0,3:0:0:0:
411,323,73260,1,0,3:0:0:0:
462,317,73341,1,0,3:0:0:0:
501,283,73422,5,2,3:2:0:0:
512,244,73502,1,0,3:0:0:0:
498,206,73583,1,0,3:0:0:0:
462,187,73663,1,0,3:0:0:0:
425,195,73744,6,0,L|415:249,1,53.9999983520508,4|0,3:2|0:0,0:0:0:0:
266,384,73906,2,0,L|257:330,1,53.9999983520508,2|0,0:0|0:0,0:0:0:0:
126,87,74067,5,10,0:2:0:0:
259,228,74228,1,8,0:0:0:0:
94,376,74389,1,10,3:2:0:0:
156,300,74712,5,2,0:2:0:0:
117,221,74873,1,0,3:0:0:0:
117,221,74954,1,0,3:0:0:0:
117,221,75035,2,0,B|60:207|60:207|22:243|22:243|79:260,1,148.50000453186,10|0,0:2|0:0,0:0:0:0:
156,300,75357,5,10,0:2:0:0:
245,273,75519,1,2,0:2:0:0:
267,184,75680,1,10,0:2:0:0:
201,120,75841,2,0,P|189:83|209:43,1,80.9999975280763,2|10,3:2|0:2,0:0:0:0:
427,37,76164,5,2,3:2:0:0:
413,125,76325,1,10,0:2:0:0:
397,212,76486,2,0,P|427:234|479:221,1,80.9999975280763,2|10,3:2|0:2,0:0:0:0:
280,87,76809,5,2,0:2:0:0:
294,175,76970,1,10,0:2:0:0:
310,262,77131,2,0,P|280:284|228:271,1,80.9999975280763,2|10,3:2|0:2,0:0:0:0:
140,57,77454,5,2,3:2:0:0:
173,237,77615,1,10,0:2:0:0:
9,181,77777,1,2,3:2:0:0:
111,146,77938,5,8,0:2:0:0:
301,353,78260,5,10,0:2:0:0:
387,303,78422,2,0,L|473:314,1,80.9999975280763,2|8,3:2|0:2,0:0:0:0:
256,71,78744,5,2,3:2:0:0:
200,151,78906,1,10,0:2:0:0:
259,229,79067,2,0,L|346:214,1,80.9999975280763,2|8,3:2|0:2,0:0:0:0:
379,8,79389,5,2,0:2:0:0:
450,74,79551,1,10,0:2:0:0:
408,163,79712,1,0,3:2:0:0:
196,28,79873,2,0,P|119:29|98:97,1,135,10|0,0:2|0:0,0:0:0:0:
85,101,80196,6,0,L|91:139,6,22.5,2|0|0|0|2|0|0,3:2|0:0|3:0|0:0|3:2|0:0|3:0,0:0:0:0:
40,192,80518,5,4,3:0:0:0:
228,138,80680,1,2,3:2:0:0:
110,336,80841,1,10,0:2:0:0:
298,85,81002,2,0,B|331:93|344:128|344:128|323:163|309:222,1,148.50000453186,4|0,3:2|0:0,0:0:0:0:
299,240,81325,5,2,3:2:0:0:
384,366,81486,1,10,0:2:0:0:
197,244,81648,2,0,P|167:288|173:332,1,99.0000030212403,2|0,3:2|0:0,0:0:0:0:
442,247,81970,5,0,3:2:0:0:
255,152,82131,1,8,0:2:0:0:
460,29,82293,2,0,B|394:-21|327:10|327:10|369:10|400:48,1,198.000006042481,4|0,3:2|3:0,0:0:0:0:
358,138,82777,1,2,3:2:0:0:
358,138,82857,1,0,3:0:0:0:
358,138,82938,1,2,3:2:0:0:
206,43,83099,6,0,P|202:95|192:144,1,99.0000030212403,4|0,3:2|3:0,0:0:0:0:
154,281,83422,1,8,0:0:0:0:
352,134,83583,2,0,P|355:183|365:231,1,99.0000030212403,0|0,3:0|0:0,0:0:0:0:
395,340,83906,5,6,0:3:0:0:
270,205,84067,1,2,3:2:0:0:
428,98,84228,1,10,0:2:0:0:
428,98,84551,5,8,0:0:0:0:
264,305,84712,1,8,0:0:0:0:
206,43,84873,1,8,0:0:0:0:
431,260,85035,5,8,0:0:0:0:
