osu file format v14

[General]
AudioFilename: audio.mp3
AudioLeadIn: 0
PreviewTime: 60894
Countdown: 1
SampleSet: Normal
StackLeniency: 0.7
Mode: 0
LetterboxInBreaks: 0
WidescreenStoryboard: 0

[Editor]
DistanceSpacing: 1.5
BeatDivisor: 4
GridSize: 32
TimelineZoom: 2.4

[Metadata]
Title:Curtain Call!!!!!
TitleUnicode:かーてんこーる!!!!!
Artist:Hitotose
ArtistUnicode:劇団(ひととせ)
Creator:OskaRRRitoS
Version:Extra
Source:
Tags:
BeatmapID:1757816
BeatmapSetID:839729

[Difficulty]
HPDrainRate:5
CircleSize:4.2
OverallDifficulty:8
ApproachRate:9.3
SliderMultiplier:1.7
SliderTickRate:1

[Events]
//Background and Video events
0,0,"bg.jpg",0,0
//Break Periods
//Storyboard Layer 0 (Background)
//Storyboard Layer 1 (Fail)
//Storyboard Layer 2 (Pass)
//Storyboard Layer 3 (Foreground)
//Storyboard Sound Samples

[TimingPoints]
1520,202.702702702703,4,1,1,60,1,0
4763,-83.3333333333333,4,1,1,60,0,0
5776,-66.6666666666667,4,1,1,60,0,0
6384,-83.3333333333333,4,1,1,60,0,0
7398,-66.6666666666667,4,1,1,60,0,0
8006,-83.3333333333333,4,1,1,60,0,0
9020,-66.6666666666667,4,1,1,60,0,0
10033,-58.8235294117647,4,1,1,60,0,0
10438,-66.6666666666667,4,1,1,60,0,0
10641,-83.3333333333333,4,1,1,60,0,0
10844,-125,4,1,1,60,0,0
11249,-83.3333333333333,4,1,1,60,0,1
17736,292.682926829268,4,2,1,60,1,0
17736,-125,4,2,1,80,0,0
18614,-66.6666666666667,4,2,1,80,0,0
18760,-125,4,2,1,80,0,0
19638,-66.6666666666667,4,2,1,80,0,0
20077,-125,4,2,1,65,0,0
20662,-66.6666666666667,4,2,1,80,0,0
21101,-125,4,2,1,80,0,0
22418,-125,4,1,1,60,0,0
25931,-83.3333333333333,4,1,1,60,0,0
27101,-100,4,1,1,50,0,0
43492,-66.6666666666667,4,1,1,60,0,0
45833,292.682926829268,3,2,1,70,1,0
52857,292.682926829268,4,1,1,60,1,0
57539,-76.9230769230769,4,1,1,60,0,0
59881,202.702702702703,4,1,1,60,1,0
61502,201.242281879195,4,1,1,60,1,0
61502,-71.4285714285714,4,1,1,60,0,1
64721,-100,4,1,1,60,0,1
66331,-66.6666666666667,4,1,1,60,0,1
67941,-71.4285714285714,4,1,1,60,0,1
71161,-100,4,1,1,60,0,1
72771,-66.6666666666667,4,1,1,60,0,1
74381,-83.3333333333333,4,1,1,60,0,0
80016,-66.6666666666667,4,1,1,60,0,0
80217,-83.3333333333333,4,1,1,60,0,0
80418,-125,4,1,1,60,0,0
80821,-83.3333333333333,4,1,1,60,0,0
85651,-66.6666666666667,4,1,1,60,0,0
86053,-58.8235294117647,4,1,1,60,0,0
87261,-66.6666666666667,4,1,1,60,0,0
87663,-58.8235294117647,4,1,1,60,0,0
88468,-125,4,1,1,60,0,0

[Colours]
Combo1 : 240,250,120
Combo2 : 255,190,125
Combo3 : 132,86,254
Combo4 : 95,164,233

[HitObjects]
59,173,1520,6,0,P|48:212|59:256,1,85
133,213,1722,1,0,0:0:0:0:
206,169,1824,2,0,P|176:140|133:128,1,85,0|0,0:0|0:0,0:0:0:0:
133,213,2026,1,0,0:0:0:0:
135,298,2128,2,0,P|174:287|206:255,1,85,0|0,0:0|0:0,0:0:0:0:
306,126,2330,6,0,P|335:97|378:85,1,85,0|0,0:0|0:0,0:0:0:0:
376,169,2532,1,0,0:0:0:0:
375,255,2634,2,0,P|335:244|303:212,1,85,0|0,0:0|0:0,0:0:0:0:
376,169,2836,1,0,0:0:0:0:
451,129,2938,2,0,P|461:168|450:212,1,85,0|0,0:0|0:0,0:0:0:0:
406,344,3141,6,0,L|316:332,1,85,0|0,0:0|0:0,0:0:0:0:
165,238,3344,1,0,0:0:0:0:
107,318,3445,2,0,L|197:306,1,85,0|0,0:0|0:0,0:0:0:0:
317,175,3648,1,0,0:0:0:0:
375,255,3749,2,0,P|352:255|330:249,3,42.5,0|0|0|0,0:0|0:0|0:0|0:0,0:0:0:0:
321,332,3952,6,0,L|278:337,3,42.5,0|0|0|0,0:0|0:0|0:0|0:0,0:0:0:0:
242,266,4155,2,0,L|201:253,3,42.5,0|0|0|0,0:0|0:0|0:0|0:0,0:0:0:0:
198,172,4357,2,0,L|166:143,3,42.5,0|0|0|0,0:0|0:0|0:0|0:0,0:0:0:0:
197,69,4560,2,0,L|180:29,3,42.5,0|0|0|0,0:0|0:0|0:0|0:0,0:0:0:0:
267,104,4763,6,0,P|316:106|365:89,1,101.999996887207,0|0,0:0|0:0,0:0:0:0:
461,33,4965,2,0,L|473:135,1,101.999996887207,0|0,0:0|0:0,0:0:0:0:
512,252,5168,2,0,P|462:254|413:237,1,101.999996887207,0|0,0:0|0:0,0:0:0:0:
318,181,5370,2,0,L|305:283,1,101.999996887207,0|0,0:0|0:0,0:0:0:0:
188,352,5574,2,0,L|175:249,1,101.999996887207,0|0,0:0|0:0,0:0:0:0:
137,56,5776,6,0,B|77:78|77:78|46:134,1,127.500004863739,0|0,0:0|0:0,0:0:0:0:
235,197,5979,2,0,B|244:133|244:133|212:79,1,127.500004863739,0|0,0:0|0:0,0:0:0:0:
62,211,6182,2,0,B|111:251|111:251|175:250,1,127.500004863739,0|0,0:0|0:0,0:0:0:0:
318,181,6384,6,0,B|372:179|414:213,1,101.999996887207,0|0,0:0|0:0,0:0:0:0:
461,296,6587,2,0,L|449:185,1,101.999996887207,0|0,0:0|0:0,0:0:0:0:
373,53,6790,2,0,B|318:51|276:85,1,101.999996887207
230,168,6993,2,0,L|241:57,1,101.999996887207,0|0,0:0|0:0,0:0:0:0:
126,139,7195,2,0,L|136:240,1,101.999996887207,0|0,0:0|0:0,0:0:0:0:
312,300,7398,6,0,B|336:241|336:241|317:180,1,127.500004863739,0|0,0:0|0:0,0:0:0:0:
382,136,7601,2,0,B|420:186|420:186|483:200,1,127.500004863739,0|0,0:0|0:0,0:0:0:0:
487,277,7803,2,0,B|423:284|423:284|380:332,1,127.500004863739,0|0,0:0|0:0,0:0:0:0:
131,331,8006,6,0,B|89:284|27:277,1,101.999996887207,0|0,0:0|0:0,0:0:0:0:
201,366,8209,2,0,L|212:238,1,101.999996887207,0|0,0:0|0:0,0:0:0:0:
277,126,8411,2,0,B|319:79|381:72,1,101.999996887207,0|0,0:0|0:0,0:0:0:0:
207,161,8614,2,0,L|196:33,1,101.999996887207,0|0,0:0|0:0,0:0:0:0:
100,109,8817,2,0,L|91:210,1,101.999996887207,0|0,0:0|0:0,0:0:0:0:
199,310,9020,6,0,B|259:293|259:293|317:322,1,127.500004863739,0|0,0:0|0:0,0:0:0:0:
482,255,9222,2,0,B|421:238|421:238|363:267,1,127.500004863739,0|0,0:0|0:0,0:0:0:0:
237,221,9425,2,0,B|287:183|287:183|352:190,1,127.500004863739,0|0,0:0|0:0,0:0:0:0:
317,322,9628,5,0,0:0:0:0:
248,339,9729,1,0,0:0:0:0:
186,307,9830,2,0,B|120:272|49:291,1,127.500004863739,0|0,0:0|0:0,0:0:0:0:
166,161,10033,5,0,0:0:0:0:
245,141,10134,1,0,0:0:0:0:
316,178,10235,2,0,B|384:213|457:193,1,144.500002756119,0|0,0:0|0:0,0:0:0:0:
488,85,10438,6,0,L|478:232,1,127.500004863739,0|0,0:0|0:0,0:0:0:0:
433,277,10641,2,0,L|440:382,1,101.999996887207,0|0,0:0|0:0,0:0:0:0:
356,329,10844,6,0,L|313:318,3,34,0|0|0|0,0:0|0:0|0:0|0:0,0:0:0:0:
244,344,11047,2,0,L|211:352,3,34
211,269,11249,5,0,0:0:0:0:
209,179,11351,1,0,0:0:0:0:
124,153,11452,1,0,0:0:0:0:
73,227,11553,1,0,0:0:0:0:
126,297,11655,6,0,P|93:338|41:363,1,101.999996887207,0|0,0:0|0:0,0:0:0:0:
124,153,11857,2,0,P|156:111|208:86,1,101.999996887207,0|0,0:0|0:0,0:0:0:0:
303,145,12060,2,0,L|297:264,1,101.999996887207,0|0,0:0|0:0,0:0:0:0:
403,300,12263,1,0,0:0:0:0:
403,300,12364,2,0,L|397:198,2,101.999996887207,0|0|0,0:0|0:0|0:0,0:0:0:0:
292,348,12668,2,0,L|297:246,1,101.999996887207,0|0,0:0|0:0,0:0:0:0:
300,144,12871,5,0,0:0:0:0:
213,176,12972,1,0,0:0:0:0:
126,145,13074,1,0,0:0:0:0:
38,176,13175,1,0,0:0:0:0:
109,237,13276,1,0,0:0:0:0:
126,145,13378,1,0,0:0:0:0:
179,68,13479,1,0,0:0:0:0:
259,20,13580,1,0,0:0:0:0:
351,10,13682,5,0,0:0:0:0:
355,26,13783,1,0,0:0:0:0:
359,42,13884,1,0,0:0:0:0:
363,58,13985,1,0,0:0:0:0:
391,128,14087,5,0,0:0:0:0:
387,144,14188,1,0,0:0:0:0:
383,160,14289,1,0,0:0:0:0:
379,176,14390,1,0,0:0:0:0:
351,246,14492,6,0,P|400:264|451:251,2,101.999996887207,0|0|0,0:0|0:0|0:0,0:0:0:0:
279,197,14797,1,0,0:0:0:0:
207,251,14898,2,0,P|158:269|107:256,1,101.999996887207,0|0,0:0|0:0,0:0:0:0:
179,68,15101,2,0,P|228:50|279:63,1,101.999996887207,0|0,0:0|0:0,0:0:0:0:
359,144,15303,2,0,L|349:265,1,101.999996887207,0|0,0:0|0:0,0:0:0:0:
242,292,15506,1,0,0:0:0:0:
242,292,15607,2,0,L|233:190,2,101.999996887207,0|0|0,0:0|0:0|0:0,0:0:0:0:
341,346,15911,2,0,L|350:245,1,101.999996887207,0|0,0:0|0:0,0:0:0:0:
359,128,16114,5,0,0:0:0:0:
56,173,16317,1,0,0:0:0:0:
328,314,16520,1,0,0:0:0:0:
191,41,16722,1,0,0:0:0:0:
141,343,16925,1,0,0:0:0:0:
141,343,17026,1,0,0:0:0:0:
191,41,17229,6,0,P|245:105|257:22,1,203.999993774414,0|0,0:0|0:0,0:0:0:0:
316,88,17533,1,0,0:0:0:0:
396,109,17634,1,0,0:0:0:0:
474,81,17736,6,0,P|481:137|463:198,1,102,0|0,0:0|0:0,0:0:0:0:
456,213,18028,2,0,P|449:269|467:330,1,102,0|0,0:0|0:0,0:0:0:0:
473,342,18321,2,0,P|417:335|356:353,1,102,0|0,0:0|0:0,0:0:0:0:
292,312,18614,6,0,P|261:322|230:321,1,63.7500024318696,0|0,0:0|0:0,0:0:0:0:
198,304,18760,2,0,P|142:297|81:315,1,102,0|0,0:0|0:0,0:0:0:0:
63,321,19053,2,0,P|70:265|52:204,1,102,0|0,0:0|0:0,0:0:0:0:
46,187,19345,2,0,P|39:131|57:70,1,102,0|0,0:0|0:0,0:0:0:0:
109,23,19638,6,0,P|140:22|170:32,1,63.7500024318696,0|0,0:0|0:0,0:0:0:0:
250,57,19784,2,0,P|234:84|211:106,1,63.7500024318696,0|0,0:0|0:0,0:0:0:0:
150,162,19931,2,0,P|133:134|126:103,1,63.7500024318696,0|0,0:0|0:0,0:0:0:0:
300,133,20077,6,0,P|307:189|289:250,1,102,0|0,0:0|0:0,0:0:0:0:
317,269,20370,2,0,P|310:325|328:386,1,102,0|0,0:0|0:0,0:0:0:0:
458,352,20662,6,0,P|428:341|404:322,1,63.7500024318696,0|0,0:0|0:0,0:0:0:0:
317,269,20809,2,0,P|341:248|370:237,1,63.7500024318696,0|0,0:0|0:0,0:0:0:0:
460,188,20955,2,0,P|465:219|460:250,1,63.7500024318696,0|0,0:0|0:0,0:0:0:0:
319,368,21101,6,0,P|269:378|219:370,1,102,0|0,0:0|0:0,0:0:0:0:
190,347,21394,2,0,P|140:336|90:344,1,102,0|0,0:0|0:0,0:0:0:0:
55,315,21687,6,0,P|61:253|94:186,1,136,0|0,0:0|0:0,0:0:0:0:
117,164,22052,1,0,0:0:0:0:
148,150,22125,1,0,0:0:0:0:
181,146,22198,1,0,0:0:0:0:
215,153,22271,1,0,0:0:0:0:
244,169,22344,1,0,0:0:0:0:
268,193,22418,5,8,0:0:0:0:
329,287,22565,1,0,0:0:0:0:
362,130,22711,1,0,0:0:0:0:
425,225,22857,1,0,0:0:0:0:
268,193,23004,5,0,0:0:0:0:
243,314,23150,1,8,0:0:0:0:
147,168,23296,1,0,0:0:0:0:
122,289,23442,1,0,0:0:0:0:
328,322,23589,5,8,0:0:0:0:
355,184,23735,1,0,0:0:0:0:
465,349,23882,1,0,0:0:0:0:
492,212,24028,1,0,0:0:0:0:
328,322,24175,5,0,0:0:0:0:
268,193,24321,1,8,0:0:0:0:
199,378,24468,1,0,0:0:0:0:
142,252,24614,1,0,0:0:0:0:
243,314,24760,5,8,0:0:0:0:
270,67,24906,1,0,0:0:0:0:
243,314,25053,1,0,0:0:0:0:
120,96,25199,1,0,0:0:0:0:
344,201,25345,1,0,0:0:0:0:
100,251,25492,1,8,0:0:0:0:
270,67,25638,1,0,0:0:0:0:
243,314,25784,1,0,0:0:0:0:
213,149,25931,6,0,L|161:172,1,50.9999984436036,8|0,0:0|0:0,0:0:0:0:
190,142,26077,2,0,L|87:188,1,101.999996887207,8|0,0:0|0:0,0:0:0:0:
243,314,26370,6,0,B|280:274|330:295|330:295|292:259|294:205|314:169|348:145|392:139|427:152|455:182|468:222|460:257,1,407.999987548829,4|0,0:0|0:0,0:0:0:0:
161,360,27101,6,0,P|152:307|160:267,1,85,0|0,0:0|0:0,0:0:0:0:
229,88,27394,2,0,P|238:141|230:181,1,85,0|0,0:0|0:0,0:0:0:0:
90,227,27687,1,0,0:0:0:0:
277,255,27833,2,0,B|320:266|320:266|357:294,1,85,0|0,0:0|0:0,0:0:0:0:
435,335,28126,6,0,B|462:251|407:251|435:168,1,170
501,97,28565,2,0,P|456:74|412:73,1,85,0|0,0:0|0:0,0:0:0:0:
373,224,28857,2,0,P|415:196|438:158,1,85,0|0,0:0|0:0,0:0:0:0:
327,49,29150,1,0,0:0:0:0:
295,192,29296,2,0,L|274:286,1,85,0|0,0:0|0:0,0:0:0:0:
259,356,29589,5,0,0:0:0:0:
163,302,29735,1,0,0:0:0:0:
115,202,29882,1,0,0:0:0:0:
133,92,30028,5,0,0:0:0:0:
306,108,30175,1,0,0:0:0:0:
146,101,30321,1,0,0:0:0:0:
319,117,30468,1,0,0:0:0:0:
325,134,30760,5,0,0:0:0:0:
277,234,30907,1,0,0:0:0:0:
181,288,31053,1,0,0:0:0:0:
325,134,31199,6,0,P|368:149|402:180,1,85
277,234,31492,2,0,P|303:270|313:315,1,85
29,151,31784,6,0,P|71:118|110:106,1,85,0|0,0:0|0:0,0:0:0:0:
301,83,32077,2,0,P|258:115|219:127,1,85,0|0,0:0|0:0,0:0:0:0:
113,25,32370,1,0,0:0:0:0:
176,204,32516,2,0,B|186:247|186:247|179:292,1,85,0|0,0:0|0:0,0:0:0:0:
134,366,32809,6,0,B|218:393|218:338|301:366,1,170
436,348,33248,2,0,P|454:305|446:264,2,85
350,261,33687,2,0,P|379:199|486:178,1,170
371,143,34126,6,0,B|346:138|333:89|333:89|278:111|275:170,2,170
451,55,34857,1,0,0:0:0:0:
471,173,35004,2,0,L|479:229,2,42.5
370,22,35296,5,0,0:0:0:0:
355,240,35443,1,0,0:0:0:0:
254,55,35589,1,0,0:0:0:0:
477,215,35735,2,0,P|469:270|453:298,1,85
376,348,36028,1,0,0:0:0:0:
282,342,36175,2,0,P|247:318|223:284,1,85
268,84,36467,6,0,P|263:137|246:174,1,85,0|0,0:0|0:0,0:0:0:0:
134,329,36760,2,0,P|138:275|155:238,1,85,0|0,0:0|0:0,0:0:0:0:
303,227,37053,1,0,0:0:0:0:
127,155,37199,2,0,B|87:133|87:133|58:97,1,85,0|0,0:0|0:0,0:0:0:0:
17,23,37492,6,0,B|101:-4|101:51|184:23,1,170
383,118,37931,2,0,P|369:157|341:190,1,85
339,40,38223,2,0,P|380:31|423:39,1,85
281,129,38516,6,0,B|253:97|253:97|238:56,1,85
193,175,38809,2,0,B|183:230|135:255|135:255|155:304|222:317|268:285,1,255
355,193,39394,2,0,B|364:156|350:134|350:134|400:177|403:252,1,170
373,333,39833,6,0,L|369:375,1,42.5
221,318,39979,2,0,L|225:360,1,42.5
355,193,40126,1,0,0:0:0:0:
158,236,40272,1,0,0:0:0:0:
249,117,40418,1,0,0:0:0:0:
249,117,40711,6,0,L|244:165,1,42.5
443,141,40857,2,0,L|451:226,1,85
200,318,41150,6,0,P|151:296|122:267,1,85,0|0,0:0|0:0,0:0:0:0:
11,111,41443,2,0,P|60:132|90:160,1,85,0|0,0:0|0:0,0:0:0:0:
53,304,41736,1,0,0:0:0:0:
178,161,41882,2,0,B|211:130|211:130|255:114,1,85,0|0,0:0|0:0,0:0:0:0:
330,89,42175,6,0,B|347:174|293:168|309:254,1,170
415,329,42614,2,0,P|460:319|498:296,1,85
230,245,42906,2,0,L|182:240,1,42.5
385,218,43053,2,0,L|478:206,1,85
305,372,43345,5,0,0:0:0:0:
215,111,43492,2,0,P|164:95|92:106,1,127.500004863739
320,265,43784,2,0,P|370:248|421:196,1,127.500004863739
144,202,44077,2,0,P|113:245|101:316,1,127.500004863739
323,149,44370,2,0,P|322:96|289:31,1,127.500004863739
209,297,44662,2,0,P|240:339|305:372,2,127.500004863739
256,192,45101,12,0,45687,0:0:0:0:
202,147,45833,6,0,P|280:260|288:130,1,340
256,194,46711,1,0,0:0:0:0:
311,254,47003,2,0,P|363:265|400:254,1,85
481,336,47296,2,0,P|429:347|392:336,1,85
305,334,47589,6,0,P|285:344|264:359,3,42.5
197,301,47881,2,0,P|177:291|156:276,3,42.5
80,340,48174,1,0,0:0:0:0:
65,311,48247,1,0,0:0:0:0:
59,280,48320,1,0,0:0:0:0:
63,249,48393,1,0,0:0:0:0:
76,220,48467,6,0,P|81:198|84:172,3,42.5
168,133,48759,2,0,P|162:111|159:85,3,42.5
270,95,49052,1,0,0:0:0:0:
298,80,49125,1,0,0:0:0:0:
329,74,49198,1,0,0:0:0:0:
361,76,49271,1,0,0:0:0:0:
391,88,49345,6,0,B|421:213|296:184|330:323,1,255
432,282,49930,1,0,0:0:0:0:
59,270,50223,6,0,P|111:279|151:307,1,85
273,202,50515,2,0,P|221:211|181:239,1,85
70,194,50808,2,0,P|111:167|157:165,1,85
351,245,51101,5,0,0:0:0:0:
358,324,51247,2,0,L|262:361,1,85
442,246,51540,1,0,0:0:0:0:
449,325,51686,2,0,L|353:362,1,85
188,168,51979,5,0,0:0:0:0:
181,247,52125,2,0,L|277:284,1,85
97,169,52418,1,0,0:0:0:0:
90,248,52564,2,0,L|186:285,1,85
361,268,52857,6,0,P|351:225|323:186,1,85
286,101,53149,2,0,P|328:113|376:109,1,85
468,119,53442,2,0,P|435:149|415:192,1,85
471,277,53735,1,0,0:0:0:0:
328,191,53881,6,0,B|257:177|211:216|211:216|241:233|278:215,1,170
370,273,54320,2,0,P|379:321|376:362,1,85
163,364,54613,2,0,P|161:322|170:281,1,85
276,318,54905,1,0,0:0:0:0:
81,225,55052,1,0,0:0:0:0:
301,151,55198,6,0,B|339:151|372:194|372:194|455:123|426:76|381:82|376:133,1,255
462,201,55783,2,0,B|508:140|510:69|472:17|409:5|348:17|317:84,1,340
319,81,56954,2,0,P|373:110|418:112,1,85
221,112,57247,2,0,P|167:83|122:81,1,85
229,292,57539,5,0,0:0:0:0:
299,181,57686,1,0,0:0:0:0:
339,351,57832,1,0,0:0:0:0:
181,185,57978,1,0,0:0:0:0:
407,222,58125,1,0,0:0:0:0:
134,298,58271,1,0,0:0:0:0:
265,107,58417,1,0,0:0:0:0:
235,372,58564,1,0,0:0:0:0:
81,189,58710,5,0,0:0:0:0:
389,149,58856,1,0,0:0:0:0:
163,360,59003,1,0,0:0:0:0:
221,58,59149,1,0,0:0:0:0:
353,337,59296,2,0,P|409:355|465:348,1,110.499994941712
477,228,59588,2,0,P|421:210|365:217,1,110.499994941712
239,330,59881,5,0,0:0:0:0:
195,145,60083,1,0,0:0:0:0:
380,101,60286,1,0,0:0:0:0:
424,286,60489,1,0,0:0:0:0:
128,260,60691,5,0,0:0:0:0:
166,73,60893,1,0,0:0:0:0:
352,112,61096,1,0,0:0:0:0:
314,298,61299,1,0,0:0:0:0:
72,146,61502,6,0,P|151:142|196:155,1,118.999996368408
240,220,61703,2,0,P|319:224|364:211,1,118.999996368408
390,136,61904,2,0,P|353:65|320:33,1,118.999996368408
243,48,62105,2,0,P|200:114|188:159,1,118.999996368408
187,273,62306,6,0,B|190:315|210:353|210:353|156:371|92:354|56:313,1,237.999992736817
325,273,62608,2,0,B|322:315|302:353|302:353|356:371|420:354|456:313,1,237.999992736817
81,221,62910,2,0,P|149:262|194:273,1,118.999996368408
412,224,63111,6,0,P|344:178|299:167,1,118.999996368408
233,202,63312,2,0,P|162:163|130:129,1,118.999996368408
148,53,63514,2,0,P|213:10|259:0,1,118.999996368408
320,52,63715,2,0,P|321:130|307:174,1,118.999996368408
335,253,63916,5,0,0:0:0:0:
300,331,64017,1,0,0:0:0:0:
224,368,64118,1,0,0:0:0:0:
140,343,64218,2,0,B|103:298|105:237|105:237|70:213|46:171|50:118|75:81|105:55|155:48,1,356.999989105225
165,153,64621,1,0,0:0:0:0:
183,255,64721,6,0,L|278:228,1,85
470,230,64923,2,0,L|375:203,1,85
241,322,65124,2,0,L|336:295,1,85
456,142,65325,2,0,L|375:119,1,85
280,147,65526,5,0,0:0:0:0:
302,52,65627,1,0,0:0:0:0:
374,118,65728,1,0,0:0:0:0:
280,147,65828,2,0,B|235:116|180:130|180:130|147:90|94:89|94:89|71:100|65:132,1,255
131,315,66331,6,0,B|176:353|235:323|249:264|200:210|110:193|58:253,1,255.000009727478
381,69,66734,2,0,B|336:31|277:61|263:120|312:174|402:191|454:131,1,255.000009727478
94,65,67136,2,0,B|56:110|86:169|145:183|199:134|216:44|156:-8,1,255.000009727478
418,319,67539,2,0,B|456:274|426:215|367:201|313:250|296:340|356:392,1,255.000009727478
463,142,67941,6,0,P|409:125|346:126,1,118.999996368408
204,233,68142,2,0,P|257:249|320:248,1,118.999996368408
287,58,68344,2,0,P|270:111|271:174,1,118.999996368408
379,317,68545,2,0,P|395:263|394:200,1,118.999996368408
93,41,68746,6,0,B|47:48|38:94|38:94|62:133|111:117|111:117|131:148|127:189,1,237.999992736817
85,342,69048,2,0,B|131:335|140:289|140:289|116:250|67:266|67:266|47:235|50:193,1,237.999992736817
93,41,69350,2,0,P|153:40|210:57,1,118.999996368408
252,326,69551,6,0,P|235:272|236:209,1,118.999996368408
343,67,69752,2,0,P|359:120|358:183,1,118.999996368408
168,150,69954,2,0,P|221:133|284:134,1,118.999996368408
427,242,70155,2,0,P|373:258|310:257,1,118.999996368408
227,282,70356,5,0,0:0:0:0:
155,238,70457,1,0,0:0:0:0:
71,252,70558,1,0,0:0:0:0:
14,314,70658,2,0,B|61:356|123:340|157:301|156:239|156:239|153:167|111:96|254:40|288:146,1,475.999985473633
277,184,71161,6,0,B|436:155|436:155|449:203|504:230,1,255
474,259,71564,2,0,P|476:321|461:359,1,85
191,149,71765,2,0,P|188:211|203:249,1,85
261,286,71966,5,0,0:0:0:0:
274,201,72067,1,0,0:0:0:0:
195,232,72167,1,0,0:0:0:0:
261,286,72268,2,0,B|317:289|354:253|358:205|358:205|421:214|455:150,1,255
361,41,72771,6,0,B|321:-2|258:19|236:74|277:135|364:163|423:112,1,255.000009727478
99,96,73174,2,0,B|138:52|201:74|223:129|182:190|95:218|36:167,1,255.000009727478
436,270,73576,2,0,B|380:224|317:254|317:254|328:323|396:344,1,255.000009727478
68,295,73979,2,0,B|123:249|186:279|186:279|175:348|107:369,1,255.000009727478
262,200,74381,6,0,P|332:200|381:222,1,101.999996887207
436,270,74582,2,0,L|448:137,1,101.999996887207
374,48,74783,2,0,P|304:48|255:70,1,101.999996887207
200,118,74984,2,0,L|188:-15,1,101.999996887207
51,95,75186,2,0,P|31:157|207:208,2,305.999990661621
302,129,75991,6,0,P|376:139|408:120,1,101.999996887207
425,39,76192,2,0,L|437:140,1,101.999996887207
381,317,76393,2,0,P|307:327|275:308,1,101.999996887207
258,227,76594,2,0,L|245:328,1,101.999996887207
67,229,76796,2,0,P|47:167|223:116,2,305.999990661621
408,318,77601,6,0,P|465:301|528:311,1,101.999996887207
336,346,77802,2,0,L|326:225,1,101.999996887207
263,113,78003,2,0,P|206:96|143:106,1,101.999996887207
335,141,78204,2,0,L|345:20,1,101.999996887207
502,164,78406,2,0,P|483:300|347:278,2,305.999990661621
171,154,79211,5,0,0:0:0:0:
121,166,79311,1,0,0:0:0:0:
71,178,79412,2,0,L|63:291,1,101.999996887207
176,236,79613,5,0,0:0:0:0:
226,248,79713,1,0,0:0:0:0:
276,260,79814,2,0,L|283:373,1,101.999996887207
421,307,80016,6,0,P|409:235|376:183,1,127.500004863739
320,145,80217,2,0,P|291:87|288:41,1,101.999996887207
373,18,80418,6,0,L|411:22,3,34
435,92,80620,2,0,L|397:96,3,34
338,155,80821,6,0,P|291:168|211:160,1,101.999996887207
191,146,81022,1,0,0:0:0:0:
143,125,81123,2,0,P|93:123|44:137,3,101.999996887207
130,296,81626,6,0,P|177:309|257:301,1,101.999996887207
277,287,81827,1,0,0:0:0:0:
324,266,81928,2,0,P|374:264|423:277,3,101.999996887207
497,157,82431,6,0,P|468:101|415:72,1,101.999996887207
386,77,82632,2,0,P|275:82|196:21,1,203.999993774414
171,70,82934,2,0,L|178:179,1,101.999996887207
418,285,83236,6,0,P|447:223|349:285,1,305.999990661621
241,260,83638,2,0,P|233:238|224:276,1,101.999996887207
137,326,83839,2,0,P|115:316|137:349,1,101.999996887207
229,359,84041,6,0,P|242:312|234:232,1,101.999996887207
220,212,84242,1,0,0:0:0:0:
199,165,84343,2,0,P|197:114|210:65,3,101.999996887207
395,83,84846,6,0,P|408:130|400:210,1,101.999996887207
386,230,85047,1,0,0:0:0:0:
365,277,85148,2,0,P|363:327|376:376,3,101.999996887207
388,170,85651,5,0,0:0:0:0:
319,153,85751,1,0,0:0:0:0:
257,185,85852,2,0,B|191:220|120:201,1,127.500004863739
215,294,86053,5,0,0:0:0:0:
294,314,86154,1,0,0:0:0:0:
365,277,86254,2,0,B|433:242|506:262,1,144.500002756119
419,105,86456,5,4,0:0:0:0:
419,105,87261,5,0,0:0:0:0:
424,177,87361,1,0,0:0:0:0:
430,249,87462,2,0,P|376:281|285:271,1,127.500004863739
93,105,87663,5,0,0:0:0:0:
87,187,87763,1,0,0:0:0:0:
80,270,87864,2,0,P|142:306|246:295,1,144.500002756119
256,64,88065,5,0,0:0:0:0:
256,64,88468,6,0,P|278:107|274:58,1,136
