osu file format v14

[General]
AudioFilename: The Wolf That Fell in Love with Little Red Riding Hood.mp3
AudioLeadIn: 0
PreviewTime: 43817
Countdown: 0
SampleSet: Drum
StackLeniency: 0.6
Mode: 0
LetterboxInBreaks: 0
SkinPreference:Default
WidescreenStoryboard: 0

[Editor]
DistanceSpacing: 1.4
BeatDivisor: 4
GridSize: 8
TimelineZoom: 1.999999

[Metadata]
Title:Ookami wa Akazukin ni Koi o Shita
TitleUnicode:おおかみは赤ずきんに恋をした
Artist:Hitoshizuku x Yama
ArtistUnicode:ひとしずく×やま△
Creator:Yahuri
Version:Hard
Source:
Tags:the wolf fell love with little red riding hood kagamine rin len 鏡音リン 鏡音レン vocaloid world EndlessroLL japanese rock jrock naotoshi nao tomori nao_tomori
BeatmapID:752412
BeatmapSetID:340161

[Difficulty]
HPDrainRate:4
CircleSize:3.7
OverallDifficulty:5.5
ApproachRate:7
SliderMultiplier:1.5
SliderTickRate:1

[Events]
//Background and Video events
Video,0,"Kagamine_Rin_and_Len_-_The_Wolf_that_Fell_in_Love_with_Little_Red_Riding_Hood_English_Subtitles.mp4"
0,0,"Red.jpg",0,0
//Break Periods
2,145346,154246
//Storyboard Layer 0 (Background)
//Storyboard Layer 1 (Fail)
//Storyboard Layer 2 (Pass)
//Storyboard Layer 3 (Foreground)
//Storyboard Layer 4 (Overlay)
//Storyboard Sound Samples

[TimingPoints]
-1104,312.5,4,3,1,60,1,0
3896,-90.9090909090909,4,3,1,70,0,0
13896,-100,4,3,1,40,0,0
23896,-100,4,3,1,50,0,0
24989,-100,4,3,2,50,0,0
25458,-100,4,3,1,50,0,0
33896,-100,4,3,1,60,0,0
38896,-100,4,3,1,65,0,0
43896,-90.9090909090909,4,3,1,70,0,1
63896,-90.9090909090909,4,3,1,60,0,0
73583,-100,4,3,1,40,0,0
74052,-100,4,3,3,40,0,0
82646,-100,4,3,1,40,0,0
83896,-100,4,3,1,50,0,0
93896,-100,4,3,1,60,0,0
98896,-100,4,3,1,65,0,0
103896,-90.9090909090909,4,3,1,70,0,1
123896,-90.9090909090909,4,3,1,60,0,0
140458,-90.9090909090909,4,3,1,60,0,0
141396,-90.9090909090909,4,3,1,60,0,0
142802,-90.9090909090909,4,2,1,40,0,0
143271,-90.9090909090909,4,2,2,40,0,0
143427,-90.9090909090909,4,2,1,40,0,0
143739,-90.9090909090909,4,2,2,40,0,0
143896,-90.9090909090909,4,2,1,40,0,0
145146,-125,4,2,1,40,0,0
155146,-100,4,3,1,60,0,0
163896,-100,4,3,1,40,0,0
164833,-100,4,3,1,70,0,0
165146,-90.9090909090909,4,3,1,70,0,1
175067,-90.9090909090909,4,3,1,70,0,0
175146,-90.9090909090909,4,3,1,80,0,1
185146,-90.9090909090909,4,3,1,80,0,0
193896,-90.9090909090909,4,3,1,40,0,0
194208,-90.9090909090909,4,3,1,50,0,0
194521,-90.9090909090909,4,3,1,60,0,0
194833,-90.9090909090909,4,3,1,70,0,0
195146,-90.9090909090909,4,3,1,80,0,0
201396,-90.9090909090909,4,3,1,60,0,0
202021,-90.9090909090909,4,3,1,70,0,0
202646,-90.9090909090909,4,3,1,80,0,0
203739,-200,4,3,1,80,0,0
204521,-100,4,3,1,5,0,0

[Colours]
Combo1 : 85,85,85
Combo2 : 201,201,201
Combo3 : 247,177,157
Combo4 : 159,159,159
Combo5 : 239,205,192
Combo6 : 234,43,21
SliderBorder : 255,255,255

[HitObjects]
70,104,3896,70,0,P|63:177|100:263,1,165.000005035401,6|8,0:2|0:0,0:0:0:0:
169,300,4364,1,2,0:2:0:0:
184,293,4677,1,0,0:0:0:0:
255,202,4833,6,0,B|309:192|309:192|359:214|359:214|413:204,1,165.000005035401,6|0,0:2|0:0,0:0:0:0:
456,281,5302,1,0,0:0:0:0:
456,281,5458,2,0,L|374:295,1,82.5000025177003,10|0,0:2|0:0,0:0:0:0:
303,337,5771,2,0,L|225:308,1,82.5000025177003,2|8,0:2|0:0,0:0:0:0:
142,308,6083,2,0,L|88:244,1,82.5000025177003,2|8,0:2|0:0,0:0:0:0:
18,153,6396,70,0,P|99:158|174:125,1,165.000005035401,6|8,0:2|0:0,0:0:0:0:
215,55,6864,1,2,0:2:0:0:
230,61,7177,1,0,0:0:0:0:
282,163,7333,6,0,B|291:217|291:217|269:267|269:267|279:321,1,165.000005035401,6|0,0:2|0:0,0:0:0:0:
359,358,7802,1,0,0:0:0:0:
359,358,7958,2,0,L|440:343,1,82.5000025177003,10|0,0:2|0:0,0:0:0:0:
503,290,8271,2,0,P|503:248|489:210,1,82.5000025177003,2|8,0:2|0:0,0:0:0:0:
412,183,8583,2,0,P|411:224|425:262,1,82.5000025177003,2|8,0:2|0:0,0:0:0:0:
475,129,8896,70,0,P|393:134|318:101,1,165.000005035401,6|8,0:2|0:0,0:0:0:0:
272,33,9364,1,2,0:2:0:0:
256,37,9677,1,0,0:0:0:0:
214,144,9833,6,0,B|159:153|159:153|109:131|109:131|55:141,1,165.000005035401,6|0,0:2|0:0,0:0:0:0:
12,214,10302,1,0,0:0:0:0:
12,214,10458,2,0,P|-1:252|0:293,1,82.5000025177003,10|0,0:2|0:0,0:0:0:0:
78,265,10771,2,0,P|85:306|106:341,1,82.5000025177003,2|8,0:2|0:0,0:0:0:0:
160,278,11083,2,0,P|186:309|222:329,1,82.5000025177003,2|8,0:2|0:0,0:0:0:0:
259,219,11396,69,6,2:0:0:0:
392,324,11708,1,8,0:0:0:0:
392,324,11864,1,6,0:2:0:0:
440,168,12177,1,0,0:0:0:0:
440,168,12333,2,0,B|453:83|398:93|412:11,2,165.000005035401,14|0|8,0:2|0:0|0:0,0:0:0:0:
406,242,13114,1,0,0:0:0:0:
406,242,13271,2,0,L|390:331,1,82.5000025177003,4|8,0:0|0:0,0:0:0:0:
322,364,13583,21,8,0:0:0:0:
322,364,13739,1,8,0:0:0:0:
255,318,13896,2,0,P|182:299|108:305,1,150,2|8,0:2|0:0,0:0:0:0:
35,287,14364,2,0,L|41:212,1,75,0|0,2:0|0:0,0:0:0:0:
24,138,14677,1,8,0:0:0:0:
136,39,14989,22,0,B|208:24|204:66|282:51,1,150
332,109,15458,2,0,L|345:258,1,150,0|0,2:0|0:0,0:0:0:0:
354,333,15927,1,0,0:0:0:0:
285,303,16083,2,0,P|247:301|211:310,1,75,8|0,0:0|2:0,0:0:0:0:
158,364,16396,54,0,P|163:289|145:217,1,150,2|8,0:2|0:0,0:0:0:0:
109,151,16864,2,0,L|115:76,1,75,0|0,2:0|0:0,0:0:0:0:
94,4,17177,1,8,0:0:0:0:
0,121,17489,22,0,P|2:194|51:249,1,150
123,227,17958,2,0,B|195:212|191:254|269:239,1,150,0|0,2:0|0:0,0:0:0:0:
339,209,18427,1,0,0:0:0:0:
407,251,18583,1,8,0:0:0:0:
407,251,18739,1,8,0:0:0:0:
477,220,18896,54,0,P|482:145|464:73,1,150,2|8,0:2|0:0,0:0:0:0:
400,33,19364,2,0,L|325:26,1,75,0|0,2:0|0:0,0:0:0:0:
253,48,19677,1,8,0:0:0:0:
171,173,19989,22,0,P|242:155|308:186,1,150,0|0,0:3|0:3,0:3:0:0:
303,261,20458,2,0,P|231:278|165:247,1,150,0|0,2:3|0:3,0:3:0:0:
103,204,20927,1,0,0:0:0:0:
171,173,21083,2,0,P|180:136|177:99,1,75,8|0,0:0|2:0,0:0:0:0:
129,41,21396,54,0,L|278:54,1,150,2|8,0:2|0:0,0:0:0:0:
346,87,21864,2,0,L|352:161,1,75,0|0,2:0|0:0,0:0:0:0:
384,230,22177,2,0,L|377:304,1,75,8|0,0:0|2:0,0:0:0:0:
324,358,22489,22,0,B|251:343|255:385|177:370,1,150
114,329,22958,1,8,0:0:0:0:
41,356,23114,1,0,0:0:0:0:
41,356,23192,1,0,0:0:0:0:
41,356,23271,2,0,L|34:276,1,75
23,169,23583,6,0,P|60:178|97:175,1,75,12|0,0:2|2:0,0:0:0:0:
159,91,23896,2,0,B|135:133|135:133|144:234,1,150,6|8,0:2|0:0,0:0:0:0:
182,298,24364,2,0,L|256:291,1,75
323,255,24677,2,0,L|397:248,1,75,8|0,0:0|2:0,0:0:0:0:
441,181,24989,2,0,B|435:244|435:244|423:254|423:254|417:325,1,150,2|2,0:2|0:2,2:0:0:0:
343,111,25771,53,0,0:0:0:0:
275,143,25927,2,0,P|237:145|201:136,1,75,8|0,0:0|2:0,0:0:0:0:
140,93,26239,1,8,0:0:0:0:
44,137,26396,2,0,B|68:180|68:180|59:279,1,150,6|8,0:2|0:0,0:0:0:0:
70,354,26864,2,0,L|144:348,1,75
220,340,27177,1,8,0:0:0:0:
296,211,27489,22,0,P|278:140|309:74,1,150,0|0,0:0|0:0,0:3:0:0:
374,113,27958,2,0,L|368:187,1,75,8|0,0:0|0:0,0:0:0:0:
360,261,28271,1,0,0:0:0:0:
429,231,28427,2,0,P|466:229|502:238,1,75,8|0,0:0|2:0,0:0:0:0:
457,333,28739,53,8,0:0:0:0:
457,333,28817,1,8,0:0:0:0:
457,333,28896,2,0,B|414:357|414:357|313:347,1,150,6|8,0:2|0:0,0:0:0:0:
165,370,29521,1,0,0:0:0:0:
135,301,29677,2,0,P|133:264|142:228,1,75,8|0,0:0|2:0,0:0:0:0:
189,168,29989,22,0,P|260:186|326:155,1,150,0|0,0:0|0:0,0:3:0:0:
354,83,30458,1,8,0:0:0:0:
289,44,30614,2,0,L|214:50,1,75
157,100,30927,2,0,P|119:101|83:92,1,75,8|0,0:0|0:0,0:0:0:0:
36,34,31239,1,8,0:0:0:0:
23,138,31396,54,0,B|14:237|14:237|39:280,1,150,6|8,0:2|0:0,0:0:0:0:
112,325,31864,2,0,L|118:251,1,75
126,175,32177,1,8,0:0:0:0:
234,71,32489,22,0,P|305:53|371:84,1,150,0|0,0:0|0:0,0:3:0:0:
399,154,32958,2,0,L|393:228,1,75,8|0,0:0|0:0,0:0:0:0:
360,298,33271,1,8,0:0:0:0:
360,298,33427,1,8,0:0:0:0:
327,367,33583,38,0,L|286:363,3,37.5,8|8|8|8,0:0|0:0|0:0|0:0,0:0:0:0:
259,341,33896,2,0,B|187:321|191:373|113:353,1,150,6|10,0:1|0:1,0:0:0:0:
49,315,34364,1,0,2:0:0:0:
49,315,34521,2,0,L|56:241,1,75,2|0,2:1|0:0,0:0:0:0:
97,178,34833,1,2,2:1:0:0:
56,115,34989,2,0,L|48:26,2,75,8|2|0,0:0|2:1|0:0,0:0:0:0:
131,111,35458,6,0,B|230:102|230:102|273:127,1,150,10|2,0:1|0:1,0:0:0:0:
322,185,35927,1,8,0:0:0:0:
389,152,36083,2,0,P|426:150|462:159,1,75,2|8,2:1|0:0,0:0:0:0:
436,261,36396,6,0,B|364:241|368:293|290:273,1,150,6|10,0:1|0:1,0:0:0:0:
222,243,36864,1,0,2:0:0:0:
222,243,37021,2,0,L|148:250,1,75,2|0,2:1|0:0,0:0:0:0:
81,214,37333,1,2,2:1:0:0:
24,263,37489,2,0,L|16:352,2,75,8|2|0,0:0|2:1|0:0,0:0:0:0:
9,189,37958,6,0,B|0:90|0:90|25:47,1,150,10|4,0:1|0:0,0:0:0:0:
96,23,38427,1,4,0:0:0:0:
169,34,38583,1,4,0:0:0:0:
229,78,38739,1,4,0:0:0:0:
263,146,38896,38,0,B|364:204|373:104|477:164,1,225,4|0,0:2|0:0,0:0:0:0:
415,249,39521,2,0,P|437:308|486:267,1,150,12|0,0:2|2:0,0:0:0:0:
477,164,39989,5,0,0:0:0:0:
477,164,40146,2,0,P|407:144|341:176,1,150,6|0,0:2|0:0,0:0:0:0:
268,254,40614,1,0,0:0:0:0:
267,255,40771,2,0,P|196:273|129:242,1,150,12|0,0:2|0:0,0:0:0:0:
173,149,41239,5,0,0:0:0:0:
173,149,41396,2,0,P|210:146|245:155,1,75,8|0,0:0|0:0,0:0:0:0:
294,93,41708,2,0,P|314:124|323:160,1,75,4|0,0:0|0:0,0:0:0:0:
404,169,42021,2,0,P|386:202|361:229,1,75,8|8,0:0|0:0,0:0:0:0:
391,303,42333,2,0,P|353:305|317:296,1,75,0|4,0:0|0:0,0:0:0:0:
267,358,42646,2,0,P|245:325|235:290,1,75,4|0,0:0|0:0,0:0:0:0:
158,281,42958,2,0,P|175:247|201:221,1,75,0|4,0:0|0:0,0:0:0:0:
246,156,43271,2,0,P|226:98|214:148,1,150,8|0,0:0|2:0,0:3:0:0:
407,291,43896,22,0,B|416:236|416:236|396:185|396:185|407:126,1,165.000005035401,6|8,3:2|3:0,3:0:0:0:
470,79,44364,2,0,P|388:83|308:48,1,165.000005035401,0|0,2:0|0:0,0:0:0:0:
246,12,44833,1,8,0:0:0:0:
246,12,44989,1,0,2:0:0:0:
243,94,45146,6,0,P|259:131|256:172,2,82.5000025177003,0|0|8,0:0|0:0|0:0,0:0:0:0:
167,63,45614,2,0,L|86:49,1,82.5000025177003,0|0,2:0|0:0,0:0:0:0:
179,146,45927,2,0,L|97:131,1,82.5000025177003,8|0,0:0|2:0,0:0:0:0:
190,228,46239,1,8,0:0:0:0:
131,286,46396,70,0,P|115:323|118:364,2,82.5000025177003,0|0|8,0:0|0:0|0:0,0:0:0:0:
196,337,46864,2,0,B|303:355|303:355|351:327,1,165.000005035401,0|0,2:3|0:0,0:0:0:0:
423,284,47333,1,8,0:0:0:0:
423,284,47489,1,0,2:0:0:0:
349,245,47646,6,0,B|340:190|340:190|360:139|360:139|349:80,1,165.000005035401,0|8,0:0|3:0,3:0:0:0:
412,31,48114,1,0,3:0:0:0:
489,61,48271,2,0,L|503:142,1,82.5000025177003,0|0,2:0|0:0,0:0:0:0:
447,202,48583,1,10,0:2:0:0:
447,202,48739,1,8,0:0:0:0:
470,316,48896,70,0,P|432:299|391:303,2,82.5000025177003,6|0|8,0:2|0:0|0:0,0:0:0:0:
419,380,49364,2,0,P|341:367|310:294,1,165.000005035401,0|0,2:0|0:0,0:0:0:0:
357,227,49833,1,8,0:0:0:0:
357,227,49989,1,0,2:0:0:0:
330,139,50146,6,0,L|411:153,2,82.5000025177003,0|0|8,0:0|0:0|0:0,0:0:0:0:
303,51,50614,1,0,0:0:0:0:
288,43,50927,70,0,L|207:57,1,82.5000025177003,12|0,0:2|0:0,0:0:0:0:
95,27,51239,1,12,0:2:0:0:
19,114,51396,6,0,B|1:221|1:221|29:269,1,165.000005035401,6|8,0:2|0:0,0:0:0:0:
83,207,51864,2,0,L|97:126,2,82.5000025177003,0|8|0,0:0|0:0|0:0,0:0:0:0:
110,285,52333,2,0,L|191:271,1,82.5000025177003,0|8,0:0|0:0,0:0:0:0:
272,285,52646,2,0,L|312:277,3,41.2500012588501,12|0|0|0,0:0|0:0|0:0|0:0,0:0:0:0:
352,287,52958,2,0,L|392:279,3,41.2500012588501,4|0|0|0,0:0|0:0|0:0|0:0,0:0:0:0:
432,289,53271,2,0,P|463:213|459:131,1,165.000005035401,4|0,0:0|2:0,0:0:0:0:
390,53,53739,69,0,0:0:0:0:
390,53,53817,1,0,0:0:0:0:
390,53,53896,2,0,B|335:62|335:62|284:42|284:42|225:53,1,165.000005035401,6|8,0:2|0:0,0:0:0:0:
148,47,54364,2,0,B|41:66|41:66|5:109,1,165.000005035401,0|0,2:3|0:0,0:0:0:0:
29,194,54833,1,8,0:0:0:0:
29,194,54989,1,0,2:0:0:0:
111,184,55146,6,0,P|148:168|189:171,2,82.5000025177003,0|0|8,0:0|0:0|0:0,0:0:0:0:
80,260,55614,2,0,L|66:341,1,82.5000025177003,0|0,2:0|0:0,0:0:0:0:
163,248,55927,2,0,L|148:330,1,82.5000025177003,8|0,0:0|2:0,0:0:0:0:
245,237,56239,1,8,0:0:0:0:
299,300,56396,70,0,P|377:287|408:214,1,165.000005035401,0|8,0:0|0:0,0:0:0:0:
355,152,56864,2,0,P|276:165|245:237,1,165.000005035401,0|0,2:0|0:0,0:0:0:0:
218,318,57333,1,8,0:0:0:0:
218,318,57489,1,0,2:0:0:0:
165,253,57646,6,0,B|110:242|110:242|69:206|69:206|9:196,1,165.000005035401,0|8,0:0|3:0,0:0:0:0:
1,116,58114,1,0,0:0:0:0:
45,45,58271,2,0,L|126:59,1,82.5000025177003,0|0,2:0|0:0,0:0:0:0:
202,90,58583,2,0,L|242:82,3,41.2500012588501,8|8|8|8,0:0|0:0|0:0|0:0,0:0:0:0:
281,97,58896,70,0,P|312:173|308:255,1,165.000005035401,6|8,0:2|0:0,0:0:0:0:
277,331,59364,2,0,B|313:288|313:288|420:269,1,165.000005035401,0|0,2:3|0:0,0:0:0:0:
497,310,59833,1,8,0:0:0:0:
497,310,59989,1,0,2:0:0:0:
501,227,60146,6,0,B|490:172|490:172|454:131|454:131|444:71,1,165.000005035401,0|8,0:0|0:0,0:0:0:0:
370,42,60614,1,0,0:0:0:0:
355,49,60927,70,0,L|341:130,1,82.5000025177003,12|0,0:2|0:0,0:0:0:0:
260,213,61239,1,12,0:2:0:0:
301,321,61396,6,0,P|246:263|168:278,1,165.000005035401,6|8,0:2|0:0,0:0:0:0:
118,344,61864,2,0,P|121:262|90:186,1,165.000005035401,0|0,2:0|0:0,0:0:0:0:
41,126,62333,1,8,0:0:0:0:
41,126,62489,1,0,2:0:0:0:
92,62,62646,69,4,0:0:0:0:
92,62,62802,2,0,P|54:45|14:48,2,82.5000025177003,8|8|8,0:0|0:0|0:0,0:0:0:0:
142,126,63270,1,4,0:0:0:0:
217,158,63426,1,4,0:0:0:0:
298,150,63582,1,4,0:0:0:0:
365,103,63739,1,4,0:0:0:0:
400,29,63896,38,0,B|394:67|415:98|415:98|410:118|410:118|431:149|426:186,1,165.000005035401,6|0,0:2|2:0,0:0:0:0:
405,268,64364,1,0,0:2:0:0:
405,268,64521,2,0,B|363:260|363:260|325:274,1,82.5000025177003,8|0,0:0|2:0,0:0:0:0:
271,336,64833,6,0,B|276:253|276:253|243:178,1,165.000005035401,0|0,2:0|2:0,0:0:0:0:
165,208,65302,2,0,B|159:290|159:290|192:365,1,165.000005035401
271,336,65771,2,0,L|351:350,1,82.5000025177003,8|0,0:0|0:0,0:0:0:0:
429,320,66083,2,0,L|509:334,1,82.5000025177003,0|0,2:0|0:0,0:0:0:0:
445,224,66396,6,0,B|406:218|375:239|375:239|355:234|355:234|324:255|287:250,1,165.000005035401,6|0,0:2|2:0,0:0:0:0:
216,219,66864,1,0,0:2:0:0:
216,219,67021,2,0,B|208:177|208:177|222:139,1,82.5000025177003,8|0,0:0|2:0,0:0:0:0:
273,75,67333,2,0,P|235:58|195:61,1,82.5000025177003,2|8,2:0|0:0,0:0:0:0:
115,85,67646,38,0,L|60:75,2,55.0000016784668,4|8|8,0:0|0:0|0:0,0:0:0:0:
80,127,67958,2,0,L|25:117,2,55.0000016784668,10|10|10,0:2|0:2|0:2,0:0:0:0:
99,179,68271,2,0,L|44:169,2,55.0000016784668,6|4|4,0:0|0:0|0:0,0:0:0:0:
64,221,68583,2,0,L|9:211,2,55.0000016784668,6|0|0,0:0|0:0|0:0,0:0:0:0:
83,273,68896,6,0,B|121:278|152:257|152:257|172:262|172:262|203:241|240:246,1,165.000005035401,6|0,0:2|2:0,0:0:0:0:
324,267,69364,1,0,0:2:0:0:
324,267,69521,2,0,B|320:308|320:308|337:345,1,82.5000025177003,8|0,0:0|2:0,0:0:0:0:
416,371,69833,6,0,B|421:288|421:288|388:213,1,165.000005035401,0|12,2:0|0:2,0:0:0:0:
317,179,70302,1,0,2:0:0:0:
317,179,70458,2,0,L|237:193,1,82.5000025177003,4|0,0:2|0:0,0:0:0:0:
185,127,70771,2,0,P|188:86|171:48,1,82.5000025177003,2|0,2:0|0:0,0:0:0:0:
91,63,71083,2,0,P|88:104|104:141,1,82.5000025177003,10|0,2:0|0:0,0:0:0:0:
158,210,71396,5,8,0:0:0:0:
158,210,71552,1,4,0:0:0:0:
48,333,71864,1,8,0:2:0:0:
48,333,72020,1,4,0:0:0:0:
12,126,72333,1,8,0:2:0:0:
12,126,72489,2,0,B|71:176|184:170|241:34|191:-44|112:-42|38:-18|18:73|117:182|226:148|265:80,1,577.500017623902,4|0,0:0|2:0,0:0:0:0:
274,65,73896,38,0,P|347:84|421:78,1,150,2|8,0:0|0:0,0:0:0:0:
481,122,74364,2,0,L|475:197,1,75,0|0,2:0|0:0,0:0:0:0:
502,267,74677,1,8,0:0:0:0:
374,345,74989,22,0,B|302:330|306:372|228:357,1,150
161,320,75458,2,0,L|174:171,1,150,0|0,2:0|0:0,0:0:0:0:
179,95,75927,1,0,0:0:0:0:
112,128,76083,2,0,P|74:130|38:121,1,75,8|0,0:0|2:0,0:0:0:0:
11,50,76396,54,0,P|86:45|158:63,1,150,2|8,0:0|0:0,0:0:0:0:
224,99,76864,2,0,L|299:93,1,75,0|0,2:0|0:0,0:0:0:0:
357,45,77177,1,8,0:0:0:0:
470,142,77489,22,0,P|396:145|341:194,1,150
371,264,77958,2,0,P|444:261|499:212,1,150,0|0,2:0|0:0,0:0:0:0:
470,142,78427,1,0,0:0:0:0:
507,76,78583,1,8,0:0:0:0:
507,76,78739,1,8,0:0:0:0:
476,2,78896,54,0,B|407:29|404:-12|330:15,1,150,2|8,0:0|0:0,0:0:0:0:
262,50,79364,2,0,L|269:125,1,75,0|0,2:0|0:0,0:0:0:0:
248,197,79677,1,8,0:0:0:0:
304,335,79989,22,0,P|232:353|166:322,1,150
59,241,80614,2,0,L|52:166,1,75,0|0,2:0|0:0,0:0:0:0:
45,91,80927,1,0,0:0:0:0:
113,123,81083,2,0,P|150:125|186:116,1,75,8|0,0:0|2:0,0:0:0:0:
248,73,81396,54,0,L|397:86,1,150,2|8,0:0|0:0,0:0:0:0:
465,117,81864,2,0,L|471:191,1,75,0|0,2:0|0:0,0:0:0:0:
451,267,82177,1,8,0:0:0:0:
451,267,82333,1,8,0:0:0:0:
482,335,82489,22,0,P|415:303|344:322,1,150,8|0,0:0|0:0,0:0:0:0:
283,365,82958,1,8,0:0:0:0:
276,290,83114,1,0,0:0:0:0:
276,290,83192,1,0,0:0:0:0:
276,290,83271,2,0,L|269:210,1,75
298,114,83583,6,0,P|260:111|224:120,1,75,12|0,0:2|2:0,0:0:0:0:
162,205,83896,2,0,B|186:163|186:163|177:62,1,150,6|8,0:2|0:0,0:0:0:0:
110,28,84364,2,0,L|36:21,1,75
31,96,84677,2,0,L|105:103,1,75,8|0,0:0|2:0,0:0:0:0:
177,62,84989,2,0,P|248:44|314:75,1,150,0|0,0:0|0:0,0:3:0:0:
378,291,85771,53,0,0:0:0:0:
310,259,85927,2,0,P|272:257|236:266,1,75,8|0,0:0|2:0,0:0:0:0:
175,309,86239,1,8,0:0:0:0:
192,205,86396,2,0,B|201:104|201:104|177:61,1,150,6|8,0:2|0:0,0:0:0:0:
125,6,86864,2,0,L|51:12,1,75
8,76,87177,1,8,0:0:0:0:
55,219,87489,22,0,P|121:187|192:205,1,150,0|0,0:0|0:0,0:3:0:0:
248,255,87958,2,0,L|322:261,1,75,8|0,0:0|0:0,0:0:0:0:
396,269,88271,1,0,0:0:0:0:
366,200,88427,2,0,P|364:163|373:127,1,75,8|0,0:0|2:0,0:0:0:0:
460,64,88739,53,8,0:0:0:0:
460,64,88817,1,8,0:0:0:0:
460,64,88896,2,0,B|417:88|417:88|316:78,1,150,6|8,0:2|0:0,0:0:0:0:
170,42,89521,1,0,0:0:0:0:
140,111,89677,2,0,P|138:148|147:184,1,75,8|0,0:0|2:0,0:0:0:0:
194,244,89989,22,0,P|265:226|331:257,1,150,0|0,0:0|0:0,0:3:0:0:
359,329,90458,1,8,0:0:0:0:
406,270,90614,2,0,L|481:264,1,75
511,195,90927,2,0,P|512:157|503:121,1,75,8|0,0:0|0:0,0:0:0:0:
461,59,91239,1,8,0:0:0:0:
386,133,91396,54,0,B|287:142|287:142|244:117,1,150,6|8,0:2|0:0,0:0:0:0:
171,74,91864,2,0,L|165:148,1,75
156,224,92177,1,8,0:0:0:0:
17,167,92489,22,0,P|0:239|30:305,1,150,0|0,0:0|0:0,0:3:0:0:
100,333,92958,2,0,L|174:327,1,75,8|0,0:0|0:0,0:0:0:0:
244,294,93271,1,8,0:0:0:0:
244,294,93427,1,8,0:0:0:0:
317,310,93583,38,0,L|354:306,3,37.5,8|8|8|8,0:0|0:0|0:0|0:0,0:0:0:0:
382,280,93896,2,0,B|362:208|414:212|394:134,1,150,6|10,0:1|0:1,0:0:0:0:
333,91,94364,1,0,2:0:0:0:
333,91,94521,2,0,L|259:84,1,75,2|0,2:1|0:0,0:0:0:0:
189,113,94833,1,2,2:1:0:0:
248,159,94989,2,0,L|323:166,2,75,8|2|0,0:0|2:1|0:0,0:0:0:0:
179,188,95458,6,0,B|188:287|188:287|163:330,1,150,10|2,0:1|0:1,0:0:0:0:
91,356,95927,1,8,0:0:0:0:
21,330,96083,2,0,P|11:293|13:256,1,75,2|8,2:1|0:0,0:0:0:0:
39,154,96396,6,0,B|111:174|107:122|185:142,1,150,6|10,0:1|0:1,0:0:0:0:
220,214,96864,1,0,2:0:0:0:
220,214,97021,2,0,L|227:288,1,75,2|0,2:1|0:0,0:0:0:0:
269,352,97333,1,2,2:1:0:0:
302,284,97489,2,0,L|295:209,2,75,8|2|0,0:0|2:1|0:0,0:0:0:0:
344,347,97958,6,0,B|443:356|443:356|486:331,1,150,10|4,0:1|0:0,0:0:0:0:
510,260,98427,1,4,0:0:0:0:
499,187,98583,1,4,0:0:0:0:
455,127,98739,1,4,0:0:0:0:
387,93,98896,38,0,B|286:151|277:51|173:111,1,225,4|0,0:2|0:0,0:0:0:0:
86,172,99521,2,0,P|26:149|67:100,1,150,12|0,0:2|2:0,0:0:0:0:
172,111,99989,5,0,0:0:0:0:
172,111,100146,2,0,P|192:181|160:247,1,150,6|0,0:2|0:0,0:0:0:0:
84,320,100614,1,0,0:0:0:0:
84,320,100771,2,0,P|150:351|221:332,1,150,12|0,0:2|0:0,0:0:0:0:
313,278,101239,5,0,0:0:0:0:
313,278,101396,2,0,P|276:287|239:284,1,75,8|0,0:0|0:0,0:0:0:0:
390,272,101708,2,0,P|381:308|360:339,1,75,4|0,0:0|0:0,0:0:0:0:
428,204,102021,2,0,P|453:231|471:264,1,75,8|8,0:0|0:0,0:0:0:0:
384,137,102333,2,0,P|420:128|457:130,1,75,0|4,0:0|0:0,0:0:0:0:
302,142,102646,2,0,P|312:106|333:75,1,75,4|0,0:0|0:0,0:0:0:0:
268,212,102958,2,0,P|241:185|225:152,1,75,0|4,0:0|0:0,0:0:0:0:
313,278,103271,2,0,P|314:335|276:291,1,150,8|0,0:0|2:0,0:3:0:0:
90,152,103896,22,0,P|107:114|103:73,2,82.5000025177003,6|0|8,0:2|0:0|0:0,0:0:0:0:
30,208,104364,2,0,B|85:199|85:199|136:219|136:219|189:209,1,165.000005035401,0|0,2:0|3:0,0:0:0:0:
254,156,104833,1,8,0:0:0:0:
254,156,104989,1,0,2:0:0:0:
304,90,105146,6,0,P|267:74|226:77,2,82.5000025177003,0|0|8,0:0|0:0|0:0,0:0:0:0:
335,166,105614,2,0,L|349:247,1,82.5000025177003,0|0,2:0|0:0,0:0:0:0:
418,154,105927,2,0,L|403:72,1,82.5000025177003,8|0,0:0|2:0,0:0:0:0:
500,143,106239,1,8,0:0:0:0:
468,220,106396,70,0,P|464:260|480:298,2,82.5000025177003,0|0|8,0:0|0:0|0:0,0:0:0:0:
418,154,106864,2,0,B|311:136|311:136|263:164,1,165.000005035401,0|0,2:3|0:0,0:0:0:0:
191,207,107333,1,8,0:0:0:0:
191,207,107489,1,0,2:0:0:0:
114,174,107646,6,0,P|121:253|192:290,1,165.000005035401,0|8,0:0|0:0,0:0:0:0:
263,247,108114,1,0,0:0:0:0:
334,290,108271,2,0,L|415:276,1,82.5000025177003,0|0,2:0|0:0,0:0:0:0:
487,325,108583,1,10,0:2:0:0:
487,325,108739,1,8,0:0:0:0:
466,211,108896,70,0,P|428:194|387:198,2,82.5000025177003,6|0|8,0:2|0:0|0:0,0:0:0:0:
415,276,109364,2,0,B|361:284|361:284|320:321|320:321|265:331,1,165.000005035401,0|0,2:0|3:0,0:0:0:0:
191,306,109833,1,8,0:0:0:0:
191,306,109989,1,0,2:0:0:0:
113,250,110146,6,0,L|99:331,2,82.5000025177003,0|0|8,0:0|0:0|0:0,0:0:0:0:
91,170,110614,1,0,0:0:0:0:
100,156,110927,70,0,L|181:142,1,82.5000025177003,12|0,0:2|0:0,0:0:0:0:
270,68,111239,1,12,0:2:0:0:
250,182,111396,6,0,B|232:289|232:289|260:337,1,165.000005035401,6|8,0:2|0:0,0:0:0:0:
341,353,111864,2,0,L|422:339,2,82.5000025177003,0|8|0,0:0|0:0|0:0,0:0:0:0:
314,275,112333,2,0,L|395:261,1,82.5000025177003,0|8,0:0|0:0,0:0:0:0:
467,220,112646,2,0,L|459:180,3,41.2500012588501,12|0|0|0,0:0|0:0|0:0|0:0,0:0:0:0:
469,140,112958,2,0,L|461:100,3,41.2500012588501,4|0|0|0,0:0|0:0|0:0|0:0,0:0:0:0:
471,60,113271,2,0,P|395:29|313:33,1,165.000005035401,4|0,0:0|2:0,0:0:0:0:
244,126,113739,69,0,0:0:0:0:
244,126,113817,1,0,0:0:0:0:
244,126,113896,2,0,P|261:163|260:203,2,82.5000025177003,6|0|8,0:2|0:0|0:0,0:0:0:0:
183,181,114364,2,0,B|76:200|76:200|27:168,1,165.000005035401,0|0,2:0|0:0,0:0:0:0:
50,86,114833,1,8,0:0:0:0:
50,86,114989,1,0,2:0:0:0:
129,112,115146,6,0,P|132:71|116:33,2,82.5000025177003,0|0|8,0:0|0:0|0:0,0:0:0:0:
102,196,115614,2,0,L|182:181,1,82.5000025177003,0|0,2:0|0:0,0:0:0:0:
120,279,115927,2,0,L|37:292,1,82.5000025177003,8|0,0:0|2:0,0:0:0:0:
137,359,116239,1,8,0:0:0:0:
201,306,116396,70,0,P|204:265|188:227,2,82.5000025177003,0|0|8,0:0|0:0|0:0,0:0:0:0:
264,359,116864,2,0,P|343:346|374:274,1,165.000005035401,0|0,2:0|0:0,0:0:0:0:
343,202,117333,1,8,0:0:0:0:
343,202,117489,1,0,2:0:0:0:
362,121,117646,6,0,B|307:110|307:110|266:74|266:74|206:64,1,165.000005035401,0|8,0:0|3:0,0:0:0:0:
130,50,118114,1,0,0:0:0:0:
62,98,118271,2,0,L|76:179,1,82.5000025177003,0|0,2:0|0:0,0:0:0:0:
91,261,118583,2,0,L|131:269,3,41.2500012588501,8|8|8|8,0:0|0:0|0:0|0:0,0:0:0:0:
167,289,118896,70,0,P|243:258|325:262,1,165.000005035401,6|8,0:2|0:0,0:0:0:0:
393,307,119364,2,0,B|364:258|364:258|383:151,1,165.000005035401,0|0,2:3|0:0,0:0:0:0:
424,80,119833,1,8,0:0:0:0:
424,80,119989,1,0,2:0:0:0:
341,82,120146,6,0,B|286:71|286:71|245:35|245:35|185:25,1,165.000005035401,0|8,0:0|0:0,0:0:0:0:
114,54,120614,1,0,0:0:0:0:
106,68,120927,70,0,L|120:149,1,82.5000025177003,12|0,0:2|0:0,0:0:0:0:
94,261,121239,1,12,0:2:0:0:
162,354,121396,6,0,B|210:325|210:325|317:344,1,165.000005035401,6|8,0:2|0:0,0:0:0:0:
403,359,121864,1,0,0:0:0:0:
403,359,122021,2,0,P|399:277|430:201,1,165.000005035401,0|8,0:0|0:0,0:0:0:0:
482,137,122489,1,0,2:0:0:0:
436,68,122646,69,0,0:0:0:0:
356,90,122802,1,8,0:0:0:0:
356,90,122958,2,0,L|275:76,1,82.5000025177003,8|4,0:0|0:0,0:0:0:0:
194,91,123271,2,0,L|113:77,1,82.5000025177003,8|0,0:0|2:0,0:0:0:0:
41,117,123583,1,2,0:0:0:0:
6,189,123739,1,2,0:0:0:0:
17,269,123896,22,0,B|100:285|89:226|174:241,1,165.000005035401,6|0,0:2|2:0,0:0:0:0:
252,282,124364,1,2,0:0:0:0:
252,282,124521,1,8,0:0:0:0:
408,336,124833,6,0,P|411:254|380:178,1,165.000005035401,2|0,2:0|2:0,0:0:0:0:
334,116,125302,1,0,0:0:0:0:
334,116,125458,2,0,L|252:130,1,82.5000025177003,0|0,2:0|0:0,0:0:0:0:
181,172,125771,1,10,0:0:0:0:
101,152,125927,1,2,2:0:0:0:
30,195,126083,2,0,P|14:232|17:273,1,82.5000025177003,2|0,2:0|0:0,0:0:0:0:
56,383,126396,6,0,B|89:364|125:373|125:373|143:361|143:361|179:371|212:353,1,165.000005035401,6|2,0:2|2:0,0:0:0:0:
242,278,126864,1,2,0:0:0:0:
242,278,127021,2,0,L|227:196,1,82.5000025177003,8|0,0:0|0:0,0:0:0:0:
186,131,127333,1,2,2:0:0:0:
186,131,127489,2,0,L|171:49,2,82.5000025177003,8|0|0,0:0|2:0|0:0,0:0:0:0:
269,125,127958,6,0,P|309:121|347:137,1,82.5000025177003,2|0,2:0|0:0,0:0:0:0:
402,74,128271,2,0,P|425:107|430:148,1,82.5000025177003,10|0,0:0|0:0,0:0:0:0:
512,163,128583,2,0,P|494:199|461:224,1,82.5000025177003,10|0,0:0|0:0,0:0:0:0:
370,296,128896,38,0,B|297:252|287:311|213:268,1,165.000005035401,4|0,0:2|2:0,0:0:0:0:
156,214,129364,1,2,0:0:0:0:
156,214,129521,1,8,0:0:0:0:
28,318,129833,6,0,B|-5:241|-5:241|0:159,1,165.000005035401,0|0,2:0|2:0,0:0:0:0:
82,146,130302,2,0,B|115:221|115:221|110:302,1,165.000005035401
170,361,130771,2,0,B|212:369|212:369|250:355,1,82.5000025177003,8|0,0:0|0:0,0:0:0:0:
316,307,131083,2,0,B|354:293|354:293|396:301,1,82.5000025177003,0|0,2:0|0:0,0:0:0:0:
479,381,131396,6,0,B|474:344|495:313|495:313|490:293|490:293|511:262|505:224,1,165.000005035401,6|0,0:2|2:0,0:0:0:0:
488,147,131864,1,2,0:0:0:0:
488,147,132021,2,0,L|407:132,1,82.5000025177003,8|0,0:0|0:0,0:0:0:0:
335,91,132333,2,0,B|293:83|293:83|255:97,1,82.5000025177003,0|8,2:0|0:0,0:0:0:0:
192,150,132646,6,0,L|201:204,2,55.0000016784668,8|8|8,0:0|0:0|0:0,0:0:0:0:
140,131,132958,2,0,L|149:185,2,55.0000016784668,8|4|0,0:0|0:0|0:0,0:0:0:0:
88,112,133271,2,0,L|78:57,2,55.0000016784668,6|0|0,0:0|0:0|0:0,0:0:0:0:
36,93,133583,2,0,L|26:38,2,55.0000016784668,6|0|0,0:0|0:0|0:0,0:0:0:0:
48,147,133896,38,0,P|45:228|76:304,1,165.000005035401,6|0,0:2|2:0,0:0:0:0:
126,369,134364,2,0,P|131:290|200:251,1,165.000005035401,2|0,0:0|2:0,0:0:0:0:
258,150,134833,6,0,B|184:106|174:165|100:122,2,165.000005035401,6|0|0,0:2|2:0|2:0,0:0:0:0:
298,227,135614,1,0,0:0:0:0:
298,227,135771,2,0,L|312:308,1,82.5000025177003,8|0,0:0|0:0,0:0:0:0:
395,309,136083,2,0,L|409:227,1,82.5000025177003,0|0,2:0|0:0,0:0:0:0:
429,113,136396,6,0,P|348:116|272:85,1,165.000005035401,6|0,0:2|2:0,0:0:0:0:
205,36,136864,2,0,P|220:113|162:168,1,165.000005035401,2|0,0:0|0:0,0:0:0:0:
85,141,137333,6,0,P|81:181|97:219,1,82.5000025177003,2|8,2:0|0:0,0:0:0:0:
143,288,137646,2,0,L|89:302,2,55.0000016784668,6|4|0,0:0|0:0|0:0,0:0:0:0:
193,265,137958,2,0,L|301:284,1,110.000003356934,4|4,0:0|0:0,0:0:0:0:
348,313,138271,2,0,B|403:322|403:322|453:302,1,110.000003356934,8|4,0:0|0:0,0:0:0:0:
492,263,138583,2,0,L|506:317,2,55.0000016784668,4|4|0,0:0|0:0|0:0,0:0:0:0:
499,208,138896,38,0,B|465:189|429:198|429:198|411:186|411:186|375:196|342:178,1,165.000005035401,4|0,0:2|2:0,0:0:0:0:
270,137,139364,2,0,B|284:99|284:99|276:57,2,82.5000025177003,0|8|0,0:0|0:0|0:0,0:0:0:0:
187,147,139833,2,0,B|149:133|149:133|107:141,1,82.5000025177003,0|0,2:0|0:0,0:0:0:0:
16,212,140146,1,12,0:2:0:0:
150,356,140458,6,0,P|190:360|228:344,1,82.5000025177003,6|0,0:2|0:0,0:0:0:0:
97,293,140771,2,0,P|73:325|68:366,1,82.5000025177003,2|0,2:0|0:0,0:0:0:0:
178,278,141083,2,0,P|161:241|128:216,1,82.5000025177003,10|0,0:0|0:0,0:0:0:0:
16,212,141396,5,14,0:0:0:0:
16,212,141552,1,4,3:0:0:0:
171,64,141864,1,14,0:0:0:0:
171,64,142021,1,4,3:0:0:0:
220,272,142333,1,14,0:0:0:0:
220,272,142489,2,0,B|301:285|301:285|378:258,1,165.000005035401,4|0,0:0|0:0,0:0:0:0:
457,231,142958,6,0,P|474:194|472:153,1,82.5000025177003,2|0,0:2|0:0,0:0:0:0:
409,99,143271,2,0,P|391:136|392:176,2,82.5000025177003,2|2|2,0:2|0:0|0:0,0:0:0:0:
489,71,143739,1,2,0:0:0:0:
489,71,143896,1,2,0:1:0:0:
392,176,145146,37,2,0:0:0:0:
38,33,155146,6,0,B|29:132|29:132|54:175,1,150,6|0,0:0|0:0,0:0:0:0:
118,216,155614,2,0,L|192:222,1,75,0|0,2:0|0:0,0:0:0:0:
257,262,155927,2,0,L|331:268,1,75,0|0,2:0|0:0,0:0:0:0:
396,308,156239,1,0,2:0:0:0:
466,281,156396,6,0,B|481:209|439:213|454:135,1,150,6|0,0:0|0:0,0:0:0:0:
485,53,156864,2,0,L|410:59,1,75,0|0,2:0|0:0,0:0:0:0:
346,99,157177,2,0,L|271:105,1,75,0|0,2:0|0:0,0:0:0:0:
207,145,157489,1,0,2:0:0:0:
137,116,157646,6,0,P|127:80|129:43,2,75,6|0|0,0:0|2:0|0:0,0:0:0:0:
146,190,158114,2,0,L|139:264,1,75,0|0,2:0|0:0,0:0:0:0:
131,340,158427,1,0,2:0:0:0:
200,310,158583,2,0,P|237:307|273:316,1,75,0|0,0:0|2:0,0:0:0:0:
337,357,158896,37,6,0:0:0:0:
317,208,159208,2,0,B|308:109|308:109|333:66,1,150
465,147,159833,1,0,0:0:0:0:
465,147,159989,1,0,0:0:0:0:
495,215,160146,6,0,P|504:250|502:287,2,75,6|0|0,0:0|2:0|0:0,0:0:0:0:
420,210,160614,2,0,L|345:216,1,75,0|0,2:0|0:0,0:0:0:0:
270,225,160927,1,0,2:0:0:0:
300,156,161083,2,0,P|302:118|293:82,1,75,0|0,0:0|2:0,0:0:0:0:
250,15,161396,6,0,P|285:5|322:7,2,75,6|0|0,0:0|2:0|0:0,0:0:0:0:
181,44,161864,2,0,L|106:37,1,75,0|0,2:0|0:0,0:0:0:0:
31,29,162177,1,0,2:0:0:0:
61,97,162333,2,0,P|63:135|54:171,1,75,0|0,0:0|2:0,0:0:0:0:
26,245,162646,6,0,B|98:260|94:218|172:233,1,150,6|0,0:0|0:0,0:0:0:0:
238,270,163114,2,0,B|337:279|337:279|380:254,1,150,0|0,2:0|2:0,0:0:0:0:
436,202,163583,2,0,P|426:165|429:128,1,75,0|0,0:0|2:0,0:0:0:0:
465,62,163896,1,4,0:0:0:0:
465,62,164052,1,0,2:0:0:0:
266,19,164521,37,0,2:0:0:0:
266,34,164833,1,2,2:0:0:0:
266,49,165146,54,0,B|275:104|275:104|255:155|255:155|266:214,1,165.000005035401,6|8,3:2|3:0,3:0:0:0:
302,281,165614,2,0,P|226:249|144:253,1,165.000005035401,0|0,2:0|0:0,0:0:0:0:
81,306,166083,1,8,0:0:0:0:
81,306,166239,1,0,2:0:0:0:
69,223,166396,6,0,P|53:186|56:145,2,82.5000025177003,0|0|8,0:0|0:0|0:0,0:0:0:0:
145,254,166864,2,0,L|226:268,1,82.5000025177003,0|0,2:0|0:0,0:0:0:0:
133,171,167177,2,0,L|215:186,1,82.5000025177003,8|0,0:0|2:0,0:0:0:0:
122,89,167489,1,8,0:0:0:0:
173,24,167646,70,0,P|135:7|94:11,2,82.5000025177003,0|0|8,0:0|0:0|0:0,0:0:0:0:
248,57,168114,2,0,B|355:39|355:39|403:67,1,165.000005035401,0|0,2:3|0:0,0:0:0:0:
466,129,168583,1,8,0:0:0:0:
466,129,168739,1,0,2:0:0:0:
403,183,168896,6,0,B|355:211|355:211|248:193,1,165.000005035401,0|8,0:0|0:0,0:0:0:0:
175,151,169364,1,0,3:0:0:0:
107,198,169521,2,0,L|92:279,1,82.5000025177003,0|0,2:0|0:0,0:0:0:0:
24,326,169833,1,10,0:0:0:0:
24,326,169989,1,8,0:0:0:0:
99,361,170146,70,0,P|139:357|176:374,2,82.5000025177003,6|0|8,0:2|0:0|0:0,0:0:0:0:
91,279,170614,2,0,B|100:225|100:225|80:174|80:174|89:119,1,165.000005035401,0|0,2:0|3:0,3:0:0:0:
133,50,171083,1,8,0:0:0:0:
133,50,171239,1,0,2:0:0:0:
208,95,171396,6,0,L|289:81,2,82.5000025177003,0|0|8,0:0|0:0|0:0,0:0:0:0:
165,165,171864,1,0,0:0:0:0:
162,181,172177,70,0,L|176:262,1,82.5000025177003,12|0,0:2|0:0,0:0:0:0:
146,373,172489,1,12,0:2:0:0:
261,358,172646,6,0,B|367:338|367:338|403:295,1,165.000005035401,6|8,0:2|0:0,0:0:0:0:
430,217,173114,2,0,L|510:231,2,82.5000025177003,0|12|0,0:0|0:2|0:0,0:0:0:0:
403,139,173583,2,0,L|321:125,1,82.5000025177003,8|0,0:0|0:0,0:0:0:0:
248,87,173896,2,0,L|208:95,3,41.2500012588501,12|0|0|0,0:0|0:0|0:0|0:0,0:0:0:0:
168,85,174208,2,0,L|128:93,3,41.2500012588501,4|0|0|0,0:0|0:0|0:0|0:0,0:0:0:0:
88,83,174521,2,0,P|57:159|61:241,1,165.000005035401,4|0,0:0|0:0,0:0:0:0:
133,343,174989,69,0,0:0:0:0:
133,343,175067,1,0,0:0:0:0:
133,342,175146,2,0,B|197:307|197:307|203:300|203:300|211:305|211:305|283:318,1,165.000005035401,14|8,0:2|0:0,0:0:0:0:
357,354,175614,1,4,0:0:0:0:
400,283,175771,1,8,0:0:0:0:
326,247,175927,2,0,B|319:209|319:209|315:203|315:203|308:166,1,82.5000025177003,4|8,3:0|0:0,0:0:0:0:
334,88,176239,1,4,0:0:0:0:
231,141,176396,6,0,B|159:153|159:153|151:158|151:158|145:151|145:151|81:116,1,165.000005035401,14|8,0:2|0:0,0:0:0:0:
48,40,176864,2,0,B|84:34|84:34|91:35|91:35|129:29,1,82.5000025177003,4|8,3:0|0:0,0:0:0:0:
205,61,177177,2,0,B|241:55|241:55|248:56|248:56|286:50,1,82.5000025177003,4|8,3:0|0:0,0:0:0:0:
359,12,177489,1,0,0:0:0:0:
431,102,177646,70,0,B|442:169|442:169|461:181,2,82.5000025177003,14|4|8,3:2|0:0|0:0,0:0:0:0:
358,140,178114,2,0,B|363:176|363:176|362:183|362:183|368:221,1,82.5000025177003,4|8,3:0|0:0,0:0:0:0:
347,299,178427,1,4,0:0:0:0:
285,352,178583,1,8,0:0:0:0:
204,362,178739,1,4,0:0:0:0:
132,325,178896,6,0,B|120:257|120:257|128:246,1,82.5000025177003,14|8,3:2|0:0,0:0:0:0:
46,208,179208,2,0,B|98:163|98:163|112:165,1,82.5000025177003,4|8,3:2|0:0,0:0:0:0:
104,75,179521,2,0,B|168:98|168:98|174:111,1,82.5000025177003,4|8,3:2|0:0,0:0:0:0:
248,58,179833,1,4,0:2:0:0:
332,151,179989,69,8,0:0:0:0:
332,151,180067,1,8,0:0:0:0:
332,151,180146,1,6,0:2:0:0:
285,218,180302,2,0,B|279:254|279:254|280:261|280:261|274:299,1,82.5000025177003,4|8,3:0|0:0,0:0:0:0:
356,306,180614,2,0,B|362:268|362:268|361:261|361:261|367:225,1,82.5000025177003,4|12,0:0|0:2,0:0:0:0:
416,160,180927,1,4,0:0:0:0:
408,80,181083,1,8,0:0:0:0:
348,27,181239,1,4,0:0:0:0:
267,31,181396,6,0,B|200:20|200:20|188:1,2,82.5000025177003,14|4|8,3:2|0:0|0:0,0:0:0:0:
310,101,181864,1,4,0:0:0:0:
315,116,182177,70,0,L|300:196,1,82.5000025177003,12|4,0:2|0:0,0:0:0:0:
332,307,182489,1,12,0:2:0:0:
233,244,182646,6,0,B|178:235|178:235|127:255|127:255|73:245,1,165.000005035401,14|4,3:2|0:0,3:0:0:0:
4,290,183114,2,0,P|35:214|31:132,1,165.000005035401,0|4,0:0|0:0,0:0:0:0:
4,54,183583,2,0,P|45:50|82:67,1,82.5000025177003,4|0,0:0|0:0,0:0:0:0:
157,163,183896,69,14,0:2:0:0:
157,163,184052,2,0,L|241:148,1,82.5000025177003,8|0,0:2|0:0,0:0:0:0:
334,84,184364,1,12,0:2:0:0:
406,125,184521,2,0,L|396:177,3,41.2500012588501,4|0|0|0,0:0|0:0|0:0|0:0,0:0:0:0:
418,202,184833,2,0,L|408:254,3,41.2500012588501,8|8|8|8,0:0|0:0|0:0|0:0,0:0:0:0:
430,279,185146,6,0,P|433:351|360:346,1,165.000005035401,6|8,0:2|0:0,0:0:0:0:
331,269,185614,1,2,0:0:0:0:
316,277,185927,1,0,0:0:0:0:
258,177,186083,70,0,B|249:122|249:122|212:83|212:83|203:29,1,165.000005035401,12|0,0:2|0:0,0:0:0:0:
128,5,186552,1,0,0:0:0:0:
128,5,186708,2,0,L|46:19,1,82.5000025177003,8|0,0:2|0:0,0:0:0:0:
24,101,187021,1,0,0:0:0:0:
24,101,187177,2,0,L|106:115,1,82.5000025177003,8|0,0:0|0:0,0:0:0:0:
149,185,187489,1,8,0:0:0:0:
256,141,187646,6,0,B|363:123|363:123|411:151,1,165.000005035401,6|8,3:2|0:0,0:0:0:0:
477,200,188114,1,2,0:0:0:0:
475,216,188427,1,0,0:0:0:0:
444,327,188583,70,0,P|371:334|285:297,1,165.000005035401,6|0,0:2|0:0,0:0:0:0:
222,258,189052,1,0,0:0:0:0:
222,258,189208,2,0,L|140:271,1,82.5000025177003,8|0,0:2|0:0,0:0:0:0:
63,244,189521,2,0,P|48:204|48:164,1,82.5000025177003,2|8,0:2|0:0,0:0:0:0:
112,112,189833,2,0,P|126:150|126:190,1,82.5000025177003,2|8,0:2|0:0,0:0:0:0:
35,82,190146,6,0,B|120:95|110:40|192:54,1,165.000005035401,4|8,0:2|0:0,0:0:0:0:
273,74,190614,1,0,0:2:0:0:
280,88,190927,1,0,0:0:0:0:
292,203,191083,70,0,B|301:257|301:257|338:296|338:296|347:351,1,165.000005035401,14|0,0:2|0:0,0:0:0:0:
427,374,191552,1,0,0:0:0:0:
498,333,191708,2,0,P|497:291|482:253,1,82.5000025177003,10|0,0:0|0:0,0:0:0:0:
495,171,192021,2,0,P|459:150|418:144,1,82.5000025177003,2|8,0:0|0:0,0:0:0:0:
353,92,192333,2,0,P|317:112|291:144,1,82.5000025177003,2|8,0:0|0:0,0:0:0:0:
214,230,192646,6,0,B|138:188|128:243|56:202,1,165.000005035401,6|8,0:2|0:0,0:0:0:0:
15,94,193114,1,6,0:2:0:0:
25,81,193427,1,2,0:0:0:0:
123,20,193583,70,0,P|164:20|202:35,1,82.5000025177003,14|0,0:2|0:0,0:0:0:0:
263,91,193896,2,8,L|273:144,3,41.2500012588501,12|8|8|8,0:0|0:0|0:0|0:0,0:0:0:0:
300,159,194208,2,8,L|310:212,3,41.2500012588501,12|8|8|8,0:0|0:0|0:0|0:0,0:0:0:0:
337,227,194521,2,8,L|347:280,3,41.2500012588501,14|8|8|8,0:0|0:0|0:0|0:0,0:0:0:0:
374,295,194833,2,8,L|384:348,3,41.2500012588501,14|8|8|8,0:0|0:0|0:0|0:0,0:0:0:0:
411,363,195146,6,0,P|483:369|481:296,1,165.000005035401,6|8,0:2|0:0,0:0:0:0:
430,232,195614,1,2,0:2:0:0:
434,216,195927,1,0,0:0:0:0:
380,113,196083,70,0,B|325:122|325:122|275:100|275:100|221:110,1,165.000005035401,14|0,0:2|0:0,0:0:0:0:
147,84,196552,1,0,0:0:0:0:
147,84,196708,2,0,B|58:68,1,82.5000025177003,8|0,0:0|0:0,0:0:0:0:
93,154,197021,2,0,B|5:185,1,82.5000025177003,0|8,0:0|0:0,0:0:0:0:
81,241,197333,2,0,B|27:304,1,82.5000025177003,0|8,0:0|0:0,0:0:0:0:
122,371,197646,6,0,B|158:329|158:329|266:313,1,165.000005035401,4|8,3:2|0:0,0:0:0:0:
346,335,198114,1,0,0:2:0:0:
362,331,198427,1,0,0:0:0:0:
471,293,198583,70,0,B|462:238|462:238|484:188|484:188|474:134,1,165.000005035401,4|0,0:2|0:0,0:0:0:0:
441,63,199052,1,0,0:0:0:0:
441,63,199208,2,0,P|403:50|362:51,1,82.5000025177003,8|0,0:2|0:0,0:0:0:0:
283,79,199521,2,0,P|268:117|268:159,1,82.5000025177003,2|8,0:2|0:0,0:0:0:0:
332,212,199833,2,0,P|346:174|346:133,1,82.5000025177003,2|8,0:2|0:0,0:0:0:0:
194,104,200146,6,0,P|113:99|38:132,1,165.000005035401,4|8,0:2|0:0,0:0:0:0:
13,210,200614,1,0,0:2:0:0:
17,226,200927,1,0,0:0:0:0:
106,299,201083,70,0,P|147:299|185:285,1,82.5000025177003,14|0,0:2|0:0,0:0:0:0:
258,245,201396,2,0,L|267:299,2,55.0000016784668,4|8|8,0:0|0:0|0:0,0:0:0:0:
310,263,201708,2,0,L|319:317,2,55.0000016784668,8|8|8,0:0|0:0|0:0,0:0:0:0:
362,281,202021,2,0,L|371:335,2,55.0000016784668,4|4|4,0:0|0:0|0:0,0:0:0:0:
413,299,202333,2,0,L|422:353,2,55.0000016784668,4|0|0,0:0|0:0|0:0,0:0:0:0:
468,282,202646,5,4,2:0:0:0:
468,282,202802,1,4,3:0:0:0:
376,75,203114,1,4,3:0:0:0:
376,75,203271,1,4,3:0:0:0:
206,230,203583,1,4,3:0:0:0:
206,230,203739,2,0,B|111:264|119:177|28:213,1,187.5,4|0,0:0|0:0,0:0:0:0:
