osu file format v14

[General]
AudioFilename: The Wolf That Fell in Love with Little Red Riding Hood.mp3
AudioLeadIn: 0
PreviewTime: 43817
Countdown: 0
SampleSet: Drum
StackLeniency: 0.7
Mode: 0
LetterboxInBreaks: 0
SkinPreference:Default
WidescreenStoryboard: 0

[Editor]
DistanceSpacing: 1.8
BeatDivisor: 4
GridSize: 8
TimelineZoom: 1.5

[Metadata]
Title:Ookami wa Akazukin ni Koi o Shita
TitleUnicode:おおかみは赤ずきんに恋をした
Artist:Hitoshizuku x Yama
ArtistUnicode:ひとしずく×やま△
Creator:Yahuri
Version:Extra
Source:
Tags:the wolf fell love with little red riding hood kagamine rin len 鏡音リン 鏡音レン vocaloid world EndlessroLL japanese rock jrock naotoshi nao tomori nao_tomori
BeatmapID:2839861
BeatmapSetID:340161

[Difficulty]
HPDrainRate:7
CircleSize:4.2
OverallDifficulty:8
ApproachRate:9.2
SliderMultiplier:1.8
SliderTickRate:1

[Events]
//Background and Video events
Video,0,"Kagamine_Rin_and_Len_-_The_Wolf_that_Fell_in_Love_with_Little_Red_Riding_Hood_English_Subtitles.mp4"
0,0,"Red.jpg",0,0
//Break Periods
2,64096,73013
2,124096,133326
//Storyboard Layer 0 (Background)
//Storyboard Layer 1 (Fail)
//Storyboard Layer 2 (Pass)
//Storyboard Layer 3 (Foreground)
//Storyboard Layer 4 (Overlay)
//Storyboard Sound Samples

[TimingPoints]
-1104,312.5,4,3,1,60,1,0
33896,-100,4,3,1,60,0,0
38896,-100,4,3,1,60,0,0
41630,-100,4,3,1,5,0,0
41708,-100,4,3,1,60,0,0
41942,-100,4,3,1,5,0,0
42021,-100,4,3,1,60,0,0
42255,-100,4,3,1,5,0,0
42333,-100,4,3,1,60,0,0
42567,-100,4,3,1,5,0,0
42646,-100,4,3,1,60,0,0
42880,-100,4,3,1,5,0,0
42958,-100,4,3,1,60,0,0
43192,-100,4,3,1,5,0,0
43271,-100,4,3,1,60,0,0
43505,-100,4,3,1,5,0,0
43583,-100,4,3,1,60,0,0
43896,-100,4,3,1,80,0,1
63896,-100,4,3,1,60,0,0
73817,-100,4,3,1,5,0,0
73896,-100,4,3,1,60,0,0
75692,-100,4,3,1,5,0,0
75771,-100,4,3,1,60,0,0
101630,-100,4,3,1,5,0,0
101708,-100,4,3,1,60,0,0
101942,-100,4,3,1,5,0,0
102021,-100,4,3,1,60,0,0
102255,-100,4,3,1,5,0,0
102333,-100,4,3,1,60,0,0
102567,-100,4,3,1,5,0,0
102646,-100,4,3,1,60,0,0
102880,-100,4,3,1,5,0,0
102958,-100,4,3,1,60,0,0
103192,-100,4,3,1,5,0,0
103271,-100,4,3,1,60,0,0
103505,-100,4,3,1,5,0,0
103583,-100,4,3,1,60,0,0
103896,-100,4,3,1,80,0,1
123896,-100,4,3,1,60,0,0
141708,-100,4,3,1,5,0,0
141864,-100,4,3,1,60,0,0
142177,-100,4,3,1,5,0,0
142333,-100,4,3,1,60,0,0
142646,-100,4,3,1,5,0,0
142802,-100,4,2,1,60,0,0
143896,-100,4,2,1,20,0,0
145146,-133.333333333333,4,2,1,50,0,0
155146,-100,4,3,1,60,0,0
165146,-100,4,3,1,80,0,1
171864,-66.6666666666667,4,3,1,80,0,1
172177,-100,4,3,1,80,0,1
172646,-66.6666666666667,4,3,1,80,0,1
175067,-66.6666666666667,4,3,1,80,0,0
175146,-100,4,3,1,80,0,1
187646,-100,4,3,1,80,0,0
203739,-200,4,3,1,80,0,0
204521,-100,4,3,1,5,0,0

[Colours]
Combo1 : 253,197,64
Combo2 : 201,201,201
Combo3 : 247,177,157
Combo4 : 172,172,172
Combo5 : 239,205,192
Combo6 : 224,62,44
Combo7 : 151,98,72
Combo8 : 143,205,39

[HitObjects]
429,55,3896,6,0,P|457:135|384:177,1,180,4|8,0:0|0:0,0:0:0:0:
252,179,4364,2,0,B|205:176|205:176|118:193|118:193|62:189,1,180
192,323,4833,6,0,P|276:296|320:207,1,180,12|0,0:0|0:0,0:0:0:0:
255,101,5302,1,0,0:0:0:0:
407,153,5458,2,0,L|508:190,1,90,10|0,0:0|0:0,0:0:0:0:
318,219,5771,2,0,L|363:316,1,90,8|8,2:0|0:0,0:0:0:0:
195,281,6083,2,0,L|157:382,1,90,8|8,2:0|0:0,0:0:0:0:
216,171,6396,6,4,P|176:93|234:23,1,180,4|8,0:0|0:0,2:0:0:0:
216,171,6864,2,4,P|128:178|85:98,1,180,0|0,0:0|0:0,2:0:0:0:
255,101,7333,6,0,B|300:81|343:81|343:81|375:112|374:178,1,180,4|0,2:0|0:0,0:0:0:0:
383,296,7802,1,0,0:0:0:0:
263,234,7958,1,10,0:0:0:0:
176,337,8114,1,0,0:0:0:0:
65,258,8271,2,0,P|35:222|31:147,1,90,8|8,2:0|0:0,0:0:0:0:
158,162,8583,2,0,P|141:118|155:61,1,90,8|8,2:0|0:0,0:0:0:0:
165,35,8817,1,8,0:0:0:0:
203,10,8896,70,0,P|292:4|363:97,1,180,4|8,0:0|0:0,0:0:0:0:
393,191,9364,2,0,B|307:228|304:166|218:202,1,180
85,321,9833,6,0,P|173:304|262:341,1,180,4|0,2:0|0:0,0:0:0:0:
387,365,10302,1,0,0:0:0:0:
324,245,10458,2,0,L|317:133,1,90,10|2,0:0|0:0,0:0:0:0:
262,31,10771,1,8,2:0:0:0:
262,31,10927,1,8,0:0:0:0:
146,101,11083,2,0,L|151:190,1,90,8|8,2:0|0:0,0:0:0:0:
324,245,11396,1,4,2:0:0:0:
124,268,11708,5,8,0:0:0:0:
350,168,11864,1,4,2:0:0:0:
151,190,12177,5,0,0:0:0:0:
377,91,12333,1,12,0:0:0:0:
256,192,12489,12,8,13583,0:0:0:0:
377,91,13896,70,0,P|346:174|256:216,1,180,0|8,0:0|0:0,0:0:0:0:
154,143,14364,2,0,P|179:106|247:90,1,90
268,214,14677,2,0,P|285:257|267:323,1,90,8|0,0:0|0:0,0:0:0:0:
103,266,14989,2,0,B|93:196|93:196|57:157|75:95|108:76,1,180
219,88,15458,2,0,B|273:136|342:51|421:120,1,180
485,217,15927,1,0,0:0:0:0:
350,203,16083,1,8,0:0:0:0:
467,136,16239,1,0,0:0:0:0:
361,284,16396,6,0,B|331:324|285:326|285:326|246:294|173:285,1,180,0|8,0:0|0:0,0:0:0:0:
72,256,16864,2,0,P|67:300|84:355,1,90
203,290,17177,2,0,P|214:246|209:202,1,90,8|0,0:0|0:0,0:0:0:0:
59,102,17489,2,0,P|137:66|205:151,1,180
352,221,17958,2,0,P|274:257|206:172,1,180
256,75,18427,1,0,0:0:0:0:
395,118,18583,1,8,0:0:0:0:
277,219,18739,1,8,0:0:0:0:
226,38,18896,6,0,P|143:59|119:142,1,180,0|8,0:0|0:0,0:0:0:0:
36,246,19364,2,0,P|74:270|129:275,1,90
277,219,19677,1,8,0:0:0:0:
369,317,19833,1,0,0:0:0:0:
310,147,19989,2,0,P|350:70|443:88,1,180
277,219,20458,2,0,P|236:155|310:147,1,180
416,232,20927,1,0,0:0:0:0:
297,295,21083,1,8,0:0:0:0:
387,194,21239,1,0,0:0:0:0:
337,69,21396,6,0,B|280:38|204:112|141:47,1,180,0|8,0:0|0:0,0:0:0:0:
27,48,21864,2,0,P|61:76|86:132,1,90
211,152,22177,2,0,P|177:180|152:236,1,90,8|0,0:0|0:0,0:0:0:0:
86,338,22489,70,0,B|107:361|126:363|150:359|164:341|164:341|198:349|198:349|217:311|272:316,1,180
370,278,22958,1,8,0:0:0:0:
436,160,23114,1,0,0:0:0:0:
428,155,23192,1,0,0:0:0:0:
419,150,23271,1,0,0:0:0:0:
297,90,23427,1,0,0:0:0:0:
147,152,23583,2,0,L|37:152,1,90,12|0,0:0|0:0,0:0:0:0:
205,271,23896,6,0,P|284:305|378:270,1,180,4|8,0:0|0:0,0:0:0:0:
417,151,24364,1,0,0:0:0:0:
306,151,24521,1,0,0:0:0:0:
370,278,24677,2,0,L|491:278,1,90,8|0,0:0|0:0,0:0:0:0:
477,99,24989,2,0,B|451:71|419:71|419:71|301:71,1,180,2|2,2:0|2:0,0:0:0:0:
151,166,25458,2,0,L|272:166,1,90
376,166,25771,1,0,0:0:0:0:
305,71,25927,1,8,0:0:0:0:
305,26,26239,1,8,0:0:0:0:
398,203,26396,6,0,P|436:255|342:263,1,180,4|8,0:0|0:0,0:0:0:0:
306,156,26864,2,0,L|208:156,1,90
85,252,27177,1,8,0:0:0:0:
127,123,27333,1,0,0:0:0:0:
178,275,27489,2,0,B|264:300|264:300|363:280,1,180
382,122,27958,2,0,P|349:84|302:72,1,90,8|0,0:0|0:0,0:0:0:0:
398,203,28271,1,0,0:0:0:0:
442,47,28427,1,8,0:0:0:0:
306,156,28583,1,0,0:0:0:0:
110,58,28739,5,8,0:0:0:0:
105,65,28817,1,8,0:0:0:0:
101,73,28896,2,0,B|64:119|146:217|71:275,1,180,4|8,0:0|0:0,0:0:0:0:
12,355,29364,1,0,0:0:0:0:
139,309,29521,2,0,L|211:391,2,90,0|8|0,0:0|0:0|0:0,0:0:0:0:
34,192,29989,70,0,P|72:169|116:170,1,90
205,272,30302,1,0,0:0:0:0:
248,144,30458,1,8,0:0:0:0:
416,82,30614,2,0,P|497:98|498:202,1,180,0|8,0:0|0:0,0:0:0:0:
414,283,31083,1,0,0:0:0:0:
443,152,31239,1,8,0:0:0:0:
405,327,31396,6,0,P|317:340|224:301,1,180,4|8,0:0|0:0,0:0:0:0:
128,224,31864,2,0,P|104:261|94:324,1,90
172,157,32177,1,8,0:0:0:0:
172,157,32489,6,0,P|146:114|232:115,1,180
246,274,32958,1,8,0:0:0:0:
346,184,33114,1,0,0:0:0:0:
503,223,33271,1,8,0:0:0:0:
419,361,33427,1,8,0:0:0:0:
419,245,33583,1,8,0:0:0:0:
419,200,33661,1,8,0:0:0:0:
419,155,33739,1,8,0:0:0:0:
419,110,33817,1,8,0:0:0:0:
419,65,33896,6,0,P|334:32|237:54,1,180,6|10,0:0|0:0,0:0:0:0:
147,137,34364,1,0,0:0:0:0:
282,133,34521,2,0,P|295:177|297:230,1,90,2|0,0:0|0:0,0:0:0:0:
204,318,34833,1,2,0:0:0:0:
83,184,34989,2,0,P|68:126|86:86,1,90,8|2,0:0|0:0,0:0:0:0:
195,33,35302,1,0,0:0:0:0:
356,112,35458,70,0,B|400:156|314:249|384:308,1,180,10|2,0:0|0:0,0:0:0:0:
491,237,35927,1,8,0:0:0:0:
365,285,36083,1,2,0:0:0:0:
499,281,36239,1,8,0:0:0:0:
321,296,36396,6,0,B|272:302|237:328|237:328|196:333|165:309|145:253,1,180,6|10,0:0|0:0,0:0:0:0:
99,170,36864,1,0,0:0:0:0:
220,229,37021,2,0,P|269:214|300:164,1,90,2|0,0:0|0:0,0:0:0:0:
323,53,37333,1,2,0:0:0:0:
357,229,37489,2,0,L|381:345,1,90,8|2,0:0|0:0,0:0:0:0:
421,189,37802,1,0,0:0:0:0:
264,100,37958,6,0,B|177:134|177:61|53:113,1,180,10|4,0:0|3:0,0:0:0:0:
6,210,38427,1,4,3:0:0:0:
101,304,38583,1,4,3:0:0:0:
128,172,38739,1,4,3:0:0:0:
237,26,38896,6,0,P|320:46|335:131,1,180,4|0,0:0|0:0,0:0:0:0:
239,224,39364,1,0,0:0:0:0:
88,102,39521,2,0,B|155:87|155:87|265:98,1,180,12|0,0:0|0:0,0:0:0:0:
348,205,39989,1,0,0:0:0:0:
411,26,40146,2,0,P|363:35|307:89,1,90,4|0,2:0|0:0,0:0:0:0:
278,181,40458,70,0,L|241:276,1,90
133,341,40771,2,0,P|179:349|226:315,1,90,8|0,0:0|0:0,0:0:0:0:
173,193,41083,2,0,P|155:233|166:276,1,90
286,352,41396,6,0,P|350:340|388:270,1,135,8|0,0:0|0:0,0:0:0:0:
371,218,41708,2,0,L|301:102,1,135,4|0,3:0|0:0,0:0:0:0:
370,78,42021,2,0,P|359:147|293:175,1,135,8|0,0:0|0:0,0:0:0:0:
240,134,42333,2,0,B|171:76|171:76|100:106,1,135,4|0,3:0|0:0,0:0:0:0:
72,152,42646,2,0,B|50:190|93:240|53:304,1,135
43,367,42958,2,0,P|111:346|188:342,1,135
265,343,43271,2,0,P|333:344|295:288,1,135,8|0,0:0|0:0,0:0:0:0:
241,251,43583,1,0,2:0:0:0:
72,152,43896,38,0,P|111:133|169:139,1,90,6|0,3:0|0:0,0:0:0:0:
241,251,44208,1,8,0:0:0:0:
244,107,44364,2,0,P|249:63|226:9,1,90
157,134,44677,1,0,0:0:0:0:
300,180,44833,1,8,0:0:0:0:
154,226,44989,1,0,0:0:0:0:
327,102,45146,6,0,B|368:83|368:83|425:88,1,90,4|0,3:0|0:0,0:0:0:0:
436,228,45458,1,8,0:0:0:0:
300,180,45614,2,0,P|262:153|246:100,1,90
332,251,45927,2,0,L|331:349,1,90,8|0,0:0|0:0,0:0:0:0:
300,180,46239,1,8,0:0:0:0:
436,318,46396,6,0,L|436:206,1,90,4|0,3:0|0:0,0:0:0:0:
327,102,46708,1,8,0:0:0:0:
214,192,46864,2,0,P|171:202|128:192,1,90
86,53,47177,1,0,0:0:0:0:
59,236,47333,2,0,P|46:191|67:138,1,90,8|0,0:0|0:0,0:0:0:0:
244,113,47646,6,0,L|269:199,1,90,4|4,3:0|3:0,0:0:0:0:
364,68,47958,2,0,L|338:154,1,90,8|4,0:0|3:0,0:0:0:0:
272,283,48271,2,0,P|317:294|362:281,1,90,0|4,0:0|3:0,0:0:0:0:
203,243,48583,1,10,0:0:0:0:
244,113,48739,1,8,0:0:0:0:
244,104,48817,1,8,0:0:0:0:
244,94,48896,70,0,P|234:48|204:13,1,90,6|0,3:0|0:0,0:0:0:0:
337,154,49208,2,0,L|429:190,1,90,8|0,0:0|0:0,0:0:0:0:
501,306,49521,1,0,0:0:0:0:
358,282,49677,1,0,0:0:0:0:
497,129,49833,2,0,L|413:96,1,90,8|0,0:0|0:0,0:0:0:0:
262,239,50146,6,0,P|253:283|272:344,2,90,4|0|8,3:0|0:0|0:0,0:0:0:0:
451,213,50614,6,0,B|457:175|424:153|387:160|372:178|372:178|350:166|350:166|330:173|311:172,1,180,0|4,0:0|2:0,0:0:0:0:
166,176,51083,1,0,0:0:0:0:
262,326,51239,1,4,2:0:0:0:
317,90,51396,6,0,B|274:78|274:78|120:101,1,180,4|8,3:0|0:0,0:0:0:0:
310,171,51864,2,0,P|323:214|300:268,1,90,0|8,0:0|0:0,0:0:0:0:
166,176,52177,1,0,0:0:0:0:
317,90,52333,1,0,0:0:0:0:
427,166,52489,1,8,0:0:0:0:
457,198,52567,1,0,0:0:0:0:
471,241,52645,69,4,3:0:0:0:
466,285,52723,1,0,0:0:0:0:
443,323,52801,1,0,0:0:0:0:
405,348,52879,1,0,0:0:0:0:
361,355,52957,5,4,3:0:0:0:
318,342,53035,1,0,0:0:0:0:
285,313,53114,1,0,0:0:0:0:
266,273,53192,1,0,0:0:0:0:
267,229,53271,6,0,B|179:200|179:265|59:219,1,180
26,99,53739,2,0,L|26:55,1,45
90,229,53896,6,0,P|75:284|9:225,1,180,6|8,3:0|0:0,0:0:0:0:
135,154,54364,1,0,0:0:0:0:
231,261,54521,1,0,0:0:0:0:
90,229,54677,1,0,0:0:0:0:
129,72,54833,2,0,L|219:72,1,90,8|0,0:0|0:0,0:0:0:0:
378,139,55146,70,0,P|345:169|334:212,1,90,4|0,3:0|0:0,0:0:0:0:
452,101,55458,2,0,P|419:67|379:55,1,90,8|0,0:0|0:0,0:0:0:0:
417,213,55771,1,0,0:0:0:0:
288,297,55927,2,0,B|200:337|200:266|81:320,1,180,8|0,0:0|0:0,0:0:0:0:
39,163,56396,6,0,P|72:189|92:238,1,90,4|0,3:0|0:0,0:0:0:0:
134,381,56708,2,0,P|171:356|189:304,1,90,8|0,0:0|0:0,0:0:0:0:
215,173,57021,1,0,0:0:0:0:
288,297,57177,2,0,B|305:334|305:334|298:418,2,90,0|8|0,0:0|0:0|0:0,0:0:0:0:
167,98,57646,6,0,P|209:81|281:84,1,90,4|0,3:0|0:0,0:0:0:0:
310,210,57958,2,0,P|354:217|424:197,1,90,8|0,0:0|0:0,0:0:0:0:
475,90,58271,2,0,L|490:210,1,90
501,322,58583,2,8,L|446:313,1,45
332,289,58739,2,8,L|277:298,1,45
163,322,58896,6,0,P|88:286|135:192,1,180,6|8,3:0|0:0,0:0:0:0:
150,67,59364,2,0,P|103:59|57:69,1,90
107,204,59677,1,0,0:0:0:0:
218,113,59833,2,0,P|262:104|306:112,1,90,8|0,0:0|0:0,0:0:0:0:
440,233,60146,70,0,B|422:174|481:174|472:107|440:84|402:110|422:150,1,180,4|8,3:0|0:0,0:0:0:0:
458,312,60614,2,0,B|416:330|416:330|337:336,1,90
372,334,60927,5,4,2:0:0:0:
255,251,61083,1,0,0:0:0:0:
345,138,61239,1,4,2:0:0:0:
294,323,61396,6,0,P|221:325|175:238,1,180,6|8,3:0|0:0,0:0:0:0:
113,78,61864,2,0,P|140:114|180:134,1,90
255,251,62177,1,0,0:0:0:0:
288,92,62333,2,0,P|327:70|372:69,1,90,8|0,0:0|0:0,0:0:0:0:
506,176,62646,6,8,B|454:203|454:203|422:247,1,90,4|8,3:0|0:0,0:0:0:0:
357,340,62958,1,8,0:0:0:0:
216,259,63114,1,8,0:0:0:0:
274,78,63271,85,4,3:0:0:0:
333,259,63427,1,4,3:0:0:0:
179,147,63583,1,4,3:0:0:0:
369,147,63739,1,4,3:0:0:0:
275,340,63896,101,4,0:0:0:0:
395,82,73583,54,0,P|347:110|404:148,1,135,0|0,0:0|2:0,0:0:0:0:
458,155,73896,2,0,P|386:206|375:313,1,180,0|8,0:0|0:0,0:0:0:0:
251,358,74364,2,0,L|208:244,1,90
185,142,74677,1,8,0:0:0:0:
175,276,74833,1,0,0:0:0:0:
161,96,74989,6,0,B|149:65|149:65|307:65,1,180
316,244,75458,2,0,B|328:275|328:275|194:275,1,135,0|0,0:0|2:0,0:0:0:0:
175,276,75771,1,0,0:0:0:0:
48,228,75927,1,0,0:0:0:0:
185,142,76083,1,8,0:0:0:0:
226,275,76239,1,0,0:0:0:0:
399,223,76396,6,0,B|360:140|360:140|369:21,1,180,0|8,0:0|0:0,0:0:0:0:
468,140,76864,1,0,0:0:0:0:
421,267,77021,1,0,0:0:0:0:
278,348,77177,2,0,L|165:347,1,90,8|0,0:0|0:0,0:0:0:0:
34,262,77489,6,0,B|106:261|106:261|140:274|140:274|229:275,1,180
377,199,77958,2,0,P|345:123|264:179,1,180
211,274,78427,1,0,0:0:0:0:
313,280,78583,1,8,0:0:0:0:
167,145,78739,1,8,0:0:0:0:
309,67,78896,70,0,B|355:44|396:47|396:47|423:86|400:150,1,180,0|8,0:0|0:0,0:0:0:0:
307,252,79364,2,0,P|339:217|388:195,1,90
333,326,79677,2,0,P|285:328|234:276,1,90,8|0,0:0|0:0,0:0:0:0:
184,187,79989,6,0,L|220:83,1,90
106,17,80302,2,0,L|120:129,1,90
132,240,80614,2,0,P|89:251|29:219,1,90
117,106,80927,1,0,0:0:0:0:
278,115,81083,2,0,P|321:104|381:136,1,90,8|0,0:0|0:0,0:0:0:0:
450,256,81396,6,0,B|365:285|365:218|273:254,1,180,0|8,0:0|0:0,0:0:0:0:
170,336,81864,2,0,P|147:295|144:233,1,90
212,45,82177,1,8,0:0:0:0:
275,254,82333,1,8,0:0:0:0:
101,122,82489,1,8,0:0:0:0:
318,127,82646,5,0,0:0:0:0:
275,254,82802,1,0,0:0:0:0:
454,129,82958,1,8,0:0:0:0:
493,258,83114,1,0,0:0:0:0:
499,270,83192,1,0,0:0:0:0:
505,282,83271,1,0,0:0:0:0:
382,335,83427,1,0,0:0:0:0:
318,127,83583,2,0,B|310:82|310:82|324:7,1,90,12|0,0:0|0:0,0:0:0:0:
456,206,83896,70,0,B|368:174|368:230|264:202,1,180,4|8,0:0|0:0,0:0:0:0:
386,82,84364,1,0,0:0:0:0:
404,277,84521,1,0,0:0:0:0:
242,279,84677,2,0,B|202:286|202:286|160:312,1,90,8|0,0:0|0:0,0:0:0:0:
44,193,84989,6,0,P|48:146|88:99,1,90
198,62,85302,1,0,0:0:0:0:
220,194,85458,2,0,P|175:194|133:178,1,90
198,62,85771,1,0,0:0:0:0:
286,238,85927,1,8,0:0:0:0:
286,282,86239,1,8,0:0:0:0:
442,349,86396,6,0,B|450:267|365:281|371:183,1,180,4|8,0:0|0:0,0:0:0:0:
343,60,86864,2,0,P|393:58|464:98,1,90
371,192,87177,1,8,0:0:0:0:
276,95,87333,1,0,0:0:0:0:
118,76,87489,6,0,P|75:96|28:151,1,90
150,209,87802,1,0,0:0:0:0:
261,284,87958,2,0,L|132:284,1,90,8|0,0:0|0:0,0:0:0:0:
35,285,88271,1,0,0:0:0:0:
150,209,88427,1,8,0:0:0:0:
183,78,88583,1,0,0:0:0:0:
356,30,88739,69,8,0:0:0:0:
360,38,88817,1,8,0:0:0:0:
363,46,88896,2,0,B|399:138|332:138|370:252,1,180,4|8,0:0|0:0,0:0:0:0:
496,212,89364,2,0,P|490:264|459:315,1,90
362,223,89677,1,8,0:0:0:0:
239,278,89833,1,0,0:0:0:0:
67,224,89989,6,0,B|40:106|40:106|86:52,1,180
211,86,90458,1,8,0:0:0:0:
339,44,90614,2,0,P|384:48|429:73,1,90
486,183,90927,1,8,0:0:0:0:
356,146,91083,1,0,0:0:0:0:
311,273,91239,1,8,0:0:0:0:
142,337,91396,6,0,P|70:291|79:200,1,180,4|8,0:0|0:0,0:0:0:0:
46,73,91864,2,0,P|66:115|112:137,1,90
235,162,92177,1,8,0:0:0:0:
235,162,92489,6,0,P|233:212|307:169,1,180,8|0,2:0|0:0,0:0:0:0:
290,9,92958,1,10,0:0:0:0:
405,78,93114,1,8,2:0:0:0:
308,171,93271,1,8,2:0:0:0:
408,299,93427,1,8,0:0:0:0:
256,354,93583,1,8,0:0:0:0:
211,354,93661,1,8,0:0:0:0:
166,354,93739,1,8,0:0:0:0:
121,354,93817,1,8,0:0:0:0:
76,354,93896,70,0,P|33:275|50:174,1,180,4|8,0:0|0:0,0:0:0:0:
122,78,94364,2,0,L|220:60,1,90,0|8,0:0|2:0,0:0:0:0:
329,127,94677,2,0,L|240:143,1,90
135,288,94989,2,0,P|166:249|241:234,1,90,8|0,0:0|0:0,0:0:0:0:
330,275,95302,1,0,0:0:0:0:
406,112,95458,6,0,P|375:63|330:48,1,90,8|0,0:0|0:0,0:0:0:0:
212,35,95771,1,0,0:0:0:0:
63,98,95927,2,0,B|78:194,1,90,8|0,0:0|0:0,0:0:0:0:
155,337,96239,1,8,0:0:0:0:
190,159,96396,6,0,L|295:124,1,90,4|0,0:0|0:0,0:0:0:0:
406,112,96708,2,0,P|420:159|388:224,2,90,8|0|8,0:0|0:0|2:0,0:0:0:0:
321,5,97177,1,0,0:0:0:0:
275,130,97333,1,0,0:0:0:0:
91,137,97489,2,0,P|31:195|77:290,1,180,8|0,0:0|0:0,0:0:0:0:
164,361,97958,5,8,0:0:0:0:
262,268,98114,1,8,0:0:0:0:
108,215,98271,1,4,3:0:0:0:
133,48,98427,1,4,3:0:0:0:
209,197,98583,1,4,3:0:0:0:
59,121,98739,1,4,3:0:0:0:
225,96,98896,70,0,B|314:87|314:87|429:124,1,180,4|0,0:0|0:0,0:0:0:0:
453,239,99364,1,0,0:0:0:0:
292,265,99521,2,0,P|275:339|349:312,1,180,12|0,0:0|0:0,0:0:0:0:
453,239,99989,1,0,0:0:0:0:
299,183,100146,2,0,P|290:138|321:62,1,90,4|0,2:0|0:0,0:0:0:0:
292,265,100458,6,0,L|283:374,1,90
162,220,100771,2,0,L|171:329,1,90,8|0,0:0|0:0,0:0:0:0:
299,183,101083,2,0,P|253:179|188:128,1,90
77,29,101396,6,0,P|166:33|238:68,1,135,8|0,0:0|0:0,0:0:0:0:
261,90,101708,2,0,B|349:70|349:70|400:91,1,135,4|0,3:0|0:0,0:0:0:0:
368,156,102021,2,0,B|349:201|387:246|357:298,1,135,8|0,0:0|0:0,0:0:0:0:
320,353,102333,2,0,P|261:326|237:248,1,135,4|0,3:0|0:0,0:0:0:0:
241,182,102646,2,0,L|107:165|107:165,1,135
63,91,102958,2,0,P|24:145|35:210,1,135
73,292,103271,2,0,B|142:319|142:265|235:302,1,135,8|0,0:0|0:0,0:0:0:0:
269,355,103583,1,0,2:0:0:0:
357,338,103739,1,0,2:0:0:0:
452,192,103896,22,0,P|466:150|458:102,1,90,6|0,3:0|0:0,0:0:0:0:
339,44,104208,2,0,L|235:31,1,90,8|0,0:0|0:0,0:0:0:0:
139,112,104521,1,0,0:0:0:0:
220,219,104677,1,0,0:0:0:0:
381,140,104833,2,0,L|277:127,1,90,8|0,0:0|0:0,0:0:0:0:
128,206,105146,5,4,3:0:0:0:
209,313,105302,1,0,0:0:0:0:
373,226,105458,2,0,P|387:184|379:136,1,90,8|0,0:0|0:0,0:0:0:0:
263,54,105771,1,0,0:0:0:0:
128,206,105927,2,0,P|87:189|38:193,1,90,8|0,0:0|0:0,0:0:0:0:
209,313,106239,1,8,0:0:0:0:
263,144,106396,6,0,L|263:50,1,90,4|0,3:0|0:0,0:0:0:0:
380,139,106708,2,0,L|380:235,1,90,8|0,0:0|0:0,0:0:0:0:
342,368,107021,1,0,0:0:0:0:
209,313,107177,1,0,0:0:0:0:
263,144,107333,2,0,L|138:151,1,90,8|0,0:0|0:0,0:0:0:0:
52,326,107646,6,0,P|101:325|158:293,1,90,4|4,3:0|3:0,0:0:0:0:
273,220,107958,2,0,L|148:227,1,90,8|4,0:0|3:0,0:0:0:0:
335,368,108271,2,0,L|328:243,1,90,0|4,0:0|3:0,0:0:0:0:
232,127,108583,1,10,0:0:0:0:
397,58,108739,1,8,0:0:0:0:
405,239,108896,70,0,P|375:270|308:273,1,90,6|0,3:0|0:0,0:0:0:0:
183,225,109208,2,0,L|207:341,1,90,8|0,0:0|0:0,0:0:0:0:
336,364,109521,1,0,0:0:0:0:
405,239,109677,1,0,0:0:0:0:
253,182,109833,2,0,P|242:137|265:78,1,90,8|0,0:0|0:0,0:0:0:0:
405,239,110146,5,4,3:0:0:0:
336,364,110302,1,0,0:0:0:0:
201,313,110458,1,8,0:0:0:0:
324,138,110614,6,0,B|360:101|399:90|399:90|437:118|437:186,1,180,4|4,3:0|2:0,0:0:0:0:
387,305,111083,1,0,0:0:0:0:
253,182,111239,1,4,2:0:0:0:
177,315,111396,6,0,B|222:228|135:228|188:115,1,180,4|0,3:0|0:0,0:0:0:0:
211,25,111864,1,0,0:0:0:0:
253,182,112021,1,8,0:0:0:0:
108,268,112177,2,0,L|-7:257,1,90
161,323,112489,1,8,0:0:0:0:
183,285,112567,1,0,0:0:0:0:
183,240,112645,69,4,3:0:0:0:
163,205,112724,1,0,0:0:0:0:
146,163,112802,1,0,0:0:0:0:
157,120,112880,1,0,0:0:0:0:
191,92,112958,5,4,3:0:0:0:
235,88,113036,1,0,0:0:0:0:
273,111,113114,1,0,0:0:0:0:
291,151,113192,1,0,0:0:0:0:
282,196,113271,6,0,B|303:184|332:183|348:186|369:197|369:197|401:178|410:147|392:87,1,180
325,278,113739,1,0,0:0:0:0:
325,278,113817,1,0,0:0:0:0:
325,278,113896,6,0,P|335:325|319:375,1,90,6|0,3:0|0:0,0:0:0:0:
233,254,114208,1,8,0:0:0:0:
368,207,114364,2,0,L|475:207,1,90
325,278,114677,1,0,0:0:0:0:
158,211,114833,2,0,P|146:258|170:313,1,90,8|0,0:0|0:0,0:0:0:0:
194,138,115146,69,4,3:0:0:0:
322,72,115302,1,0,0:0:0:0:
368,207,115458,2,0,L|483:207,1,90,8|0,0:0|0:0,0:0:0:0:
325,278,115771,1,0,0:0:0:0:
194,138,115927,2,0,L|104:138,1,90,8|0,0:0|0:0,0:0:0:0:
256,192,116239,1,8,0:0:0:0:
391,29,116396,6,0,P|401:76|385:126,1,90,4|0,3:0|0:0,0:0:0:0:
256,192,116708,1,8,0:0:0:0:
390,241,116864,2,0,P|400:288|384:338,1,90
256,272,117177,1,0,0:0:0:0:
164,138,117333,2,8,L|69:138,1,90,8|0,0:0|0:0,0:0:0:0:
256,192,117646,6,0,P|270:149|263:105,1,90,4|0,3:0|0:0,0:0:0:0:
256,272,117958,2,0,B|373:272,1,90,8|0,0:0|0:0,0:0:0:0:
183,232,118271,2,0,B|69:232,1,90
256,317,118583,2,8,L|256:272,1,45
346,144,118739,2,8,L|346:189,1,45
164,138,118896,6,0,P|207:65|289:83,1,180,6|8,3:0|0:0,0:0:0:0:
418,226,119364,2,0,P|387:259|345:271,1,90
216,204,119677,1,0,0:0:0:0:
107,324,119833,2,0,P|74:293|62:250,1,90,8|0,0:0|0:0,0:0:0:0:
94,79,120146,70,0,B|171:125|171:125|217:207,1,180,4|8,3:0|0:0,0:0:0:0:
370,75,120614,2,0,B|325:68|325:68|251:80,1,90
281,75,120927,5,4,2:0:0:0:
215,203,121083,1,0,0:0:0:0:
358,203,121239,1,4,2:0:0:0:
196,283,121396,6,0,P|136:224|174:132,1,180,6|8,3:0|0:0,0:0:0:0:
282,76,121864,1,0,0:0:0:0:
358,203,122021,2,0,L|417:306,1,90
282,360,122333,2,0,P|236:368|177:354,1,90,8|0,0:0|0:0,0:0:0:0:
37,269,122646,5,4,3:0:0:0:
131,116,122802,1,4,3:0:0:0:
256,244,122958,1,8,0:0:0:0:
137,231,123114,1,4,3:0:0:0:
281,60,123271,70,0,P|365:47|400:136,1,180,8|8,0:0|2:0,0:0:0:0:
256,244,123739,1,8,2:0:0:0:
79,61,123896,1,4,2:0:0:0:
125,49,133896,70,0,P|93:121|179:116,1,180,4|0,2:0|0:0,0:0:0:0:
272,44,134364,1,2,2:0:0:0:
324,168,134521,2,0,L|367:270,1,90,8|0,0:0|0:0,0:0:0:0:
197,330,134833,6,0,P|151:341|93:331,2,90,4|0|0,2:0|0:0|0:0,0:0:0:0:
257,208,135302,1,0,0:0:0:0:
315,330,135458,2,0,P|358:340|403:336,1,90
449,208,135771,1,8,0:0:0:0:
422,75,135927,1,0,0:0:0:0:
324,168,136083,2,0,L|218:168,1,90
98,47,136396,6,0,B|50:167|50:167|64:236,1,180,4|0,2:0|0:0,0:0:0:0:
128,332,136864,1,2,2:0:0:0:
140,196,137021,2,0,P|152:150|194:110,1,90,8|0,0:0|0:0,0:0:0:0:
313,87,137333,69,4,2:0:0:0:
234,196,137489,1,8,0:0:0:0:
296,316,137646,1,8,2:0:0:0:
303,321,137750,2,0,P|361:326|403:264,1,120,4|0,3:0|0:0,0:0:0:0:
450,90,138166,1,0,0:0:0:0:
446,81,138271,2,0,L|342:81,1,90,8|0,0:0|0:0,0:0:0:0:
313,87,138479,2,0,L|250:87,3,60,4|0|0|0,3:0|0:0|0:0|0:0,0:0:0:0:
144,139,138896,6,0,B|110:227|172:227|130:337,1,180,4|0,0:0|0:0,0:0:0:0:
8,276,139364,1,0,0:0:0:0:
57,149,139521,2,0,P|68:105|60:49,1,90,8|0,0:0|0:0,0:0:0:0:
197,73,139833,2,0,L|318:86,1,90
452,155,140146,2,0,L|331:168,1,90,12|0,0:0|0:0,0:0:0:0:
291,339,140458,6,0,P|338:348|405:307,1,90,10|0,2:0|0:0,0:0:0:0:
198,323,140771,2,0,P|149:315|107:259,1,90,10|0,2:0|0:0,0:0:0:0:
331,272,141083,2,0,P|369:248|392:202,1,90,10|0,0:0|0:0,0:0:0:0:
184,246,141396,5,6,2:0:0:0:
252,151,141552,2,0,P|274:110|257:35,1,90,4|0,3:0|2:0,0:0:0:0:
165,232,141864,69,6,2:0:0:0:
200,91,142021,2,0,P|187:45|132:8,1,90,4|0,3:0|2:0,0:0:0:0:
148,216,142333,5,6,2:0:0:0:
123,87,142489,2,0,P|81:70|32:79,1,90,4|0,0:0|2:0,0:0:0:0:
72,146,142802,1,0,2:0:0:0:
94,278,142958,5,0,2:0:0:0:
211,344,143114,1,0,2:0:0:0:
256,131,143271,1,2,2:0:0:0:
445,238,143427,1,0,2:0:0:0:
312,254,143583,1,0,2:0:0:0:
357,41,143739,1,2,2:0:0:0:
474,107,143896,5,0,2:0:0:0:
400,159,144208,1,0,2:0:0:0:
445,238,144521,1,0,2:0:0:0:
396,313,144833,2,0,L|302:320,1,90,0|0,2:0|2:0,2:0:0:0:
137,333,145146,69,2,2:0:0:0:
127,300,145458,1,0,0:0:0:0:
64,220,145614,2,0,B|36:151|95:151|51:64,1,135.000005149842
48,58,146239,1,0,0:0:0:0:
163,182,146396,5,2,0:3:0:0:
194,169,146708,1,0,0:0:0:0:
268,100,146864,2,0,P|331:77|403:112,1,135.000005149842,0|0,0:0|0:0,0:0:0:0:
415,124,147489,1,0,0:0:0:0:
306,270,147646,6,0,L|285:180,1,67.5000025749208,0|0,0:0|0:0,0:0:0:0:
194,169,147958,1,0,0:0:0:0:
106,219,148114,1,0,0:0:0:0:
113,252,148427,2,0,L|113:346,2,67.5000025749208
15,113,148896,6,0,P|71:135|157:96,1,135.000005149842,2|0,0:3|0:0,0:0:0:0:
205,36,149364,1,0,0:0:0:0:
394,112,149521,2,0,P|332:134|270:113,1,135.000005149842,0|0,0:0|0:0,0:0:0:0:
15,113,150146,70,0,L|25:198,1,67.5000025749208,2|0,0:0|0:0,0:0:0:0:
77,265,150458,2,0,L|87:350,1,67.5000025749208,0|0,0:0|0:0,0:0:0:0:
229,178,150927,6,0,P|263:183|301:205,2,67.5000025749208
84,332,151396,2,0,L|77:265,2,67.5000025749208,2|0|0,0:0|0:0|0:0,0:0:0:0:
183,314,151864,2,0,B|245:287|245:287|327:295,1,135.000005149842,0|0,0:0|0:0,0:0:0:0:
409,323,152333,1,0,0:0:0:0:
386,224,152489,1,0,0:0:0:0:
222,155,152646,6,0,L|245:289,1,135.000005149842,2|0,0:0|0:0,0:0:0:0:
140,155,153114,2,0,B|40:135|40:135|-13:154,1,135.000005149842,0|0,0:0|0:0,0:0:0:0:
222,155,153583,6,0,P|237:94|165:103,1,135.000005149842,0|0,0:0|0:0,0:0:0:0:
263,231,154052,2,0,B|363:251|363:251|416:232,1,135.000005149842
456,159,154521,1,0,0:0:0:0:
456,125,154833,1,0,0:0:0:0:
179,356,155146,70,0,B|224:269|137:269|190:156,1,180,6|4,3:0|3:0,0:0:0:0:
208,53,155614,2,0,L|312:46,1,90,0|4,0:0|3:0,0:0:0:0:
425,91,155927,1,0,0:0:0:0:
306,155,156083,2,0,P|269:182|259:241,1,90,4|0,3:0|0:0,0:0:0:0:
405,325,156396,6,0,P|462:288|381:273,1,180,4|4,3:0|3:0,0:0:0:0:
280,336,156864,2,0,B|237:348|237:348|192:336,1,90,0|4,0:0|3:0,0:0:0:0:
64,294,157177,1,0,0:0:0:0:
194,260,157333,2,0,P|222:227|218:171,1,90,4|0,3:0|0:0,0:0:0:0:
104,45,157646,6,0,P|69:80|69:149,2,90,4|0|4,3:0|0:0|3:0,0:0:0:0:
238,45,158114,2,0,L|335:45,1,90,0|4,0:0|3:0,0:0:0:0:
462,62,158427,1,0,0:0:0:0:
340,120,158583,2,0,L|240:120,1,90,4|0,3:0|0:0,0:0:0:0:
83,190,158896,6,0,P|72:257|129:308,1,135,4|0,3:0|2:0,0:0:0:0:
175,276,159208,2,0,B|236:250|236:250|305:278,1,135,4|0,3:0|2:0,0:0:0:0:
363,300,159521,2,0,B|421:254|358:220|456:166,1,135,4|0,3:0|2:0,0:0:0:0:
476,140,159833,1,4,3:0:0:0:
391,35,159989,1,4,3:0:0:0:
239,133,160146,70,0,P|193:150|140:143,1,90,4|0,2:0|0:0,0:0:0:0:
22,112,160458,1,4,3:0:0:0:
111,212,160614,2,0,L|199:288,1,90,0|4,0:0|3:0,0:0:0:0:
286,353,160927,1,0,0:0:0:0:
409,299,161083,2,0,P|437:258|435:204,1,90,4|0,3:0|0:0,0:0:0:0:
423,49,161396,6,0,P|471:49|520:80,2,90,4|0|4,2:0|0:0|3:0,0:0:0:0:
300,105,161864,2,0,P|255:115|207:101,1,90,0|4,0:0|3:0,0:0:0:0:
105,22,162177,1,0,0:0:0:0:
43,142,162333,2,0,P|21:194|27:252,1,90,4|0,3:0|0:0,0:0:0:0:
148,354,162646,6,0,B|193:320|207:288|207:288|240:306|332:306,1,180,4|4,3:0|3:0,0:0:0:0:
429,316,163114,2,0,P|484:301|521:254,1,90,0|4,0:0|3:0,0:0:0:0:
414,180,163427,1,0,0:0:0:0:
301,105,163583,6,0,L|204:62,1,90,4|0,3:0|0:0,0:0:0:0:
125,167,163896,2,0,P|84:143|15:151,2,90,4|0|0,3:0|2:0|2:0,0:0:0:0:
60,229,164521,69,0,2:0:0:0:
107,309,164833,1,2,2:0:0:0:
301,105,165146,54,0,P|257:95|188:120,1,90,6|0,3:0|0:0,0:0:0:0:
169,240,165458,2,0,P|212:248|256:238,1,90,8|0,0:0|0:0,0:0:0:0:
301,105,165771,1,0,0:0:0:0:
442,130,165927,1,0,0:0:0:0:
392,264,166083,2,0,L|358:355,1,90,8|0,0:0|0:0,0:0:0:0:
179,348,166396,6,0,P|139:343|79:292,1,90,4|0,3:0|0:0,0:0:0:0:
38,186,166708,1,8,0:0:0:0:
105,59,166864,2,0,B|151:47|151:47|198:60,1,90
329,104,167177,1,8,0:0:0:0:
192,147,167333,1,0,0:0:0:0:
327,193,167489,1,8,0:0:0:0:
498,229,167646,6,0,P|477:275|409:307,1,90,4|0,3:0|0:0,0:0:0:0:
304,320,167958,2,0,L|178:287,1,90,8|0,0:0|0:0,0:0:0:0:
74,321,168271,2,0,L|160:361,1,90
183,217,168583,2,0,L|101:179,1,90,8|0,0:0|0:0,0:0:0:0:
12,22,168896,6,0,B|32:66|32:66|100:102,1,90,4|4,3:0|3:0,0:0:0:0:
271,195,169208,2,0,B|251:151|251:151|183:115,1,90,8|4,0:0|3:0,0:0:0:0:
69,86,169521,2,0,B|89:130|89:130|157:166,1,90,0|4,0:0|3:0,0:0:0:0:
327,258,169833,1,10,0:0:0:0:
183,217,169989,1,8,0:0:0:0:
376,120,170146,70,0,L|376:30,2,90,6|0|8,3:0|0:0|0:0,0:0:0:0:
342,250,170614,2,0,P|261:272|153:240,1,180
33,131,171083,2,0,L|90:223,1,90,8|0,0:0|0:0,0:0:0:0:
166,342,171396,1,4,3:0:0:0:
345,343,171552,1,4,3:0:0:0:
256,192,171708,1,8,0:0:0:0:
381,64,171864,6,0,B|448:43|515:52|515:52|444:92|535:123|414:201,1,270.000010299683,4|4,3:0|2:0,0:0:0:0:
365,265,172333,1,0,0:0:0:0:
256,192,172489,1,4,2:0:0:0:
131,64,172646,6,0,B|64:43|-3:52|-3:52|68:92|-23:123|98:201,1,270.000010299683,4|8,3:0|0:0,0:0:0:0:
190,326,173114,2,0,B|256:340|256:340|338:324,1,135.000005149842,0|12,0:0|0:0,0:0:0:0:
476,206,173427,1,0,0:0:0:0:
340,55,173583,6,0,L|196:58,1,135.000005149842,8|0,0:0|0:0,0:0:0:0:
25,153,173896,1,8,0:0:0:0:
72,137,173974,1,0,0:0:0:0:
119,151,174052,1,0,0:0:0:0:
144,193,174130,1,0,0:0:0:0:
129,240,174208,69,4,3:0:0:0:
137,289,174286,1,0,0:0:0:0:
176,320,174364,1,0,0:0:0:0:
225,314,174442,1,0,0:0:0:0:
266,285,174521,5,4,3:0:0:0:
313,269,174599,1,0,0:0:0:0:
360,284,174677,1,0,0:0:0:0:
403,308,174755,1,0,0:0:0:0:
452,308,174833,2,0,P|500:272|487:198,1,135.000005149842,4|0,3:0|0:0,0:0:0:0:
403,39,175146,6,0,L|284:64,1,90,6|0,3:0|0:0,0:0:0:0:
239,200,175458,2,0,L|327:181,1,90,4|0,3:0|0:0,0:0:0:0:
384,30,175771,2,0,L|265:55,1,90,4|0,3:0|0:0,0:0:0:0:
219,190,176083,2,0,L|308:172,1,90,4|0,3:0|0:0,0:0:0:0:
497,111,176396,6,0,P|494:159|453:212,1,90,6|0,3:0|0:0,0:0:0:0:
379,326,176708,2,0,L|268:336,1,90,4|0,3:0|0:0,0:0:0:0:
372,193,177021,2,0,P|414:179|480:202,1,90,4|0,3:0|0:0,0:0:0:0:
361,317,177333,2,0,L|264:327,1,90,4|0,3:0|0:0,0:0:0:0:
110,248,177646,69,6,3:0:0:0:
6,148,177802,1,0,0:0:0:0:
144,108,177958,1,4,3:0:0:0:
101,282,178114,1,0,0:0:0:0:
233,354,178271,2,0,L|335:321,1,90,4|0,3:0|0:0,0:0:0:0:
439,253,178583,2,0,L|367:182,1,90,4|0,3:0|0:0,0:0:0:0:
257,53,178896,5,4,2:0:0:0:
257,53,179052,1,8,0:0:0:0:
80,20,179208,1,0,0:0:0:0:
56,180,179364,2,0,P|44:135|54:88,1,90,8|0,0:0|0:0,0:0:0:0:
208,139,179677,2,0,P|210:183|193:224,1,90,8|0,0:0|0:0,0:0:0:0:
114,345,179989,1,0,0:0:0:0:
288,298,180146,6,0,L|393:275,1,90,6|0,3:0|0:0,0:0:0:0:
455,158,180458,1,4,3:0:0:0:
411,21,180614,1,0,0:0:0:0:
272,288,180771,6,0,L|377:265,1,90,6|0,3:0|0:0,0:0:0:0:
439,148,181083,1,4,3:0:0:0:
339,44,181239,1,0,0:0:0:0:
168,105,181396,70,0,L|78:52,2,90,6|0|8,3:0|0:0|0:0,0:0:0:0:
322,194,181864,2,0,P|349:269|261:279,1,180,0|8,0:0|0:0,0:0:0:0:
140,225,182333,1,0,0:0:0:0:
163,366,182489,1,8,0:0:0:0:
72,209,182646,6,0,P|53:149|111:104,1,135,12|0,0:0|2:0,0:0:0:0:
168,105,182958,1,4,3:0:0:0:
346,88,183114,2,0,B|416:123|368:158|462:201,1,135,4|0,3:0|2:0,0:0:0:0:
491,222,183427,1,4,3:0:0:0:
442,357,183583,1,4,3:0:0:0:
311,296,183739,1,4,3:0:0:0:
102,195,183896,5,4,2:0:0:0:
346,88,184052,1,4,2:0:0:0:
210,40,184208,1,4,3:0:0:0:
201,247,184364,5,4,2:0:0:0:
442,357,184521,1,0,0:0:0:0:
450,357,184599,1,0,0:0:0:0:
458,357,184677,1,0,0:0:0:0:
424,183,184833,69,8,0:0:0:0:
415,138,184911,1,8,0:0:0:0:
395,98,184989,1,8,0:0:0:0:
365,65,185067,1,8,0:0:0:0:
328,40,185145,1,4,2:0:0:0:
256,192,185224,12,4,187646,2:0:0:0:
403,54,187958,5,8,0:0:0:0:
461,204,188114,2,0,P|436:280|349:251,1,180
277,117,188583,2,0,P|234:100|172:110,1,90,4|0,2:0|0:0,0:0:0:0:
89,193,188896,1,0,0:0:0:0:
63,60,189052,1,0,0:0:0:0:
113,230,189208,2,0,L|216:222,1,90,8|0,0:0|0:0,0:0:0:0:
328,211,189521,101,0,0:0:0:0:
276,86,189677,1,8,0:0:0:0:
413,42,189833,2,0,P|445:83|450:134,1,90,8|8,2:0|0:0,0:0:0:0:
454,164,190067,1,8,0:0:0:0:
451,210,190146,54,0,P|388:265|329:187,1,180,4|8,0:0|0:0,0:0:0:0:
217,129,190614,2,0,L|152:209,1,90
52,280,190927,1,0,0:0:0:0:
68,101,191083,2,0,P|114:102|186:64,1,90,4|0,0:0|0:0,0:0:0:0:
299,13,191396,1,0,0:0:0:0:
369,128,191552,1,0,0:0:0:0:
483,56,191708,6,0,P|500:100|499:148,1,90,8|0,0:0|0:0,0:0:0:0:
423,254,192021,1,0,0:0:0:0:
369,128,192177,1,8,0:0:0:0:
358,291,192333,1,0,0:0:0:0:
268,190,192489,1,8,0:0:0:0:
89,138,192646,6,0,B|122:95|154:76|154:76|188:87|226:146,1,180,4|8,2:0|0:0,0:0:0:0:
358,291,193114,2,0,P|426:295|376:229,1,180,4|0,2:0|0:0,0:0:0:0:
210,255,193583,2,0,P|158:259|94:234,1,90,8|0,0:0|0:0,0:0:0:0:
64,126,193896,6,0,L|45:82,3,45,8|0|0|0,0:0|0:0|0:0|0:0,0:0:0:0:
197,146,194208,2,0,L|187:83,3,45,8|0|0|0,0:0|0:0|0:0|0:0,0:0:0:0:
318,88,194521,2,0,L|328:25,3,45,8|0|0|0,0:0|0:0|0:0|0:0,0:0:0:0:
448,120,194833,2,0,L|465:78,3,45,8|0|0|0,0:0|0:0|0:0|0:0,0:0:0:0:
380,276,195146,70,0,B|293:307|293:240|185:282,1,180,4|8,2:0|0:0,0:0:0:0:
32,231,195614,2,0,P|77:227|120:240,1,90
249,358,195927,1,0,0:0:0:0:
336,193,196083,2,0,L|349:86,1,90,4|0,0:0|0:0,0:0:0:0:
255,3,196396,1,0,0:0:0:0:
150,88,196552,1,0,0:0:0:0:
120,240,196708,6,0,P|140:284|200:322,1,90,8|0,0:0|0:0,0:0:0:0:
305,329,197021,1,0,0:0:0:0:
225,220,197177,2,0,L|321:208,1,90,8|0,0:0|0:0,0:0:0:0:
435,150,197489,1,8,0:0:0:0:
255,129,197646,6,0,P|206:78|290:73,1,180,4|8,0:0|0:0,0:0:0:0:
314,208,198114,2,0,P|300:260|275:289,1,90
157,350,198427,1,0,0:0:0:0:
49,205,198583,6,0,P|57:159|98:124,1,90,4|0,0:0|0:0,0:0:0:0:
190,42,198896,1,0,0:0:0:0:
291,131,199052,1,0,0:0:0:0:
124,195,199208,1,8,0:0:0:0:
236,269,199364,1,0,0:0:0:0:
355,333,199521,70,0,P|402:326|446:289,1,90,8|8,2:0|0:0,0:0:0:0:
351,197,199833,2,0,P|377:157|379:99,1,90,8|8,2:0|0:0,0:0:0:0:
358,77,200067,1,0,0:0:0:0:
313,88,200146,6,0,B|223:101|223:101|115:84,1,180,4|8,0:0|0:0,0:0:0:0:
31,173,200614,2,0,P|73:193|107:252,1,90
129,358,200927,1,0,0:0:0:0:
298,297,201083,6,0,L|427:297,1,90,4|0,2:0|0:0,0:0:0:0:
443,173,201396,2,0,L|473:90,2,60,0|8|8,0:0|0:0|0:0,0:0:0:0:
369,121,201708,2,8,L|384:33,2,60
278,121,202021,2,4,L|267:42,2,60,4|4|4,3:0|3:0|3:0,3:0:0:0:
189,103,202333,2,0,L|157:34,2,60,4|0|0,3:0|0:0|0:0,0:0:0:0:
223,186,202646,53,4,2:0:0:0:
436,256,202802,1,4,3:0:0:0:
189,103,203114,101,4,3:0:0:0:
471,189,203271,1,4,3:0:0:0:
132,176,203583,101,4,3:0:0:0:
397,322,203739,2,0,P|490:323|431:256,1,225,4|0,0:0|0:0,0:0:0:0:
