osu file format v14

[General]
AudioFilename: audio.mp3
AudioLeadIn: 0
PreviewTime: 71477
Countdown: 0
SampleSet: None
StackLeniency: 0.4
Mode: 0
LetterboxInBreaks: 0
WidescreenStoryboard: 0

[Editor]
DistanceSpacing: 1
BeatDivisor: 3
GridSize: 4
TimelineZoom: 1.9

[Metadata]
Title:Mr. Schadenfreude
TitleUnicode:Mr.シャーデンフロイデ
Artist:Hitoshizuku x Yama
ArtistUnicode:ひとしずく×やま△
Creator:Runigh
Version:Madman
Source:
Tags:Hitoshizuku_Yamasankakkei, Mr._Shaadenfuroide,
BeatmapID:3383032
BeatmapSetID:1657451

[Difficulty]
HPDrainRate:4.5
CircleSize:5
OverallDifficulty:9.7
ApproachRate:9.4
SliderMultiplier:1.8
SliderTickRate:1

[Events]
//Background and Video events
0,0,"Mr.Schadenfreude_HitoshizukuYama (1).jpg",0,0
//Break Periods
//Storyboard Layer 0 (Background)
//Storyboard Layer 1 (Fail)
//Storyboard Layer 2 (Pass)
//Storyboard Layer 3 (Foreground)
//Storyboard Layer 4 (Overlay)
//Storyboard Sound Samples

[TimingPoints]
38,220.588235294118,4,2,0,20,1,0
920,-133.333333333333,4,2,0,30,0,0
3346,-133.333333333333,4,2,0,30,0,0
4670,-142.857142857143,4,2,0,30,0,0
4890,-153.846153846154,4,2,0,30,0,0
5111,-166.666666666667,4,2,0,30,0,0
5332,-200,4,2,0,30,0,0
6214,-100,4,2,0,30,0,0
6435,-111.111111111111,4,2,0,30,0,0
6655,-100,4,2,0,30,0,0
6876,-90.9090909090909,4,2,0,30,0,0
7096,-90.9090909090909,4,2,0,40,0,0
7317,-100,4,2,0,30,0,0
7538,-111.111111111111,4,2,0,30,0,0
7758,-125,4,2,0,30,0,0
7979,-111.111111111111,4,2,0,30,0,0
8199,-125,4,2,0,30,0,0
8861,-111.111111111111,4,2,0,30,0,0
9082,-100,4,2,0,30,0,0
9302,-111.111111111111,4,2,0,30,0,0
10111,-166.666666666666,4,2,0,30,0,0
10185,-111.111111111111,4,2,0,30,0,0
10846,-90.9090909090909,4,2,0,30,0,0
11067,-111.111111111111,4,2,0,30,0,0
13273,-111.111111111111,4,2,0,28,0,0
13493,-111.111111111111,4,2,0,26,0,0
13714,-111.111111111111,4,2,0,24,0,0
13935,-111.111111111111,4,2,0,22,0,0
14155,-111.111111111111,4,2,0,20,0,0
14376,-111.111111111111,4,2,0,30,0,0
15038,-90.9090909090909,4,2,0,50,0,0
15920,-83.3333333333333,4,2,0,50,0,0
16802,-100,4,2,0,50,0,0
17023,-111.111111111111,4,2,0,50,0,0
17243,-100,4,2,0,50,0,0
17464,-90.9090909090909,4,2,0,50,0,0
17685,-86.9565217391304,4,2,0,50,0,0
18567,-90.9090909090909,4,2,0,50,0,0
19449,-83.3333333333333,4,2,0,50,0,0
20332,-95.2380952380952,4,2,0,50,0,0
20552,-111.111111111111,4,2,0,50,0,0
20773,-100,4,2,0,50,0,0
20993,-90.9090909090909,4,2,0,50,0,0
21214,-76.9230769230769,4,2,0,50,0,0
22096,-200,4,2,0,50,0,0
22538,-50,4,2,0,50,0,0
22979,-90.9090909090909,4,2,0,50,0,0
23861,-100,4,2,0,50,0,0
24082,-111.111111111111,4,2,0,50,0,0
24302,-125,4,2,0,50,0,0
24523,-90.9090909090909,4,2,0,50,0,0
24743,-100,4,2,0,50,0,0
24964,-83.3333333333333,4,2,0,50,0,0
25185,-90.9090909090909,4,2,0,50,0,0
25405,-111.111111111111,4,2,0,50,0,0
25626,-100,4,2,0,50,0,0
25846,-90.9090909090909,4,2,0,50,0,0
26067,-100,4,2,0,50,0,0
26288,-90.9090909090909,4,2,0,50,0,0
26508,-76.9230769230769,4,2,0,50,0,0
27390,-66.6666666666667,4,2,0,50,0,0
27611,-100,4,2,0,50,0,0
28273,-166.666666666667,4,2,0,50,0,0
29155,-250.000000000001,4,2,0,40,0,0
30920,-166.666666666667,4,2,0,40,0,0
31140,-250.000000000001,4,2,0,40,0,0
34449,-166.666666666667,4,2,0,40,0,0
34670,-250.000000000001,4,2,0,40,0,0
35332,-200.000000000001,4,2,0,40,0,0
35552,-250.000000000001,4,2,0,40,0,0
36214,-142.857142857143,4,2,0,40,0,0
36435,-250.000000000001,4,2,0,40,0,0
41508,-166.666666666667,4,2,0,40,0,0
41729,-250.000000000001,4,2,0,40,0,0
42390,-200.000000000001,4,2,0,40,0,0
42611,-250.000000000001,4,2,0,40,0,0
42832,-142.857142857143,4,2,0,40,0,0
43052,-250.000000000001,4,2,0,40,0,0
43273,-100,4,2,0,50,0,0
43493,-125,4,2,0,50,0,0
44155,-100,4,2,0,50,0,0
44376,-125,4,2,0,50,0,0
45038,-100,4,2,0,50,0,0
45258,-125,4,2,0,50,0,0
45699,-142.857142857143,4,2,0,50,0,0
45920,-90.9090909090909,4,2,0,50,0,0
46214,-90.9090909090909,4,2,0,5,0,0
46288,-111.111111111111,4,2,0,50,0,0
46508,-111.111111111111,4,2,0,10,0,0
46582,-142.857142857143,4,2,0,50,0,0
46802,-125,4,2,0,50,0,0
47023,-117.647058823529,4,2,0,50,0,0
47243,-125,4,2,0,50,0,0
47464,-142.857142857143,4,2,0,50,0,0
47685,-111.111111111111,4,2,0,50,0,0
47905,-125,4,2,0,50,0,0
48567,-100,4,2,0,50,0,0
48788,-125,4,2,0,50,0,0
49449,-90.9090909090909,4,2,0,50,0,0
49743,-90.9090909090909,4,2,0,5,0,0
49817,-100,4,2,0,50,0,0
50038,-100,4,2,0,5,0,0
50111,-111.111111111111,4,2,0,50,0,0
50332,-125,4,2,0,50,0,0
50993,-142.857142857143,4,2,0,50,0,0
51214,-100,4,2,0,50,0,0
51435,-125,4,2,0,50,0,0
51655,-142.857142857143,4,2,0,50,0,0
51876,-125,4,2,0,50,0,0
52096,-100,4,2,0,50,0,0
52317,-125,4,2,0,50,0,0
52979,-90.9090909090909,4,2,0,50,0,0
53273,-90.9090909090909,4,2,0,5,0,0
53346,-100,4,2,0,50,0,0
53567,-100,4,2,0,5,0,0
53640,-111.111111111111,4,2,0,50,0,0
53861,-125,4,2,0,50,0,0
54082,-111.111111111111,4,2,0,50,0,0
54302,-125,4,2,0,50,0,0
54523,-142.857142857143,4,2,0,50,0,0
54743,-105.263157894737,4,2,0,50,0,0
54964,-125,4,2,0,50,0,0
55185,-142.857142857143,4,2,0,50,0,0
55405,-166.666666666667,4,2,0,50,0,0
55626,-100,4,2,0,50,0,0
55846,-142.857142857143,4,2,0,50,0,0
57390,-153.846153846154,4,2,0,40,0,0
57611,-166.666666666667,4,2,0,40,0,0
58273,-153.846153846154,4,2,0,40,0,0
58493,-166.666666666667,4,2,0,40,0,0
59155,-153.846153846154,4,2,0,40,0,0
59376,-166.666666666667,4,2,0,40,0,0
60038,-153.846153846154,4,2,0,40,0,0
60258,-166.666666666667,4,2,0,40,0,0
60920,-153.846153846154,4,2,0,40,0,0
61140,-166.666666666667,4,2,0,40,0,0
61802,-153.846153846154,4,2,0,40,0,0
62023,-166.666666666667,4,2,0,40,0,0
64008,-142.857142857143,4,2,0,40,0,0
64376,-125,4,2,0,5,0,0
64449,-153.846153846154,4,2,0,40,0,0
64670,-166.666666666667,4,2,0,40,0,0
65332,-153.846153846154,4,2,0,40,0,0
65552,-166.666666666667,4,2,0,40,0,0
66214,-153.846153846154,4,2,0,40,0,0
66435,-166.666666666667,4,2,0,40,0,0
67096,-153.846153846154,4,2,0,40,0,0
67317,-166.666666666667,4,2,0,40,0,0
67979,-166.666666666667,4,2,0,50,0,0
69743,-125,4,2,0,50,0,0
70111,-125,4,2,0,5,0,0
70185,-166.666666666667,4,2,0,50,0,0
70552,-166.666666666667,4,2,0,5,0,0
70626,-250.000000000001,4,2,0,50,0,0
70993,-250.000000000001,4,2,0,5,0,0
71067,-500,4,2,0,50,0,0
71508,-66.6666666666667,4,2,0,60,0,1
71729,-76.9230769230769,4,2,0,60,0,1
72390,-71.4285714285714,4,2,0,60,0,1
72611,-76.9230769230769,4,2,0,60,0,1
73052,-83.3333333333333,4,2,0,60,0,1
73273,-66.6666666666667,4,2,0,60,0,1
73493,-76.9230769230769,4,2,0,60,0,1
74155,-71.4285714285714,4,2,0,60,0,1
74376,-76.9230769230769,4,2,0,60,0,1
75038,-71.4285714285714,4,2,0,60,0,1
75258,-76.9230769230769,4,2,0,60,0,1
75479,-90.9090909090909,4,2,0,60,0,1
75699,-111.111111111111,4,2,0,60,0,1
75920,-76.9230769230769,4,2,0,60,0,1
76140,-74.0740740740741,4,2,0,60,0,1
76582,-76.9230769230769,4,2,0,60,0,1
76802,-66.6666666666667,4,2,0,60,0,1
77023,-83.3333333333333,4,2,0,60,0,1
77243,-76.9230769230769,4,2,0,60,0,1
77464,-71.4285714285714,4,2,0,60,0,1
77685,-62.5,4,2,0,70,0,1
78126,-60.6060606060606,4,2,0,70,0,1
78346,-64.5161290322581,4,2,0,70,0,1
78567,-66.6666666666667,4,2,0,60,0,1
78788,-76.9230769230769,4,2,0,60,0,1
79449,-71.4285714285714,4,2,0,60,0,1
79670,-68.9655172413793,4,2,0,60,0,1
79890,-76.9230769230769,4,2,0,60,0,1
80111,-74.0740740740741,4,2,0,60,0,1
80332,-64.5161290322581,4,2,0,60,0,1
80552,-76.9230769230769,4,2,0,60,0,1
81214,-71.4285714285714,4,2,0,60,0,1
81434,-66.6666666666667,4,2,0,60,0,1
81655,-76.9230769230769,4,2,0,60,0,1
82096,-66.6666666666667,4,2,0,60,0,1
82979,-76.9230769230769,4,2,0,60,0,0
83199,-83.3333333333333,4,2,0,60,0,0
83420,-76.9230769230769,4,2,0,60,0,0
83861,-125,4,2,0,60,0,0
85626,-100,4,2,0,40,0,0
96876,220.588235294118,4,2,0,60,1,0
139228,-80,4,2,0,60,0,1
150699,-100,4,2,0,40,0,0
210258,220.588235294118,4,2,0,60,1,0
224155,-142.857142857143,4,2,0,30,0,0
224376,-200,4,2,0,25,0,0
224596,-57.1428571428571,4,2,0,65,0,1
231434,-142.857142857143,4,2,0,65,0,1
231655,-57.1428571428571,4,2,0,65,0,1
233199,-142.857142857143,4,2,0,65,0,1
233419,-57.1428571428571,4,2,0,65,0,1
235846,-57.1428571428571,4,2,0,65,0,0
237610,-100,4,2,0,30,0,0

[Colours]
Combo1 : 198,0,0
Combo2 : 255,36,36

[HitObjects]
481,107,846,5,0,0:0:0:0:
472,139,920,2,0,P|450:94|516:106,2,135.000005149842
369,27,1508,1,0,0:0:0:0:
308,77,1582,2,0,P|305:33|276:0,1,90.0000034332277
159,100,1802,2,0,P|203:96|236:67,1,90.0000034332277
174,31,2023,1,0,0:0:0:0:
89,178,2243,1,0,0:0:0:0:
0,90,2464,1,0,0:0:0:0:
158,99,2685,6,0,P|206:144|196:208,1,135.000005149842
49,196,3052,2,0,P|66:182|88:177,1,45.0000017166138
267,206,3273,1,0,0:0:0:0:
242,122,3346,2,0,P|203:99|158:99,1,90.0000034332277
324,144,3567,2,0,P|323:99|301:60,1,90.0000034332277
242,122,3788,1,0,0:0:0:0:
436,148,4008,1,0,0:0:0:0:
267,206,4229,1,0,0:0:0:0:
400,220,4376,1,0,0:0:0:0:
436,148,4449,6,0,P|469:177|483:226,1,90.0000034332277
426,295,4670,2,0,P|424:253|400:220,1,83.9999974365235
351,277,4890,2,0,P|364:313|359:351,1,77.9999964294435
286,321,5111,1,0,0:0:0:0:
203,237,5258,5,0,0:0:0:0:
267,206,5332,1,0,0:0:0:0:
213,320,5479,5,0,0:0:0:0:
193,245,5552,1,0,0:0:0:0:
137,334,5699,5,0,0:0:0:0:
120,259,5773,2,0,L|113:318,1,60
39,376,5993,2,0,L|32:316,1,60
46,192,6214,6,0,B|63:169|63:169|92:156|124:154|124:154|150:163,1,120
263,80,6435,2,0,B|221:75|221:75|210:70|195:72|195:72|135:65,1,107.999996704102
326,0,6655,2,0,B|351:14|362:35|362:35|370:44|368:55|368:55|372:79|365:102,1,120
236,203,6876,2,0,B|285:208|285:208|299:215|317:212|317:212|376:219,1,132.00000402832
512,142,7096,6,0,B|444:123|463:181|379:155,1,132.00000402832
503,277,7317,2,0,P|507:247|498:218,1,60
350,251,7464,1,0,0:0:0:0:
430,253,7538,2,0,B|412:284|387:253|387:253|412:222|429:247,1,107.999996704102
339,368,7758,2,0,P|331:322|297:289,1,96
150,365,7979,6,0,L|258:355,1,107.999996704102
226,289,8199,2,0,L|118:299,1,96
0,319,8420,1,0,0:0:0:0:
147,219,8567,5,0,0:0:0:0:
130,297,8640,1,0,0:0:0:0:
299,262,8788,5,0,0:0:0:0:
259,198,8861,2,0,P|222:235|225:288,1,107.999996704102
188,163,9082,2,0,P|235:129|294:134,1,120
259,198,9302,1,0,0:0:0:0:
195,68,9523,1,0,0:0:0:0:
40,113,9743,6,0,B|87:109|87:109|101:116|101:116|145:111,1,107.999996704102
121,48,9964,1,0,0:0:0:0:
188,163,10111,2,0,L|223:158,1,35.9999989013672
347,61,10332,5,0,0:0:0:0:
275,35,10405,1,0,0:0:0:0:
246,208,10552,5,0,0:0:0:0:
319,187,10626,1,0,0:0:0:0:
500,141,10846,2,0,B|391:112|426:222|301:181,1,198.000006042481
500,141,11288,1,0,0:0:0:0:
266,120,11435,1,0,0:0:0:0:
339,105,11508,5,0,0:0:0:0:
460,217,11729,1,0,0:0:0:0:
336,288,11876,1,0,0:0:0:0:
341,293,11949,1,0,0:0:0:0:
343,300,12023,1,0,0:0:0:0:
247,246,12170,1,0,0:0:0:0:
460,217,12390,6,0,B|486:195|486:195|474:322,2,161.999995056153
334,307,13052,1,0,0:0:0:0:
221,270,13199,1,0,0:0:0:0:
209,279,13273,1,0,0:0:0:0:
346,137,13493,1,0,0:0:0:0:
414,230,13714,1,0,0:0:0:0:
334,307,13935,1,0,0:0:0:0:
254,275,14155,1,0,0:0:0:0:
258,187,14376,5,0,0:0:0:0:
353,170,14523,1,0,0:0:0:0:
360,182,14596,1,0,0:0:0:0:
512,144,14817,1,0,0:0:0:0:
10,26,15038,6,0,B|0:12|0:12|54:14|76:50|76:50|47:95|64:147,1,198.000006042481
272,104,15479,2,0,B|219:89|219:89|144:104,1,132.00000402832
160,12,15699,2,0,B|235:-3|235:-3|288:12,1,132.00000402832
512,113,15920,2,0,B|495:32|416:41|416:41|404:86|360:92,1,215.999993408203
264,35,16288,5,0,0:0:0:0:
340,14,16361,1,0,0:0:0:0:
413,138,16508,5,0,0:0:0:0:
335,123,16582,1,0,0:0:0:0:
112,170,16802,6,0,P|52:142|-11:149,1,120
111,83,17023,2,0,P|156:111|185:157,1,107.999996704102
255,183,17243,2,0,P|250:117|216:62,1,120
307,236,17464,2,0,P|336:177|333:112,1,120
105,273,17685,6,0,B|170:226|239:266|239:266|251:298|285:306,1,207.000003948212
497,268,18052,1,0,0:0:0:0:
335,123,18273,1,0,0:0:0:0:
307,236,18346,1,0,0:0:0:0:
501,81,18567,6,0,B|462:98|428:72|428:72|404:88|404:88|376:44|324:53,1,198.000006042481
382,232,19008,2,0,P|380:167|334:122,1,132.00000402832
470,171,19229,2,0,P|473:234|442:298,1,132.00000402832
159,258,19449,2,0,B|198:181|295:209|295:209|264:228|259:250,1,215.999993408203
346,277,19817,5,0,0:0:0:0:
436,252,19890,1,0,0:0:0:0:
355,132,20038,5,0,0:0:0:0:
292,202,20111,1,0,0:0:0:0:
77,234,20332,6,0,P|79:296|124:341,1,125.999996154785
6,274,20552,2,0,P|6:221|34:176,1,107.999996704102
229,124,20773,1,0,0:0:0:0:
209,111,20846,1,0,0:0:0:0:
183,109,20920,1,0,0:0:0:0:
155,117,20993,2,0,P|153:48|230:7,1,132.00000402832
445,103,21214,6,0,B|398:114|371:82|371:82|336:79|311:102|311:102|266:75|228:86,1,233.999989288331
430,38,21582,1,0,0:0:0:0:
361,262,21802,1,0,0:0:0:0:
255,161,21876,1,0,0:0:0:0:
440,247,22096,6,0,P|439:277|429:305,1,60
429,305,22317,2,0,P|428:275|441:248,1,60
167,192,22538,6,0,B|132:223|62:135|177:80|276:155,1,240
182,186,22758,1,0,0:0:0:0:
17,94,22979,6,0,B|116:118|85:27|235:61,1,198.000006042481
89,117,23346,5,0,0:0:0:0:
47,28,23420,1,0,0:0:0:0:
169,151,23567,5,0,0:0:0:0:
204,55,23640,1,0,0:0:0:0:
466,105,23861,6,0,P|474:46|511:0,1,120
396,47,24082,2,0,P|386:99|402:150,1,107.999996704102
376,243,24302,2,0,P|329:206|307:150,1,96
460,224,24523,2,0,P|459:287|408:327,1,132.00000402832
260,262,24743,6,0,P|315:240|375:242,1,120
234,330,24964,2,0,B|193:314|184:278|184:278|166:312|132:319,1,143.999995605469,0|0,0:0|0:0,0:0:0:0:
63,150,25185,2,0,P|114:188|119:252,1,132.00000402832,0|0,0:0|0:0,0:0:0:0:
148,112,25405,2,0,P|104:81|50:78,1,107.999996704102
47,222,25626,6,0,P|103:204|161:214,1,120
254,177,25846,2,0,P|209:128|147:111,1,132.00000402832
167,294,26067,2,0,P|216:261|275:256,1,120
374,212,26288,2,0,P|319:176|253:176,1,132.00000402832
51,384,26508,6,0,B|107:324|62:253|62:253|10:237|0:193,1,233.999989288331
352,144,26876,1,0,0:0:0:0:
167,294,27096,1,0,0:0:0:0:
74,180,27170,1,0,0:0:0:0:
447,91,27390,6,0,B|344:18|230:69|291:184|361:137,1,270.000010299683
492,0,27758,1,0,0:0:0:0:
512,6,27832,1,0,0:0:0:0:
371,149,27979,1,0,0:0:0:0:
351,143,28052,1,0,0:0:0:0:
275,2,28199,1,0,0:0:0:0:
255,8,28273,6,0,L|219:9,1,35.9999989013672
83,47,28420,1,0,0:0:0:0:
63,41,28493,1,0,0:0:0:0:
121,183,28640,1,0,0:0:0:0:
128,155,28714,1,0,0:0:0:0:
128,155,29155,5,0,0:0:0:0:
26,313,29376,2,0,P|26:289|18:266,1,48
0,245,29596,1,0,0:0:0:0:
135,384,29817,1,0,0:0:0:0:
195,316,29964,1,0,0:0:0:0:
155,299,30038,5,0,0:0:0:0:
287,329,30258,2,0,P|286:305|294:282,1,48
313,261,30479,1,0,0:0:0:0:
466,230,30699,1,0,0:0:0:0:
512,384,30846,1,0,0:0:0:0:
469,341,30920,6,0,B|413:315|415:358|355:321,1,107.999996704102
454,224,31288,1,0,0:0:0:0:
466,230,31361,1,0,0:0:0:0:
344,141,31582,2,0,P|367:138|389:127,1,48
428,77,31802,6,0,L|420:159,1,72
280,111,32170,1,0,0:0:0:0:
268,99,32243,2,0,L|204:102,1,48
175,202,32464,2,0,L|239:205,1,48
288,244,32685,6,0,P|262:275|262:310,1,72
325,380,33052,1,0,0:0:0:0:
311,384,33126,1,0,0:0:0:0:
326,294,33346,1,0,0:0:0:0:
188,313,33493,1,0,0:0:0:0:
160,279,33567,5,0,0:0:0:0:
26,318,33788,1,0,0:0:0:0:
65,244,33935,1,0,0:0:0:0:
50,234,34008,1,0,0:0:0:0:
198,203,34229,2,0,L|129:212,1,48
92,166,34449,6,0,B|71:152|71:152|152:140,1,107.999996704102
221,69,34817,1,0,0:0:0:0:
195,56,34890,1,0,0:0:0:0:
341,0,35111,2,0,P|332:22|335:45,1,48
400,119,35332,6,0,B|380:109|380:109|312:116,1,90
267,187,35699,1,0,0:0:0:0:
283,195,35773,1,0,0:0:0:0:
411,116,35993,1,0,0:0:0:0:
392,292,36214,6,0,B|444:281|444:281|465:291|465:291|514:280,1,125.999996154785
465,373,36582,1,0,0:0:0:0:
456,384,36655,1,0,0:0:0:0:
392,292,36876,2,0,P|415:293|437:304,1,48
479,365,37096,6,0,L|477:280,1,72
420,200,37464,1,0,0:0:0:0:
401,212,37538,1,0,0:0:0:0:
512,278,37758,1,0,0:0:0:0:
441,188,37905,1,0,0:0:0:0:
422,154,37979,6,0,L|350:155,1,72
263,93,38346,1,0,0:0:0:0:
279,84,38420,1,0,0:0:0:0:
355,168,38640,1,0,0:0:0:0:
163,165,38861,6,0,P|197:155|231:165,1,72
199,255,39229,1,0,0:0:0:0:
183,242,39302,1,0,0:0:0:0:
314,223,39523,1,0,0:0:0:0:
217,321,39743,6,0,P|199:289|198:254,1,72
330,226,40111,1,0,0:0:0:0:
346,230,40185,2,0,P|358:250|359:273,1,48
339,304,40405,2,0,L|406:293,1,48
450,330,40626,6,0,L|361:345,1,72
262,267,40993,1,0,0:0:0:0:
274,258,41067,1,0,0:0:0:0:
403,215,41288,2,0,L|444:212,2,24
377,226,41508,6,0,P|396:177|381:127,1,107.999996704102
270,63,41876,1,0,0:0:0:0:
284,58,41949,1,0,0:0:0:0:
327,173,42170,1,0,0:0:0:0:
154,127,42390,6,0,B|163:145|186:146|186:146|200:140|200:140|255:138,1,90
125,191,42758,1,0,0:0:0:0:
97,176,42832,2,0,B|87:162|71:159|71:159|50:203|74:249,1,125.999996154785
267,377,43273,6,0,B|223:341|171:352|171:352|149:388|105:384,2,180
251,220,43861,1,0,0:0:0:0:
179,222,43935,1,0,0:0:0:0:
113,318,44082,1,0,0:0:0:0:
44,285,44155,6,0,B|79:277|95:231|95:231|44:262|-2:227,1,180
123,158,44523,1,0,0:0:0:0:
53,174,44596,1,0,0:0:0:0:
208,106,44817,1,0,0:0:0:0:
280,274,44964,1,0,0:0:0:0:
236,221,45038,6,0,B|274:194|319:213|319:213|360:254|431:224,1,180
351,100,45405,1,0,0:0:0:0:
429,88,45479,2,0,P|388:123|381:173,1,96
329,108,45699,2,0,P|322:67|340:29,1,83.9999974365235
512,177,45920,6,0,B|463:141|414:177|414:177|401:151|401:151|355:212|285:179,1,264.000008056641
141,65,46288,6,0,B|200:73|216:118|216:118|193:143|197:182,1,161.999995056153
293,261,46582,6,0,B|226:228|239:280|171:255,1,125.999996154785
38,307,46949,1,0,0:0:0:0:
0,251,47023,2,0,P|44:238|91:268,1,102.000001945496
108,360,47243,2,0,L|85:249,1,96
171,255,47464,2,0,L|190:349,1,83.9999974365235
288,352,47685,6,0,B|324:366|359:339|359:339|406:335|435:369,1,161.999995056153
413,258,48052,1,0,0:0:0:0:
488,240,48126,2,0,B|453:229|453:229|393:236,1,96
358,215,48346,2,0,P|404:214|432:177,1,96
457,90,48567,6,0,B|425:124|435:172|435:172|484:189|487:239,1,180
309,286,48935,1,0,0:0:0:0:
250,257,49008,2,0,P|262:236|282:224,2,48
417,243,49229,1,0,0:0:0:0:
265,28,49449,6,0,B|316:36|342:-1|342:-1|373:2|399:26|399:26|446:-8|505:7,1,264.000008056641
425,260,49817,6,0,B|445:198|417:149|417:149|435:115|466:107,1,180
260,161,50111,6,0,B|292:168|317:147|317:147|362:179|352:235,1,161.999995056153
352,235,50552,1,0,0:0:0:0:
227,111,50699,1,0,0:0:0:0:
268,66,50773,2,0,L|261:161,1,96
192,151,50993,2,0,L|198:55,1,83.9999974365235
9,97,51214,6,0,B|73:85|106:136|106:136|100:176|121:200,1,180
270,190,51582,1,0,0:0:0:0:
192,151,51655,2,0,L|186:234,1,83.9999974365235
256,251,51876,2,0,L|263:156,1,96
364,321,52096,6,0,B|309:358|252:325|252:325|286:328|307:302,1,180
184,384,52464,1,0,0:0:0:0:
122,311,52538,2,0,B|155:287|196:296|196:296|220:326|256:324,1,144
436,138,52979,6,0,B|345:93|270:176|270:176|281:222|252:253,1,264.000008056641
93,82,53346,6,0,B|143:96|161:145|161:145|125:178|137:223,1,180
361,215,53640,6,0,B|276:175|290:242|202:201,1,161.999995056153
323,277,54008,1,0,0:0:0:0:
412,263,54082,2,0,P|431:213|408:166,1,107.999996704102
325,144,54302,2,0,L|439:155,1,96
404,85,54523,2,0,L|308:75,1,83.9999974365235
421,20,54743,6,0,B|448:26|462:46|462:46|470:50|471:62|471:62|477:84|468:107,1,113.999996955872
325,144,54964,2,0,L|439:155,1,96
361,215,55185,2,0,L|277:206,1,83.9999974365235
251,270,55405,2,0,L|334:278,1,71.9999978027344
216,204,55626,6,0,B|190:215|178:236|178:236|162:241|171:259|171:259|169:285|178:300,1,120
322,276,55846,1,0,0:0:0:0:
216,204,56067,1,0,0:0:0:0:
40,106,56288,1,0,0:0:0:0:
280,121,56434,1,0,0:0:0:0:
216,204,56508,5,0,0:0:0:0:
95,11,56876,1,0,0:0:0:0:
213,23,56949,2,0,P|204:64|179:97,1,83.9999974365235
179,97,57170,2,0,P|188:56|213:23,1,83.9999974365235
512,86,57390,6,0,L|395:90,1,116.999994644165
344,205,57758,1,0,0:0:0:0:
335,224,57832,2,0,L|442:219,1,107.999996704102
202,189,58273,6,0,P|241:230|241:287,1,116.999994644165
67,286,58640,1,0,0:0:0:0:
47,272,58714,2,0,P|53:237|77:210,1,71.9999978027344
175,257,58935,2,0,P|168:291|144:318,1,71.9999978027344
10,86,59155,6,0,B|47:74|47:74|123:87,1,116.999994644165
181,190,59523,1,0,0:0:0:0:
191,212,59596,2,0,B|154:224|154:224|77:210,1,116.999994644165
414,101,60038,6,0,B|449:148|449:148|441:205,1,116.999994644165
316,221,60405,1,0,0:0:0:0:
291,220,60479,2,0,B|269:192|269:192|273:155,1,71.9999978027344
364,136,60699,2,0,B|386:164|386:164|381:200,1,71.9999978027344
322,47,60920,6,0,B|397:30|373:79|453:60,1,116.999994644165
512,135,61288,1,0,0:0:0:0:
487,140,61361,1,0,0:0:0:0:
361,247,61508,5,0,0:0:0:0:
326,173,61582,1,0,0:0:0:0:
469,249,61729,5,0,0:0:0:0:
378,255,61802,2,0,B|315:246|334:298|254:283,1,116.999994644165
177,344,62170,1,0,0:0:0:0:
198,358,62243,1,0,0:0:0:0:
352,265,62390,5,0,0:0:0:0:
269,221,62464,1,0,0:0:0:0:
321,374,62611,5,0,0:0:0:0:
377,272,62685,1,0,0:0:0:0:
49,332,63126,1,0,0:0:0:0:
53,335,63346,1,0,0:0:0:0:
209,180,63567,5,0,0:0:0:0:
40,120,63714,5,0,0:0:0:0:
221,178,63788,1,0,0:0:0:0:
0,242,63935,5,0,0:0:0:0:
55,117,64008,2,0,B|100:134|134:102|134:102|157:110|157:110|206:86|253:111,1,209.999993591309
326,173,64449,6,0,B|323:128|323:128|329:114|321:99|321:99|318:57,1,116.999994644165
420,5,64817,1,0,0:0:0:0:
398,0,64890,1,0,0:0:0:0:
451,70,65038,1,0,0:0:0:0:
473,65,65111,1,0,0:0:0:0:
326,173,65332,6,0,B|339:148|359:138|359:138|370:137|381:129|381:129|405:126|424:133,1,116.999994644165
423,308,65699,1,0,0:0:0:0:
409,328,65773,2,0,P|374:321|347:297,1,71.9999978027344
394,200,65994,2,0,P|428:206|455:230,1,71.9999978027344
234,308,66214,6,0,B|270:291|270:291|301:293|301:293|312:298|321:295|321:295|346:297,1,116.999994644165
303,193,66582,1,0,0:0:0:0:
283,187,66655,1,0,0:0:0:0:
346,297,66802,1,0,0:0:0:0:
366,291,66875,1,0,0:0:0:0:
234,308,67024,1,0,0:0:0:0:
214,300,67096,6,0,B|210:254|210:254|201:244|201:244|199:231|199:231|167:201,1,116.999994644165
53,278,67464,1,0,0:0:0:0:
34,296,67538,2,0,B|35:331|35:331|61:356,1,71.9999978027344
144,312,67758,2,0,B|142:276|142:276|116:251,1,71.9999978027344
120,384,67979,5,0,0:0:0:0:
280,218,68126,1,0,0:0:0:0:
109,361,68273,1,0,0:0:0:0:
0,186,68420,5,0,0:0:0:0:
270,204,68567,1,0,0:0:0:0:
14,176,68714,1,0,0:0:0:0:
187,361,68861,5,0,0:0:0:0:
185,140,69008,1,0,0:0:0:0:
203,349,69155,1,0,0:0:0:0:
318,156,69302,5,0,0:0:0:0:
316,332,69449,1,0,0:0:0:0:
330,165,69596,1,0,0:0:0:0:
475,227,69743,6,0,B|470:151|393:114|393:114|423:158|407:202,1,240
198,209,70185,2,0,B|202:160|260:121|260:121|242:158|255:189,1,179.999994506836
385,305,70626,2,0,B|353:302|353:302|324:308|324:308|297:298|297:298|267:296,1,120
356,232,71067,2,0,B|328:241|328:241|301:228,1,60
511,88,71508,6,0,B|449:65|391:90|391:90|378:112|378:112|316:134|258:112,1,270.000010299683
64,6,71876,5,0,0:0:0:0:
247,6,71949,1,0,0:0:0:0:
75,150,72096,5,0,0:0:0:0:
42,1,72170,1,0,0:0:0:0:
259,129,72317,5,0,0:0:0:0:
58,138,72390,2,0,B|96:59|190:74|190:74|208:125|258:128,1,251.999992309571
387,16,72758,1,0,0:0:0:0:
266,0,72832,2,0,B|242:24|266:58|266:58|356:72,1,155.999992858887
398,205,73052,2,0,B|422:181|398:147|398:147|319:134,1,143.999995605469
140,26,73273,6,0,B|141:8|125:-11|125:-11|205:20|193:105|193:105|152:123|145:166,1,270.000010299683
175,345,73640,5,0,0:0:0:0:
219,175,73714,1,0,0:0:0:0:
364,314,73861,5,0,0:0:0:0:
155,335,73935,1,0,0:0:0:0:
305,185,74082,5,0,0:0:0:0:
350,317,74155,2,0,B|339:350|303:357|303:357|239:262|304:185,1,251.999992309571
430,63,74523,1,0,0:0:0:0:
512,154,74596,2,0,B|469:119|417:130|417:130|436:151|436:179,1,155.999992858887
350,317,74817,5,0,0:0:0:0:
206,168,74964,5,0,0:0:0:0:
370,177,75038,2,0,B|384:217|384:217|258:211,1,167.999994873047
226,337,75258,2,0,B|212:297|212:297|325:302,1,155.999992858887
106,363,75479,2,0,P|42:356|7:303,1,132.00000402832
72,212,75699,2,0,P|123:222|155:264,1,107.999996704102
0,78,75920,6,0,B|53:46|110:70|110:70|152:123|215:111,1,233.999989288331
451,30,76288,1,0,0:0:0:0:
331,1,76361,2,0,P|388:53|379:131,1,162.000000617981
238,167,76582,2,0,P|181:116|186:41,1,155.999992858887
512,189,76802,6,0,B|434:183|434:183|409:198|409:198|335:193,1,180.000006866455,0|0,0:0|0:0,0:3:0:0:
266,258,77023,2,0,L|409:271,1,143.999995605469
333,346,77243,2,0,L|177:331,1,155.999992858887
66,240,77464,2,0,P|114:304|93:383,1,167.999994873047
0,0,77685,6,0,B|54:14|90:-26|90:-26|131:17|131:17|191:-17|259:11,1,288
196,262,78052,1,0,0:0:0:0:
52,177,78126,2,0,B|38:145|64:117|64:117|113:176|65:239,1,198.000001888275
158,72,78346,2,0,B|255:32|225:129|364:77,1,186.000001419067
512,331,78567,6,0,B|568:375|618:255|490:196|376:278,1,270.000010299683
204,362,78935,5,0,0:0:0:0:
411,384,79008,1,0,0:0:0:0:
181,197,79155,5,0,0:0:0:0:
186,368,79229,1,0,0:0:0:0:
400,263,79376,5,0,0:0:0:0:
162,182,79449,2,0,B|271:173|207:247|345:227,1,167.999994873047
397,48,79670,2,0,P|318:77|298:158,1,174.000005310059
506,168,79890,2,0,B|507:134|472:115|472:115|383:129,1,155.999992858887
272,4,80111,2,0,B|270:41|309:62|309:62|396:47,1,162.000000617981
256,157,80332,6,0,B|155:76|34:121|83:232|159:201,1,279.000002128601
390,188,80699,5,0,0:0:0:0:
140,225,80773,1,0,0:0:0:0:
382,367,80920,5,0,0:0:0:0:
368,181,80993,1,0,0:0:0:0:
166,323,81140,5,0,0:0:0:0:
366,354,81214,2,0,B|264:330|295:404|178:372,1,167.999994873047
0,207,81435,2,0,B|55:223|83:185|83:185|113:207|120:236|120:236|169:197|226:219,1,270.000010299683
443,384,81876,1,0,0:0:0:0:
25,384,82023,1,0,0:0:0:0:
191,292,82096,5,0,0:0:0:0:
14,31,82317,1,0,0:0:0:0:
205,175,82464,1,0,0:0:0:0:
197,159,82538,1,0,0:0:0:0:
199,143,82611,1,0,0:0:0:0:
338,68,82758,1,0,0:0:0:0:
119,236,82979,6,0,P|114:160|53:114,1,155.999992858887
0,18,83199,2,0,L|143:24,1,143.999995605469
210,120,83420,2,0,L|54:113,1,155.999992858887
29,205,83640,1,0,0:0:0:0:
330,230,83861,5,0,0:0:0:0:
157,282,84008,5,0,0:0:0:0:
270,317,84082,1,0,0:0:0:0:
182,167,84229,5,0,0:0:0:0:
167,272,84303,1,0,0:0:0:0:
302,156,84449,5,0,0:0:0:0:
279,305,84523,1,0,0:0:0:0:
405,187,84670,5,0,0:0:0:0:
387,313,84744,1,0,0:0:0:0:
496,226,84890,5,0,0:0:0:0:
477,219,84964,1,0,0:0:0:0:
491,326,85111,1,0,0:0:0:0:
510,319,85185,1,0,0:0:0:0:
256,192,85626,5,0,0:0:0:0:
