osu file format v14

[General]
AudioFilename: audio.mp3
AudioLeadIn: 0
PreviewTime: 16908
Countdown: 0
SampleSet: Soft
StackLeniency: 0.7
Mode: 0
LetterboxInBreaks: 0
WidescreenStoryboard: 0

[Editor]
DistanceSpacing: 1
BeatDivisor: 3
GridSize: 4
TimelineZoom: 1.700006

[Metadata]
Title:Isekai Ivalice
TitleUnicode:異世界イヴァリース
Artist:Hitoshi Sakimoto
ArtistUnicode:崎元 仁
Creator:Hobbes2
Version:Normal
Source:ファイナルファンタジータクティクスアドバンス
Tags:FFTA Different World Final Fantasy Tactics Advance Fainaru Fantajii Takutikusu Adobansu SQUARE ENIX スクウェア・エニックス Soundtrack overworld theme game boy map [ Emillia ] Ivariisu
BeatmapID:1064968
BeatmapSetID:500371

[Difficulty]
HPDrainRate:3
CircleSize:3.7
OverallDifficulty:4
ApproachRate:4.5
SliderMultiplier:1.5
SliderTickRate:1

[Events]
//Background and Video events
0,0,"soundtrackezek.jpg",0,0
//Break Periods
//Storyboard Layer 0 (Background)
//Storyboard Layer 1 (Fail)
//Storyboard Layer 2 (Pass)
//Storyboard Layer 3 (Foreground)
//Storyboard Sound Samples

[TimingPoints]
967,502.092050209205,4,2,1,68,1,0
33100,-100,4,2,1,68,0,1
49167,-100,4,2,1,68,0,0
58540,-100,4,2,1,54,0,0
61218,-100,4,2,1,43,0,0
63226,-100,4,2,1,23,0,0
65234,-100,4,2,1,5,0,0

[Colours]
Combo1 : 170,170,255
Combo2 : 190,125,140
Combo3 : 90,100,200
Combo4 : 154,118,184

[HitObjects]
148,212,967,6,0,P|144:144|88:88,2,150,10|8|8,0:0|2:0|2:0,0:0:0:0:
92,292,2306,1,8,0:0:0:0:
92,292,2474,2,0,L|24:280,2,50,8|8|8,0:0|0:0|0:0,0:0:0:0:
124,332,2976,6,0,P|168:368|260:360,1,150,10|8,0:0|0:0,0:0:0:0:
336,300,3813,1,8,0:0:0:0:
336,300,3980,2,0,L|344:196,1,100,8|8,0:0|0:0,0:0:0:0:
388,176,4482,2,0,L|380:72,1,100,8|0,0:0|0:0,0:0:0:0:
348,40,4984,6,0,P|272:68|204:44,1,150,10|8,0:0|0:0,0:0:0:0:
60,20,5988,2,0,P|72:84|52:140,1,100,8|8,0:0|0:0,0:0:0:0:
24,148,6490,2,0,P|15:196|28:245,1,100,8|8,0:0|0:0,0:0:0:0:
68,276,6993,6,0,L|4:344,2,50,10|8|8,0:0|0:0|0:0,0:0:0:0:
116,268,7495,1,8,0:0:0:0:
176,188,7829,1,8,0:0:0:0:
176,188,7997,2,0,P|172:120|144:96,1,100,8|8,0:0|0:0,0:0:0:0:
112,68,8499,2,0,L|220:68,1,100,8|0,0:0|0:0,0:0:0:0:
260,56,9001,6,0,B|334:82|273:133|349:163,1,150,10|8,0:0|0:0,0:0:0:0:
492,216,10005,1,8,0:0:0:0:
480,116,10340,1,8,0:0:0:0:
480,116,10507,2,0,L|476:48,2,50,8|8|8,0:0|0:0|0:0,0:0:0:0:
428,120,11009,6,0,P|356:124|296:200,2,150,10|8|8,0:0|0:0|0:0,0:0:0:0:
484,204,12348,1,8,0:0:0:0:
484,204,12516,2,0,L|484:312,1,100,8|0,0:0|0:0,0:0:0:0:
436,324,13018,6,0,P|388:304|340:336,1,100,10|0,0:0|0:0,0:0:0:0:
296,328,13520,2,0,P|251:307|207:327,1,100,8|0,0:0|0:0,0:0:0:0:
160,340,14022,2,0,P|144:264|48:224,1,150,8|8,0:0|0:0,0:0:0:0:
172,104,15026,6,0,L|172:40,2,50,10|8|8,0:0|0:0|0:0,0:0:0:0:
204,144,15528,2,0,P|256:128|312:152,1,100,8|8,0:0|0:0,0:0:0:0:
332,180,16030,1,8,0:0:0:0:
332,280,16365,1,8,0:0:0:0:
298,319,16531,2,0,P|250:332|204:316,1,100,8|0,0:0|0:0,0:0:0:0:
172,280,17034,6,0,B|132:192|132:192|72:164,2,150,10|8|8,0:0|0:0|0:0,0:0:0:0:
264,320,18373,1,8,0:0:0:0:
264,320,18540,2,8,L|264:380,2,50
315,313,19043,6,0,P|377:274|398:200,1,150,10|8,0:0|0:0,0:0:0:0:
297,212,19880,1,8,0:0:0:0:
253,196,20047,2,0,P|198:159|190:126,1,100,8|8,0:0|0:0,0:0:0:0:
139,129,20548,2,0,P|120:174|77:196,1,100,8|0,0:0|0:0,0:0:0:0:
30,176,21051,6,0,B|30:72|30:72|-6:28,2,150,10|8|8,0:0|0:0|0:0,0:0:0:0:
128,200,22389,1,8,0:0:0:0:
128,200,22557,2,0,L|128:84,1,100,8|8,0:0|0:0,0:0:0:0:
111,54,23060,6,0,P|103:22|111:-26,2,50,10|8|8,0:0|0:0|0:0,0:0:0:0:
159,62,23562,1,8,0:0:0:0:
244,112,23895,1,8,0:0:0:0:
244,112,24064,2,0,L|244:212,1,100,8|8,0:0|0:0,0:0:0:0:
196,229,24566,2,0,P|156:237|140:245,2,50,8|0|0,0:0|0:0|0:0,0:0:0:0:
236,260,25068,6,0,P|300:248|352:172,2,150,10|8|8,0:0|0:0|0:0,0:0:0:0:
112,180,26574,2,0,P|102:202|94:248,2,50,8|8|8,0:0|0:0|0:0,0:0:0:0:
153,151,27076,6,0,B|201:127|201:127|217:71,1,100,10|8,0:0|0:0,0:0:0:0:
264,80,27578,2,0,B|277:125|277:125|325:149,1,100,8|8,0:0|0:0,0:0:0:0:
372,164,28080,1,8,0:0:0:0:
468,192,28415,1,8,0:0:0:0:
512,220,28583,2,0,L|512:296,2,50,8|0|0,0:0|0:0|0:0,0:0:0:0:
512,168,29085,6,0,L|512:68,1,100,10|0,0:0|0:0,0:0:0:0:
480,28,29587,2,0,P|424:48|368:24,1,100,8|0,0:0|0:0,0:0:0:0:
344,12,30089,1,8,0:0:0:0:
264,72,30424,1,8,0:0:0:0:
264,72,30591,2,0,P|224:72|200:64,2,50,8|8|8,0:0|0:0|0:0,0:0:0:0:
296,108,31093,6,0,B|296:208|296:208|260:256,2,150,10|8|8,0:0|0:0|0:0,0:0:0:0:
160,44,32598,1,8,0:0:0:0:
64,160,33101,6,0,P|64:220|100:272,1,100,12|0,0:0|0:0,0:0:0:0:
124,284,33603,1,8,0:0:0:0:
220,308,33938,1,0,0:0:0:0:
220,308,34106,1,8,0:0:0:0:
316,284,34440,1,8,0:0:0:0:
358,255,34608,2,0,P|379:210|376:160,1,100,8|8,0:0|0:0,0:0:0:0:
400,116,35110,6,0,L|296:116,1,100,12|8,0:0|0:0,0:0:0:0:
280,72,35612,2,0,L|176:72,1,100,8|8,0:0|0:0,0:0:0:0:
132,56,36114,2,0,L|132:4,2,50,8|0|8,0:0|0:0|0:0,0:0:0:0:
84,72,36616,1,8,0:0:0:0:
44,164,36951,1,0,0:0:0:0:
44,164,37118,6,0,P|68:224|68:264,1,100,12|0,0:0|0:0,0:0:0:0:
84,308,37620,1,8,0:0:0:0:
160,372,37955,1,0,0:0:0:0:
160,372,38122,1,8,0:0:0:0:
232,304,38457,1,8,0:0:0:0:
248,255,38623,2,0,P|252:206|273:161,1,100,8|8,0:0|0:0,0:0:0:0:
312,128,39126,6,0,P|257:138|200:128,1,100,12|8,0:0|0:0,0:0:0:0:
192,86,39628,2,0,P|142:80|93:90,1,100,8|8,0:0|0:0,0:0:0:0:
46,76,40131,2,0,L|46:24,2,50,8|0|8,0:0|0:0|0:0,0:0:0:0:
54,125,40633,1,8,0:0:0:0:
184,198,41134,6,8,L|320:302,2,150,12|8|8,0:0|0:0|0:0,0:0:0:0:
120,122,42474,1,8,0:0:0:0:
120,122,42641,2,8,P|80:122|56:130,2,50
164,99,43143,6,0,P|212:79|232:23,1,100,12|8,0:0|0:0,0:0:0:0:
284,35,43645,2,0,P|307:79|352:97,1,100,8|8,0:0|0:0,0:0:0:0:
401,107,44147,1,8,0:0:0:0:
474,185,44482,1,8,0:0:0:0:
474,185,44649,1,8,0:0:0:0:
348,268,45152,6,0,P|288:308|204:276,2,150,12|8|8,0:0|0:0|0:0,0:0:0:0:
400,184,46490,1,8,0:0:0:0:
400,184,46658,2,0,L|428:104,2,50,8|8|8,0:0|0:0|0:0,0:0:0:0:
356,172,47159,6,0,P|288:152|244:164,1,100,12|8,0:0|0:0,0:0:0:0:
220,172,47661,1,8,0:0:0:0:
160,240,47996,1,8,0:0:0:0:
160,240,48163,2,0,P|164:290|181:337,1,100,0|8,0:0|0:0,0:0:0:0:
208,372,48665,1,8,0:0:0:0:
351,325,49168,6,0,P|398:268|382:176,2,150,10|8|8,0:0|0:0|0:0,0:0:0:0:
300,236,50507,1,8,0:0:0:0:
260,208,50675,2,0,P|232:172|220:156,2,50,8|8|8,0:0|0:0|0:0,0:0:0:0:
256,256,51177,6,0,P|179:281|104:245,1,150,10|8,0:0|0:0,0:0:0:0:
71,168,52013,1,8,0:0:0:0:
70,168,52180,2,8,P|90:122|123:84,1,100
165,56,52682,2,0,P|197:94|217:139,1,100,8|0,0:0|0:0,0:0:0:0:
267,149,53185,6,0,B|267:249|267:249|311:289,2,150,10|8|8,0:0|0:0|0:0,0:0:0:0:
311,62,54524,1,8,0:0:0:0:
311,62,54691,2,0,L|311:-10,2,50,8|8|8,0:0|0:0|0:0,0:0:0:0:
355,94,55193,6,0,B|355:194|355:194|399:234,1,150,10|8,0:0|0:0,0:0:0:0:
467,306,56030,1,8,0:0:0:0:
467,306,56198,2,0,P|415:330|363:330,1,100,8|8,0:0|0:0,0:0:0:0:
319,330,56700,2,0,P|269:326|224:304,1,100,8|0,0:0|0:0,0:0:0:0:
179,278,57202,6,0,B|179:238|179:238|207:174|207:174|207:126,2,150,10|8|8,0:0|0:0|0:0,0:0:0:0:
75,246,58541,1,8,0:0:0:0:
75,246,58708,2,0,L|55:178,2,50,8|8|8,0:0|0:0|0:0,0:0:0:0:
256,192,59210,12,0,65235,0:0:0:0:
