osu file format v14

[General]
AudioFilename: audio.mp3
AudioLeadIn: 0
PreviewTime: 16908
Countdown: 0
SampleSet: Soft
StackLeniency: 0.7
Mode: 0
LetterboxInBreaks: 0
WidescreenStoryboard: 0

[Editor]
DistanceSpacing: 0.9
BeatDivisor: 6
GridSize: 4
TimelineZoom: 1

[Metadata]
Title:Isekai Ivalice
TitleUnicode:異世界イヴァリース
Artist:Hitoshi Sakimoto
ArtistUnicode:崎元 仁
Creator:Hobbes2
Version:Easy
Source:ファイナルファンタジータクティクスアドバンス
Tags:FFTA Different World Final Fantasy Tactics Advance Fainaru Fantajii Takutikusu Adobansu SQUARE ENIX スクウェア・エニックス Soundtrack overworld theme game boy map [ Emillia ] Ivariisu
BeatmapID:1064967
BeatmapSetID:500371

[Difficulty]
HPDrainRate:2
CircleSize:3
OverallDifficulty:2
ApproachRate:2
SliderMultiplier:1.3
SliderTickRate:1

[Events]
//Background and Video events
0,0,"soundtrackezek.jpg",0,0
//Break Periods
//Storyboard Layer 0 (Background)
//Storyboard Layer 1 (Fail)
//Storyboard Layer 2 (Pass)
//Storyboard Layer 3 (Foreground)
//Storyboard Sound Samples

[TimingPoints]
967,502.092050209205,4,2,1,68,1,0
33100,-100,4,2,1,68,0,1
49167,-100,4,2,1,68,0,0
57201,-100,4,2,1,61,0,0
58540,-100,4,2,1,54,0,0
61218,-100,4,2,1,43,0,0
63226,-100,4,2,1,23,0,0
65234,-100,4,2,1,5,0,0

[Colours]
Combo1 : 170,170,255
Combo2 : 190,125,140
Combo3 : 90,100,200
Combo4 : 154,118,184

[HitObjects]
120,288,967,6,0,P|140:216|116:144,1,130,10|8,0:0|2:0,0:0:0:0:
92,51,1972,1,8,2:0:0:0:
209,81,2473,1,8,0:0:0:0:
328,100,2976,6,0,B|328:188|328:188|364:256,2,130,10|8|8,0:0|0:0|0:0,0:0:0:0:
408,12,4482,1,8,0:0:0:0:
488,100,4984,6,0,B|488:188|488:188|452:256,1,130,10|8,0:0|0:0,0:0:0:0:
408,324,5988,1,8,0:0:0:0:
300,280,6490,2,0,P|268:228|264:188,1,86.6666666666666,8|8,0:0|0:0,0:0:0:0:
272,164,6993,6,0,L|120:164,2,130,10|8|8,0:0|0:0|0:0,0:0:0:0:
381,124,8498,2,8,P|391:165|417:200,1,86.6666666666666,8|0,0:0|0:0,0:0:0:0:
452,220,9001,6,0,P|460:272|408:344,1,130,10|8,0:0|0:0,0:0:0:0:
308,368,10005,2,0,P|300:316|352:244,1,130,8|8,0:0|0:0,0:0:0:0:
380,144,11009,6,0,L|344:-24,2,130,10|8|8,0:0|0:0|0:0,0:0:0:0:
402,258,12515,1,8,0:0:0:0:
312,336,13018,6,0,P|244:320|184:352,1,130,10|8,0:0|0:0,0:0:0:0:
80,372,14022,2,0,P|55:313|71:251,1,130,8|8,0:0|0:0,0:0:0:0:
160,176,15026,6,0,P|133:88|128:44,2,130,10|8|8,0:0|0:0|0:0,0:0:0:0:
256,244,16531,1,8,0:0:0:0:
352,176,17033,6,0,P|379:88|384:44,1,130,10|8,0:0|0:0,0:0:0:0:
492,4,18039,1,8,0:0:0:0:
487,121,18541,1,8,0:0:0:0:
383,50,19043,6,0,P|319:45|268:84,1,130,10|8,0:0|0:0,0:0:0:0:
220,188,20047,1,8,0:0:0:0:
304,268,20549,1,8,0:0:0:0:
382,179,21051,6,0,L|383:29,2,130,10|8|8,0:0|0:0|0:0,0:0:0:0:
304,268,22557,2,0,P|236:280|192:276,1,86.6666666666666,8|8,0:0|0:0,0:0:0:0:
180,284,23060,6,0,B|180:200|180:200|136:140,2,130,10|8|8,0:0|0:0|0:0,0:0:0:0:
76,336,24566,2,0,L|76:236,1,86.6666666666666,8|0,0:0|0:0,0:0:0:0:
56,216,25068,6,0,P|44:144|76:72,1,130,10|8,0:0|0:0,0:0:0:0:
180,92,26072,2,0,P|192:164|160:236,1,130,8|8,0:0|0:0,0:0:0:0:
272,284,27076,5,10,0:0:0:0:
375,338,27578,1,8,0:0:0:0:
430,235,28079,1,8,0:0:0:0:
327,180,28583,1,8,0:0:0:0:
272,284,29084,6,0,P|210:302|148:286,2,130,10|8|8,0:0|0:0|0:0,0:0:0:0:
327,180,30590,1,8,0:0:0:0:
387,79,31092,6,0,P|316:63|246:95,1,130,10|8,0:0|0:0,0:0:0:0:
160,136,32096,1,8,0:0:0:0:
96,40,32599,1,8,0:0:0:0:
32,136,33100,6,0,P|36:220|72:272,2,130,12|8|8,0:0|0:0|0:0,0:0:0:0:
96,40,34607,1,8,0:0:0:0:
160,136,35109,6,0,B|184:176|184:176|288:176,1,130,12|8,0:0|0:0,0:0:0:0:
368,232,36113,1,8,0:0:0:0:
264,292,36615,1,8,0:0:0:0:
376,332,37117,6,0,P|440:304|468:244,2,130,12|8|8,0:0|0:0|0:0,0:0:0:0:
256,332,38623,1,8,0:0:0:0:
136,332,39125,6,0,P|72:304|40:240,2,130,12|8|8,0:0|0:0|0:0,0:0:0:0:
256,332,40633,1,8,0:0:0:0:
352,260,41135,6,0,P|412:300|484:304,2,130,12|8|8,0:0|0:0|0:0,0:0:0:0:
256,188,42641,1,8,0:0:0:0:
160,260,43142,6,0,P|100:300|28:304,1,130,12|8,0:0|0:0,0:0:0:0:
16,188,44147,2,0,P|76:148|148:144,1,130,8|8,0:0|0:0,0:0:0:0:
240,188,45152,6,0,B|328:188|328:188|372:228,2,130,12|8|8,0:0|0:0|0:0,0:0:0:0:
148,260,46657,1,8,0:0:0:0:
36,296,47160,6,0,P|28:208|-28:172,1,130,12|8,0:0|0:0,0:0:0:0:
112,152,48164,2,0,P|186:104|193:38,1,130,8|8,0:0|0:0,0:0:0:0:
252,172,49168,6,0,L|252:328,1,130,10|8,0:0|0:0,0:0:0:0:
364,268,50173,1,8,0:0:0:0:
436,176,50675,1,8,0:0:0:0:
360,84,51177,6,0,P|300:48|216:64,1,130,10|8,0:0|0:0,0:0:0:0:
136,96,52181,1,8,0:0:0:0:
100,208,52683,1,8,0:0:0:0:
184,292,53185,6,0,L|316:292,2,130,10|8|8,0:0|0:0|0:0,0:0:0:0:
100,208,54691,2,0,P|80:164|84:120,1,86.6666666666667,8|8,0:0|0:0,0:0:0:0:
68,92,55193,6,0,L|220:92,2,130,10|8|8,0:0|0:0|0:0,0:0:0:0:
14,196,56700,2,0,L|100:196,1,86.6666666666667,8|0,0:0|0:0,0:0:0:0:
136,212,57202,6,0,P|132:280|164:352,1,130,10|8,0:0|0:0,0:0:0:0:
268,352,58206,1,8,0:0:0:0:
368,292,58708,1,8,0:0:0:0:
256,192,59210,12,0,65235,0:0:0:0:
