osu file format v14

[General]
AudioFilename: audio.mp3
AudioLeadIn: 0
PreviewTime: 51381
Countdown: 0
SampleSet: Soft
StackLeniency: 0.7
Mode: 0
LetterboxInBreaks: 0
WidescreenStoryboard: 0

[Editor]
DistanceSpacing: 1
BeatDivisor: 4
GridSize: 4
TimelineZoom: 1.6

[Metadata]
Title:one-Me two-Hearts (TV Size)
TitleUnicode:ワンミーツハー (TV Size)
Artist:Hitorie
ArtistUnicode:ヒトリエ
Creator:Hueon
Version:Normal
Source:Divine Gate
Tags:anime divine gate
BeatmapID:922146
BeatmapSetID:421625

[Difficulty]
HPDrainRate:3
CircleSize:3
OverallDifficulty:4
ApproachRate:5
SliderMultiplier:1.4
SliderTickRate:1

[Events]
//Background and Video events
0,0,"video_33643.jpg",0,0
Video,0,"bidio.mp4"
//Break Periods
2,10754,14121
//Storyboard Layer 0 (Background)
//Storyboard Layer 1 (Fail)
//Storyboard Layer 2 (Pass)
//Storyboard Layer 3 (Foreground)
//Storyboard Sound Samples

[TimingPoints]
505,314.053912588328,4,2,0,30,1,0
505,-142.857142857143,4,2,0,30,0,0
2979,-142.857142857143,4,2,0,60,0,0
5541,-142.857142857143,4,2,0,70,0,0
9309,-142.857142857143,4,2,0,80,0,0
15561,-142.857142857143,4,2,0,80,0,0
20282,-142.857142857143,4,2,0,80,0,0
51381,-100,4,2,0,80,0,1
71481,-142.857142857143,4,2,0,80,0,0

[HitObjects]
120,272,505,6,0,P|96:208|136:144,1,146.999995513916
228,120,1290,2,0,P|208:176|208:232,1,97.9999970092774
300,248,1918,1,0,0:0:0:0:
340,160,2232,2,2,L|364:112,1,48.9999985046387,0|2,1:0|1:0,1:0:0:0:
168,80,3017,2,0,P|176:152|152:188,1,97.9999970092774
108,252,3645,2,0,P|128:292|184:304,1,97.9999970092774
276,296,4273,1,0,1:0:0:0:
352,236,4587,2,0,P|384:200|376:152,1,97.9999970092774
188,96,5529,6,0,P|148:123|100:131,1,97.9999970092774
100,228,6157,2,0,B|140:252|140:252|152:312,1,97.9999970092774
236,252,6786,2,0,B|278:262|302:242|302:242|330:246,1,97.9999970092774
404,308,7414,1,0,0:0:0:0:
432,216,7728,2,0,B|396:180|396:180|336:168,1,97.9999970092774
264,216,8356,2,0,P|220:244|172:228,1,97.9999970092774
112,160,8984,2,0,P|172:144|196:116,1,97.9999970092774
236,28,9612,1,0,0:0:0:0:
292,108,9926,1,0,0:0:0:0:
376,60,10240,2,0,P|416:84|424:152,1,97.9999970092774
224,112,15579,5,4,2:0:0:0:
312,156,15893,1,4,1:0:0:0:
336,252,16207,2,0,P|308:304|256:316,1,97.9999970092774
188,268,16835,1,0,0:0:0:0:
236,184,17149,2,0,L|208:144,2,48.9999985046387
308,120,17777,1,0,0:0:0:0:
208,116,18092,2,0,P|208:56|248:40,1,97.9999970092774
332,32,18720,1,0,0:0:0:0:
220,260,19034,2,0,P|260:252|272:200,1,97.9999970092774
220,104,19662,5,0,0:0:0:0:
128,144,19976,1,0,0:0:0:0:
176,232,20290,2,0,P|208:276|256:280,1,97.9999970092774
304,204,20918,5,0,0:0:0:0:
328,112,21232,2,0,P|352:80|408:108,1,97.9999970092774
464,184,21860,1,0,0:0:0:0:
416,292,22174,2,8,P|364:312|316:292,1,97.9999970092774,8|8,2:0|2:0,2:0:0:0:
325,299,22802,2,8,P|288:320|228:296,1,97.9999970092774,8|8,2:0|2:0,2:0:0:0:
244,216,23430,5,0,0:0:0:0:
192,140,23744,1,0,0:0:0:0:
232,56,24059,2,0,P|196:24|144:28,1,97.9999970092774
88,104,24687,1,0,0:0:0:0:
116,192,25001,2,0,P|172:200|224:184,1,97.9999970092774
344,236,25943,5,0,0:0:0:0:
384,136,26257,2,0,P|352:96|292:96,1,97.9999970092774
236,160,26885,2,0,P|216:208|160:224,1,97.9999970092774
104,144,27670,2,0,L|200:92,1,97.9999970092774
292,136,28455,5,0,0:0:0:0:
384,168,28769,1,0,0:0:0:0:
392,256,29083,2,0,P|344:288|296:288,1,97.9999970092774
216,272,29712,1,0,0:0:0:0:
236,172,30026,2,8,P|288:156|344:160,1,97.9999970092774,8|8,2:0|2:0,2:0:0:0:
456,248,30654,2,0,B|456:264|404:280|404:280|404:336,1,97.9999970092774
304,320,31282,2,0,B|304:280|304:280|256:268|252:240,1,97.9999970092774
208,144,32067,5,0,0:0:0:0:
280,64,32381,1,0,0:0:0:0:
380,108,32695,1,0,0:0:0:0:
288,136,33009,2,0,B|280:192,1,48.9999985046387
296,280,33480,1,0,0:0:0:0:
384,220,33794,1,0,0:0:0:0:
376,124,34108,1,0,0:0:0:0:
296,64,34579,6,0,B|248:76,1,48.9999985046387
168,124,35050,1,0,0:0:0:0:
244,180,35364,2,0,P|288:196|308:256,1,97.9999970092774
244,308,35993,2,0,L|208:260,1,48.9999985046387
152,200,36464,2,0,L|96:204,1,48.9999985046387
80,288,36935,1,4,1:0:0:0:
304,288,37406,6,0,P|268:296|212:256,1,97.9999970092774
212,256,37877,2,0,P|200:220|212:156,1,97.9999970092774
264,80,38505,5,0,0:0:0:0:
360,96,38819,2,0,P|380:128|376:156,1,48.9999985046387
344,248,39290,2,0,P|288:268|244:240,1,97.9999970092774
192,140,39918,2,0,P|152:88|84:128,1,146.999995513916
84,240,40703,5,0,0:0:0:0:
164,144,41017,1,0,0:0:0:0:
272,184,41331,1,0,0:0:0:0:
328,284,41645,2,0,P|376:268|388:212,1,97.9999970092774
300,152,42274,1,0,0:0:0:0:
312,64,42588,2,0,P|360:40|404:80,1,97.9999970092774,0|0,0:0|2:0,0:0:0:0:
380,240,43216,6,0,B|336:256|336:256|272:256,1,97.9999970092774
188,216,43844,1,0,0:0:0:0:
176,88,44158,2,0,B|224:96|224:96|276:132,1,97.9999970092774
340,184,44786,1,0,0:0:0:0:
416,128,45100,2,0,P|380:80|336:52,1,97.9999970092774
252,100,45728,5,0,0:0:0:0:
228,200,46042,1,0,0:0:0:0:
328,168,46357,1,0,0:0:0:0:
296,76,46671,2,0,P|240:68|184:88,1,97.9999970092774
160,164,47299,1,0,0:0:0:0:
256,192,47613,1,0,0:0:0:0:
224,292,47927,2,0,L|120:288,1,97.9999970092774
256,192,48398,12,0,49183,0:0:0:0:
216,200,49497,5,12,1:0:0:0:
308,112,49811,1,12,1:0:0:0:
340,232,50125,1,0,0:0:0:0:
216,200,50439,1,0,0:0:0:0:
248,64,51381,5,4,1:0:0:0:
340,132,51696,2,0,P|312:216|256:236,1,140
164,236,52324,1,0,0:0:0:0:
140,144,52638,2,0,P|188:88|264:104,1,140
352,160,53266,2,0,P|400:116|360:40,1,140
248,40,53894,5,0,0:0:0:0:
148,48,54208,2,0,P|92:76|68:148,1,140
120,248,54836,1,0,0:0:0:0:
228,204,55151,2,0,P|248:176|244:128,1,70
228,204,55622,2,4,P|260:236|316:236,1,70,4|4,1:0|1:0,1:0:0:0:
348,120,56407,5,0,0:0:0:0:
276,196,56721,2,0,P|276:236|316:264,1,70
416,264,57192,2,0,P|448:224|436:192,1,70
376,92,57663,1,0,0:0:0:0:
344,224,57977,1,0,0:0:0:0:
212,180,58291,5,0,0:0:0:0:
344,136,58605,2,8,P|380:140|400:172,1,70,8|8,2:0|2:0,2:0:0:0:
400,280,59076,1,0,0:0:0:0:
276,280,59390,2,0,P|240:232|252:144,1,140
132,280,60017,5,0,0:0:0:0:
180,164,60331,1,0,0:0:0:0:
308,176,60645,2,0,P|348:128|296:64,1,140
308,64,61116,1,0,0:0:0:0:
160,208,61430,2,0,L|132:244,2,35
160,208,61744,1,0,0:0:0:0:
312,176,62058,5,0,0:0:0:0:
336,52,62372,2,0,P|388:68|424:152,1,140
412,268,63000,1,0,0:0:0:0:
272,276,63314,2,0,P|296:216|272:132,1,140
148,304,63942,5,0,0:0:0:0:
108,200,64257,2,0,P|96:136|140:68,1,140
248,60,64885,1,0,0:0:0:0:
368,84,65199,2,0,P|440:136|464:200,1,140
444,288,65827,2,0,P|392:312|292:316,1,140
200,248,66455,5,0,0:0:0:0:
124,144,66769,1,0,0:0:0:0:
276,124,67083,1,0,0:0:0:0:
180,52,67397,2,0,P|148:36|60:84,1,140
120,168,68025,2,0,P|144:188|148:224,1,70
152,232,68339,1,0,0:0:0:0:
268,272,68654,1,0,0:0:0:0:
344,160,68968,5,0,0:0:0:0:
240,92,69282,1,0,0:0:0:0:
144,184,69596,2,0,P|144:256|212:276,1,140
256,192,70224,12,0,71166,0:0:0:0:
424,180,71481,6,0,P|432:140|392:88,1,97.9999970092774
396,88,72108,1,0,0:0:0:0:
296,60,72422,1,0,0:0:0:0:
304,184,72736,2,0,P|260:148|208:144,1,97.9999970092774
144,196,73365,1,0,0:0:0:0:
224,256,73679,1,0,0:0:0:0:
332,232,73993,2,0,P|376:220|396:160,1,97.9999970092774
360,64,74621,5,0,0:0:0:0:
276,124,74935,1,0,0:0:0:0:
368,176,75249,2,0,P|404:224|396:276,1,97.9999970092774
316,288,75877,1,0,0:0:0:0:
352,188,76191,1,0,0:0:0:0:
368,84,76505,2,0,P|312:64|264:76,1,97.9999970092774
240,152,77133,2,0,P|280:208|296:248,1,97.9999970092774
392,248,77762,2,0,P|376:188|384:136,1,97.9999970092774
328,64,78390,1,0,0:0:0:0:
256,192,79018,12,8,80902,0:0:0:0:
256,192,81373,12,0,83258,0:0:0:0:
320,64,84043,5,0,0:0:0:0:
360,168,84357,2,0,L|360:220,2,48.9999985046387
264,168,84985,1,0,0:0:0:0:
168,176,85299,2,0,L|160:224,2,48.9999985046387
264,112,85927,2,0,P|320:128|356:168,1,97.9999970092774
424,200,86556,1,0,0:0:0:0:
424,112,86870,2,0,L|384:64,2,48.9999985046387
368,188,87498,6,0,P|336:240|288:260,1,97.9999970092774
224,224,88126,1,0,0:0:0:0:
212,140,88440,2,0,L|272:120,2,48.9999985046387
188,112,88911,2,0,P|248:148|276:224,1,146.999995513916
