osu file format v14

[General]
AudioFilename: audio.mp3
AudioLeadIn: 0
PreviewTime: 55054
Countdown: 0
SampleSet: Soft
StackLeniency: 0.4
Mode: 0
LetterboxInBreaks: 0
WidescreenStoryboard: 0

[Editor]
Bookmarks: 11495,14876,15123,23363,33997,44462,55011,65561,84111
DistanceSpacing: 0.6
BeatDivisor: 4
GridSize: 32
TimelineZoom: 2.3

[Metadata]
Title:Polaris (TV Size)
TitleUnicode:ポラリス (TV Size)
Artist:Hitorie
ArtistUnicode:ヒトリエ
Creator:Aro
Version:Sage Mode
Source:BORUTO-ボルト-NARUTO NEXT GENERATIONS
Tags:Naruto Boruto Uzumaki Anime Ending Mitsuki Sage Mode ED yShadowXOP_ Kowari WildCry Shunao Seria
BeatmapID:1810273
BeatmapSetID:865818

[Difficulty]
HPDrainRate:6
CircleSize:4
OverallDifficulty:9
ApproachRate:9.2
SliderMultiplier:2
SliderTickRate:1

[Events]
//Background and Video events
0,0,"bgimage.png",0,0
//Break Periods
2,22128,22788
//Storyboard Layer 0 (Background)
//Storyboard Layer 1 (Fail)
//Storyboard Layer 2 (Pass)
//Storyboard Layer 3 (Foreground)
//Storyboard Layer 4 (Overlay)
//Storyboard Sound Samples

[TimingPoints]
1030,329.67032967033,4,2,1,60,1,0
1030,-133.333333333333,4,2,1,60,0,0
6304,-133.333333333333,4,2,1,65,0,0
11249,-100,4,2,1,65,0,0
11579,-117.647058823529,4,2,1,75,0,0
20645,-1000,4,2,1,55,0,0
20810,-1000,4,2,1,25,0,0
21222,-1000,4,2,1,25,0,0
21799,-1000,4,2,1,25,0,0
23447,-100,4,2,1,60,0,0
33667,-181.818181818181,4,2,1,60,0,0
33997,-100,4,2,1,60,0,0
44216,-303.030303030303,4,2,1,50,0,0
44546,-62.5,4,2,1,70,0,1
55095,-133.333333333333,4,2,1,65,0,0
57733,-133.333333333333,4,2,1,50,0,0
58887,-133.333333333333,4,2,1,65,0,0
60370,-79.9999999999999,4,2,1,40,0,0
62019,-79.9999999999999,4,2,1,40,0,0
62348,-79.9999999999999,4,2,1,40,0,0
63008,-100,4,3,1,55,0,0
65150,-100,4,3,1,55,0,0
65562,-100,4,3,1,55,0,0
65645,-74.074074074074,4,2,1,100,0,1
84106,-100,4,2,1,75,0,1
85425,-100,4,2,1,65,0,0

[Colours]
Combo1 : 189,236,235
Combo2 : 209,191,234
Combo3 : 140,163,253
Combo4 : 196,142,143
Combo5 : 0,71,149

[HitObjects]
273,287,1030,70,0,L|347:281,1,75.0000028610231,0|0,3:0|2:0,0:0:0:0:
498,271,1359,2,0,L|423:276,1,75.0000028610231,0|0,3:0|0:0,0:0:0:0:
273,210,1689,2,0,L|347:204,1,75.0000028610231,0|0,3:0|0:0,0:0:0:0:
498,194,2018,2,0,L|423:199,1,75.0000028610231,0|0,3:0|0:0,0:0:0:0:
389,344,2348,5,0,3:0:0:0:
265,366,2513,2,0,P|215:348|196:295,1,112.500004291535
186,306,2843,2,0,L|112:312,1,75.0000028610231
60,246,3172,1,2,0:0:0:0:
174,166,3337,2,0,L|100:172,1,75.0000028610231,0|0,3:0|0:0,0:0:0:0:
213,92,3667,6,0,L|362:104,1,150.000005722046,0|0,3:0|0:0,0:0:0:0:
402,178,4161,1,0,2:0:0:0:
350,244,4326,2,0,L|200:231,1,150.000005722046,0|0,3:0|0:0,0:0:0:0:
412,181,4821,1,2,2:0:0:0:
475,236,4986,6,0,P|495:184|480:131,1,112.500004291535,0|0,3:0|0:0,0:0:0:0:
494,136,5315,2,0,L|513:63,2,75.0000028610231,0|0|0,3:0|2:0|0:0,0:0:0:0:
412,181,5810,1,2,2:0:0:0:
362,84,5975,2,0,L|249:93,1,112.500004291535,0|0,3:0|0:0,0:0:0:0:
261,83,6304,6,0,L|255:9,1,75.0000028610231,4|0,3:2|2:0,0:0:0:0:
232,163,6634,2,0,L|238:237,1,75.0000028610231,0|0,3:0|2:0,0:0:0:0:
180,74,6964,2,0,L|174:0,1,75.0000028610231,0|0,3:0|2:0,0:0:0:0:
153,186,7293,2,0,L|160:260,1,75.0000028610231,0|2,3:0|2:0,0:0:0:0:
99,65,7623,5,0,3:0:0:0:
232,163,7788,2,0,L|238:237,1,75.0000028610231
81,288,8117,2,0,L|71:176,1,112.500004291535
83,185,8447,1,2,2:0:0:0:
160,260,8612,2,0,L|167:334,1,75.0000028610231,0|0,3:0|2:0,0:0:0:0:
238,237,8942,6,0,L|225:87,1,150.000005722046,0|0,3:0|0:0,0:0:0:0:
291,35,9436,1,0,2:0:0:0:
365,75,9601,2,0,L|377:224,1,150.000005722046,0|0,3:0|0:0,0:0:0:0:
312,277,10095,1,0,2:0:0:0:
373,342,10260,6,0,P|319:328|268:350,1,112.500004291535,0|0,3:0|0:0,0:0:0:0:
276,363,10590,2,0,L|202:379,2,75.0000028610231,0|0|0,3:0|2:0|0:0,0:0:0:0:
156,307,11084,2,0,P|139:318|125:342,1,37.5000014305115,2|2,2:0|2:0,0:0:0:0:
77,384,11249,2,0,L|86:284,1,100,6|2,2:0|2:0,0:0:0:0:
50,160,11579,5,2,3:3:0:0:
41,143,11661,1,2,1:3:0:0:
38,122,11744,1,2,1:3:0:0:
39,106,11826,1,2,1:3:0:0:
44,90,11909,1,2,3:3:0:0:
123,121,12073,5,0,1:0:0:0:
111,40,12238,1,0,3:0:0:0:
144,214,12403,1,2,1:3:0:0:
144,214,12485,1,2,1:3:0:0:
144,214,12568,1,2,3:3:0:0:
207,129,12733,1,2,1:3:0:0:
35,195,12898,5,0,3:0:0:0:
123,121,13062,2,0,L|215:130,1,85.0000016212464,2|2,1:3|3:3,0:0:0:0:
111,40,13392,2,0,L|18:49,1,85.0000016212464,2|2,1:3|3:3,0:0:0:0:
35,195,13722,1,2,1:3:0:0:
195,51,13887,1,2,3:3:0:0:
26,48,14051,1,2,1:3:0:0:
94,140,14216,5,2,3:3:0:0:
114,142,14298,1,2,1:3:0:0:
136,144,14380,1,2,1:3:0:0:
156,146,14463,1,2,1:3:0:0:
179,148,14545,1,2,3:3:0:0:
241,79,14711,1,2,1:3:0:0:
227,226,14876,1,2,3:3:0:0:
296,158,15040,2,0,L|338:160,2,42.5000008106232,2|2|2,1:3|1:3|1:3,0:0:0:0:
227,226,15370,1,2,1:3:0:0:
163,134,15535,5,2,3:3:0:0:
129,231,15700,1,2,1:3:0:0:
240,319,15865,1,2,3:3:0:0:
227,226,16030,2,0,L|248:313,1,85.0000016212464,0|0,1:0|0:0,0:0:0:0:
167,351,16359,1,2,1:3:0:0:
162,357,16442,1,2,0:3:0:0:
157,363,16524,2,0,L|102:373,2,42.5000008106232,2|2|2,3:3|1:3|1:3,0:0:0:0:
247,308,16854,5,2,3:3:0:0:
268,308,16936,1,2,1:3:0:0:
290,308,17018,1,2,1:3:0:0:
313,308,17101,1,2,1:3:0:0:
334,308,17183,1,2,3:3:0:0:
421,244,17348,5,0,1:0:0:0:
326,215,17513,1,0,3:0:0:0:
428,346,17678,1,2,1:3:0:0:
428,346,17760,1,2,1:3:0:0:
428,346,17843,1,2,3:3:0:0:
507,266,18008,1,2,1:3:0:0:
472,42,18172,5,0,3:0:0:0:
326,215,18337,1,2,1:3:0:0:
503,246,18502,1,2,3:3:0:0:
458,55,18667,2,0,P|399:77|364:129,1,127.50000243187,2|0,1:3|0:0,0:0:0:0:
421,244,18997,1,2,1:3:0:0:
451,147,19161,1,2,3:3:0:0:
326,215,19326,1,0,1:0:0:0:
256,163,19491,5,4,3:1:0:0:
238,187,19573,1,2,0:3:0:0:
232,217,19655,1,2,1:3:0:0:
239,247,19738,1,2,0:3:0:0:
258,271,19820,1,2,3:3:0:0:
326,215,19986,1,0,1:0:0:0:
174,127,20150,1,0,3:0:0:0:
149,260,20315,1,2,1:3:0:0:
149,260,20397,1,2,0:3:0:0:
149,260,20479,1,2,3:3:0:0:
67,172,20645,6,0,L|31:166,2,35,2|0|0,1:3|0:0|0:0,0:0:0:0:
39,68,23447,5,2,3:3:0:0:
87,57,23529,1,2,1:3:0:0:
136,47,23611,1,2,1:3:0:0:
185,37,23694,1,2,1:3:0:0:
235,29,23777,1,2,3:3:0:0:
150,191,23942,1,2,1:3:0:0:
39,68,24106,1,2,3:3:0:0:
196,111,24271,1,2,1:3:0:0:
83,255,24436,2,0,P|57:213|63:164,1,100,2|0,3:3|0:0,0:0:0:0:
166,270,24766,5,2,3:3:0:0:
150,317,24848,1,2,1:3:0:0:
106,341,24930,1,2,1:3:0:0:
55,345,25013,1,2,1:3:0:0:
12,319,25095,1,2,3:3:0:0:
150,190,25260,2,0,P|199:192|240:219,1,100,2|0,1:3|0:0,0:0:0:0:
83,255,25590,1,2,1:3:0:0:
55,213,25672,1,2,1:3:0:0:
53,164,25754,1,2,3:3:0:0:
84,124,25837,1,2,1:3:0:0:
128,100,25920,1,2,1:3:0:0:
154,57,26002,1,2,1:3:0:0:
153,7,26084,6,0,L|272:18,1,100,2|0,3:3|0:0,0:0:0:0:
346,100,26332,1,2,1:3:0:0:
346,100,26414,2,0,L|395:104,1,50,2|0,3:3|0:0,0:0:0:0:
509,73,26579,1,2,1:3:0:0:
393,218,26744,1,0,3:0:0:0:
396,104,26909,2,0,L|402:203,1,100,0|0,1:0|0:0,0:0:0:0:
510,278,27238,1,0,1:0:0:0:
427,370,27403,5,2,3:3:0:0:
376,373,27485,1,2,1:3:0:0:
326,376,27567,1,2,1:3:0:0:
276,380,27650,1,2,1:3:0:0:
226,384,27733,1,2,3:3:0:0:
96,295,27898,1,2,1:3:0:0:
142,276,27980,1,2,1:3:0:0:
191,282,28062,1,2,3:3:0:0:
238,298,28145,1,2,1:3:0:0:
285,284,28227,1,2,1:3:0:0:
251,100,28392,2,0,L|241:201,1,100,0|0,3:0|0:0,0:0:0:0:
192,38,28722,5,2,3:3:0:0:
232,11,28804,1,2,1:3:0:0:
283,16,28887,1,2,1:3:0:0:
319,49,28969,1,2,1:3:0:0:
332,97,29051,2,0,L|459:86,1,100,2|0,3:3|0:0,0:0:0:0:
507,18,29381,1,0,3:0:0:0:
453,165,29546,1,2,1:3:0:0:
407,12,29711,1,2,3:3:0:0:
477,241,29876,1,2,1:3:0:0:
417,237,29958,1,2,1:3:0:0:
372,195,30040,6,0,P|368:171|371:146,1,50,2|2,3:3|1:3,0:0:0:0:
234,176,30205,2,0,P|227:194|224:225,1,50,2|2,1:3|1:3,0:0:0:0:
316,309,30370,1,2,3:3:0:0:
199,322,30535,5,2,1:3:0:0:
149,326,30617,1,2,1:3:0:0:
99,330,30699,1,2,3:3:0:0:
49,335,30782,1,2,1:3:0:0:
0,339,30864,1,2,1:3:0:0:
65,225,31030,1,0,3:0:0:0:
199,322,31194,1,0,1:0:0:0:
155,187,31359,5,2,3:3:0:0:
136,158,31441,1,2,1:3:0:0:
108,138,31523,1,2,1:3:0:0:
75,128,31606,1,2,1:3:0:0:
40,130,31688,1,2,3:3:0:0:
120,27,31854,1,0,1:0:0:0:
155,187,32019,1,2,3:3:0:0:
219,59,32184,1,2,1:3:0:0:
243,56,32266,1,2,1:3:0:0:
268,53,32348,1,2,3:3:0:0:
293,50,32431,1,0,1:0:0:0:
318,47,32513,1,0,1:0:0:0:
300,196,32678,5,0,3:0:0:0:
378,130,32843,1,2,1:3:0:0:
392,133,32925,1,2,1:3:0:0:
406,136,33007,1,2,3:3:0:0:
421,139,33090,1,2,1:3:0:0:
435,142,33172,1,2,1:3:0:0:
449,144,33255,1,2,1:3:0:0:
463,147,33337,1,2,3:3:0:0:
477,150,33420,1,2,1:3:0:0:
491,153,33502,1,2,1:3:0:0:
512,240,33667,6,0,L|503:294,1,55.0000016784668,0|0,3:3|0:0,0:0:0:0:
422,361,33997,5,2,3:3:0:0:
372,361,34079,1,2,1:3:0:0:
322,363,34161,1,2,1:3:0:0:
272,367,34244,1,2,1:3:0:0:
222,373,34326,1,2,3:3:0:0:
154,202,34491,1,2,1:3:0:0:
92,303,34656,1,2,3:3:0:0:
12,195,34821,1,2,1:3:0:0:
10,170,34903,1,2,1:3:0:0:
8,145,34985,1,2,3:3:0:0:
88,58,35151,1,0,1:0:0:0:
256,168,35315,5,2,3:3:0:0:
177,120,35480,1,2,1:3:0:0:
215,89,35562,1,2,1:3:0:0:
264,80,35644,1,2,3:3:0:0:
311,95,35727,1,2,1:3:0:0:
345,131,35809,1,2,1:3:0:0:
367,177,35892,1,0,1:0:0:0:
403,212,35975,1,0,3:0:0:0:
452,220,36057,1,0,1:0:0:0:
499,205,36139,1,2,1:3:0:0:
445,11,36304,1,2,3:3:0:0:
437,134,36469,1,2,1:3:0:0:
314,16,36634,5,2,3:3:0:0:
265,13,36716,1,2,1:3:0:0:
214,12,36798,1,2,1:3:0:0:
164,9,36881,1,2,1:3:0:0:
114,9,36963,1,2,3:3:0:0:
16,83,37128,1,2,1:3:0:0:
119,159,37293,1,0,3:0:0:0:
33,254,37458,1,0,1:0:0:0:
35,279,37540,1,0,1:0:0:0:
37,304,37622,1,0,3:0:0:0:
143,382,37788,1,0,1:0:0:0:
266,242,37953,5,2,3:3:0:0:
175,254,38117,1,2,1:3:0:0:
194,299,38199,1,2,1:3:0:0:
235,328,38281,1,2,3:3:0:0:
284,332,38364,1,2,1:3:0:0:
328,311,38446,1,2,1:3:0:0:
356,271,38529,1,2,1:3:0:0:
363,220,38612,1,2,3:3:0:0:
340,175,38694,1,2,1:3:0:0:
293,154,38777,1,2,1:3:0:0:
236,0,38942,1,0,3:0:0:0:
195,165,39106,1,0,1:0:0:0:
378,87,39271,5,2,3:3:0:0:
512,144,39436,1,2,1:3:0:0:
512,194,39518,1,2,1:3:0:0:
510,244,39600,1,2,3:3:0:0:
506,294,39683,1,2,1:3:0:0:
500,344,39765,1,2,1:3:0:0:
413,214,39931,1,0,3:0:0:0:
463,58,40095,1,2,1:3:0:0:
429,21,40177,1,2,1:3:0:0:
382,7,40259,1,2,3:3:0:0:
334,16,40342,1,2,1:3:0:0:
297,49,40424,1,2,1:3:0:0:
284,332,40590,5,2,3:3:0:0:
44,224,40755,1,2,1:3:0:0:
33,168,40837,1,2,1:3:0:0:
59,117,40920,1,2,3:3:0:0:
112,101,41002,1,2,1:3:0:0:
168,106,41084,1,2,1:3:0:0:
219,129,41167,1,2,1:3:0:0:
273,143,41249,1,2,3:3:0:0:
329,137,41332,1,2,1:3:0:0:
376,107,41414,1,2,1:3:0:0:
283,47,41579,1,0,3:0:0:0:
137,222,41744,1,0,1:0:0:0:
59,117,41909,5,2,3:3:0:0:
57,92,41991,1,2,1:3:0:0:
56,67,42073,1,2,1:3:0:0:
176,0,42238,1,2,3:3:0:0:
219,129,42403,1,0,1:0:0:0:
137,222,42568,1,2,3:3:0:0:
112,220,42650,1,2,1:3:0:0:
86,220,42732,1,2,1:3:0:0:
226,305,42898,1,2,3:3:0:0:
219,148,43062,1,0,1:0:0:0:
343,254,43227,5,0,3:0:0:0:
413,125,43392,1,2,1:3:0:0:
454,149,43474,1,2,1:3:0:0:
462,196,43556,1,2,3:3:0:0:
434,236,43639,1,2,1:3:0:0:
387,243,43721,1,2,1:3:0:0:
343,254,43804,1,2,1:3:0:0:
318,286,43887,1,2,3:3:0:0:
315,320,43969,1,2,1:3:0:0:
328,346,44051,1,2,1:3:0:0:
346,369,44134,1,2,1:3:0:0:
384,388,44216,6,0,P|407:386|431:375,1,49.499999848938,12|0,1:3|0:0,0:0:0:0:
444,363,44546,6,0,L|459:285,1,80,0|0,3:0|0:0,0:0:0:0:
382,239,44711,2,0,L|368:318,1,80,0|0,1:0|0:0,0:0:0:0:
283,342,44876,2,0,L|298:264,1,80,0|0,3:0|0:0,0:0:0:0:
221,218,45041,2,0,L|207:297,1,80,0|0,1:0|0:0,0:0:0:0:
135,347,45205,2,0,L|57:333,1,80,0|0,3:0|0:0,0:0:0:0:
54,245,45370,2,0,L|133:260,1,80,0|0,1:0|0:0,0:0:0:0:
131,173,45535,2,0,L|52:158,1,80,0|0,3:0|0:0,0:0:0:0:
50,71,45700,2,0,L|128:85,1,80,0|0,1:0|0:0,0:0:0:0:
187,30,45865,54,0,B|223:15|223:15|203:135,1,160,0|0,3:0|1:0,0:0:0:0:
299,44,46112,1,0,1:0:0:0:
299,44,46194,2,0,L|377:58,1,80,0|0,3:0|0:0,0:0:0:0:
493,147,46359,2,0,L|415:133,1,80,0|0,1:0|0:0,0:0:0:0:
284,190,46524,2,0,L|362:204,1,80,0|0,3:0|0:0,0:0:0:0:
442,217,46689,1,0,1:0:0:0:
240,106,46854,1,0,3:0:0:0:
498,382,47183,6,0,L|512:304,1,80,4|0,3:1|0:0,0:0:0:0:
416,379,47348,2,0,L|430:301,1,80,0|0,1:0|0:0,0:0:0:0:
334,376,47513,1,0,3:0:0:0:
252,213,47678,54,0,L|238:135,1,80,0|0,1:0|0:0,0:0:0:0:
335,210,47843,2,0,L|321:132,1,80,0|0,3:0|0:0,0:0:0:0:
418,207,48008,1,0,1:0:0:0:
103,258,48173,6,0,L|25:244,1,80,0|0,3:0|0:0,0:0:0:0:
174,199,48337,2,0,L|252:213,1,80,0|0,1:0|0:0,0:0:0:0:
15,164,48502,1,0,3:0:0:0:
313,115,48666,1,0,1:0:0:0:
82,97,48832,2,0,L|4:83,1,80,0|0,3:0|0:0,0:0:0:0:
159,37,48996,2,0,L|237:51,1,80,0|0,1:0|0:0,0:0:0:0:
476,90,49161,1,0,3:0:0:0:
476,90,49244,2,0,L|398:104,1,80,0|0,1:0|0:0,0:0:0:0:
316,119,49409,1,0,1:0:0:0:
316,119,49491,1,0,3:0:0:0:
389,256,49821,6,0,L|375:178,1,80,4|0,3:1|0:0,0:0:0:0:
461,189,49986,2,0,L|475:267,1,80,0|0,1:0|0:0,0:0:0:0:
304,250,50150,2,0,L|290:172,1,80,0|0,3:0|0:0,0:0:0:0:
389,256,50315,2,0,B|410:370|410:370|429:330,1,160,0|0,1:0|0:0,0:0:0:0:
318,328,50562,1,0,1:0:0:0:
318,328,50645,2,0,L|304:250,1,80,0|0,1:0|0:0,0:0:0:0:
211,199,50810,2,0,L|225:277,1,80,0|0,3:0|0:0,0:0:0:0:
240,359,50975,1,0,1:0:0:0:
280,108,51139,53,0,3:0:0:0:
121,167,51304,1,0,1:0:0:0:
345,3,51469,2,0,L|359:81,1,80,0|0,3:0|0:0,0:0:0:0:
294,186,51634,2,0,L|280:108,1,80,0|0,1:0|0:0,0:0:0:0:
438,55,51799,2,0,L|452:133,1,80,0|0,3:0|0:0,0:0:0:0:
387,238,51964,2,0,L|373:160,1,80,0|0,1:0|0:0,0:0:0:0:
466,211,52128,1,0,3:0:0:0:
265,343,52458,6,0,L|187:329,1,80,4|0,3:1|0:0,0:0:0:0:
30,301,52623,2,0,L|108:315,1,80,0|0,1:0|0:0,0:0:0:0:
277,266,52788,2,0,L|199:252,1,80,0|0,3:0|0:0,0:0:0:0:
42,224,52953,2,0,L|120:238,1,80,0|0,1:0|0:0,0:0:0:0:
146,82,53117,2,0,L|132:160,1,80,0|0,3:0|0:0,0:0:0:0:
186,328,53282,2,0,L|199:248,1,80,0|0,1:0|0:0,0:0:0:0:
226,93,53447,2,0,L|212:171,1,80,0|0,3:0|0:0,0:0:0:0:
265,343,53612,2,0,L|279:265,1,80,0|0,1:0|0:0,0:0:0:0:
321,31,53777,53,0,3:0:0:0:
385,204,53942,1,0,1:0:0:0:
385,124,54106,2,0,L|307:110,1,80,0|0,3:0|0:0,0:0:0:0:
402,46,54271,2,0,L|480:60,1,80,0|0,1:0|0:0,0:0:0:0:
385,204,54436,2,0,L|307:218,1,80,0|0,3:0|0:0,0:0:0:0:
402,282,54601,2,0,L|480:268,1,80,0|0,1:0|0:0,0:0:0:0:
219,165,54766,5,0,3:0:0:0:
204,177,55095,22,0,P|161:182|128:207,1,75.0000028610231,0|0,1:0|0:0,0:0:0:0:
196,257,55425,2,0,P|239:262|272:287,1,75.0000028610231,0|0,1:0|0:0,0:0:0:0:
209,339,55755,2,0,P|166:344|133:369,1,75.0000028610231,0|0,1:0|0:0,0:0:0:0:
286,354,56084,1,0,1:0:0:0:
363,240,56249,6,0,B|344:276|363:312|363:312|380:349|363:385,1,150.000005722046,0|0,1:0|0:0,0:0:0:0:
440,278,56744,1,0,1:0:0:0:
312,174,56909,1,0,1:0:0:0:
311,174,57073,2,0,P|374:159|428:184,1,112.500004291535,0|0,1:0|0:0,0:0:0:0:
431,188,57403,1,0,1:0:0:0:
363,240,57568,1,0,1:0:0:0:
258,108,57733,5,0,1:0:0:0:
226,185,57898,1,0,1:0:0:0:
181,76,58062,1,0,1:0:0:0:
149,153,58227,1,0,1:0:0:0:
258,108,58392,1,0,1:0:0:0:
101,86,58557,1,0,1:0:0:0:
243,28,58722,1,0,1:0:0:0:
165,231,58887,6,0,L|159:305,1,75.0000028610231,0|0,1:0|0:0,0:0:0:0:
228,362,59216,1,0,1:0:0:0:
59,198,59381,1,0,1:0:0:0:
249,236,59546,1,0,1:0:0:0:
88,356,59711,1,0,1:0:0:0:
329,266,59876,1,0,1:0:0:0:
59,274,60040,2,0,P|86:249|122:238,1,75.0000028610231,0|0,1:0|0:0,0:0:0:0:
457,300,60370,5,4,3:1:0:0:
148,384,60535,1,4,3:1:0:0:
433,232,60700,1,4,3:1:0:0:
124,316,60865,1,4,3:1:0:0:
412,160,61029,1,4,3:1:0:0:
103,245,61194,1,4,3:1:0:0:
388,87,61359,1,4,3:1:0:0:
79,171,61524,1,4,3:1:0:0:
360,13,61689,1,4,3:1:0:0:
51,97,61854,1,4,3:1:0:0:
291,297,62019,6,0,L|312:355,1,62.5,4|0,3:1|0:0,0:0:0:0:
216,81,62183,2,0,L|195:21,1,62.5,4|0,3:1|0:0,0:0:0:0:
182,274,62348,6,0,L|142:322,1,62.5,4|0,3:1|0:0,0:0:0:0:
332,101,62512,2,0,L|373:54,1,62.5,4|0,3:1|0:0,0:0:0:0:
147,169,62678,6,0,L|86:158,1,62.5,4|0,3:1|0:0,0:0:0:0:
372,212,62842,2,0,L|433:224,1,62.5,4|0,3:1|0:0,0:0:0:0:
216,210,63008,5,8,0:0:0:0:
259,148,63173,1,0,0:0:0:0:
291,216,63337,1,0,1:0:0:0:
185,142,63502,5,8,0:0:0:0:
333,155,63667,1,0,1:0:0:0:
248,277,63831,1,0,1:0:0:0:
266,69,63997,5,8,0:0:0:0:
356,262,64161,1,0,0:0:0:0:
144,243,64326,1,0,1:0:0:0:
404,122,64491,5,8,0:0:0:0:
241,355,64656,1,0,1:0:0:0:
121,97,64821,1,0,1:0:0:0:
364,339,64986,5,8,0:0:0:0:
202,9,65151,1,4,3:1:0:0:
97,169,65645,6,0,P|61:224|80:287,1,135.000000514984,4|0,3:1|0:2,0:0:0:0:
366,217,65975,1,8,0:2:0:0:
149,234,66139,1,2,0:2:0:0:
398,296,66304,2,0,B|448:265|448:265|435:54,1,270.000001029968,0|0,3:0|0:0,0:0:0:0:
234,71,66799,1,2,0:2:0:0:
309,289,66964,5,0,3:0:0:0:
443,33,67128,1,2,0:2:0:0:
252,86,67293,1,8,0:2:0:0:
382,250,67458,1,2,0:2:0:0:
453,8,67623,1,0,3:0:0:0:
368,218,67788,1,2,0:2:0:0:
234,71,67953,2,0,B|217:60|190:73|187:98|187:98|182:239,1,202.500000772476,8|0,0:2|0:0,0:0:0:0:
154,268,68282,6,0,L|159:134,1,135.000000514984,0|0,3:0|0:2,0:0:0:0:
86,0,68612,1,8,0:2:0:0:
50,198,68777,1,2,0:2:0:0:
234,71,68942,2,0,L|503:39,1,270.000001029968,0|0,3:0|0:0,0:0:0:0:
344,232,69436,1,2,0:2:0:0:
475,124,69601,5,0,3:0:0:0:
493,332,69766,1,2,0:2:0:0:
277,173,69931,2,0,P|250:234|277:294,1,135.000000514984,8|2,0:2|0:2,0:0:0:0:
508,358,70260,1,0,3:0:0:0:
340,353,70425,1,2,3:2:0:0:
504,143,70590,2,0,P|462:59|360:67,1,202.500000772476,8|0,3:2|0:0,0:0:0:0:
329,73,70920,6,0,P|379:29|449:38,1,135.000000514984,4|2,3:1|0:2,0:0:0:0:
410,147,71249,1,8,0:2:0:0:
246,21,71414,1,2,0:2:0:0:
218,233,71579,2,0,B|259:296|259:296|453:279,1,270.000001029968,0|0,3:0|0:0,0:0:0:0:
302,196,72073,1,2,0:2:0:0:
511,155,72238,5,0,3:0:0:0:
479,365,72403,1,2,0:2:0:0:
410,146,72568,2,0,P|368:94|304:77,1,135.000000514984,8|0,3:2|0:0,0:0:0:0:
117,218,72898,1,0,3:0:0:0:
302,196,73062,1,2,0:2:0:0:
209,20,73227,2,0,B|96:-19|121:84|20:34,1,202.500000772476,8|0,0:2|0:0,0:0:0:0:
5,48,73557,6,0,L|-2:183,1,135.000000514984,0|0,3:0|0:0,0:0:0:0:
99,327,73887,1,8,0:2:0:0:
123,126,74051,1,2,0:2:0:0:
0,337,74216,2,0,B|33:377|33:377|249:351,1,270.000001029968,0|0,3:0|0:0,0:0:0:0:
337,253,74711,1,2,0:2:0:0:
201,132,74876,5,0,3:0:0:0:
343,301,75040,1,2,0:2:0:0:
463,79,75205,1,8,0:2:0:0:
176,117,75370,1,2,0:2:0:0:
387,378,75535,5,2,3:3:0:0:
420,345,75617,1,2,0:3:0:0:
437,301,75699,1,2,0:3:0:0:
433,254,75782,1,2,0:3:0:0:
410,213,75865,5,2,3:3:0:0:
350,219,75947,1,2,0:3:0:0:
289,224,76029,1,2,0:3:0:0:
229,230,76112,1,2,0:3:0:0:
169,238,76194,6,0,L|34:253,1,135.000000514984,4|0,3:1|0:2,0:0:0:0:
187,159,76524,1,8,0:2:0:0:
108,339,76689,1,2,0:2:0:0:
0,175,76854,2,0,L|21:32,1,135.000000514984,0|0,3:0|0:0,0:0:0:0:
187,159,77183,1,8,0:2:0:0:
202,0,77348,1,2,0:2:0:0:
94,171,77513,5,0,3:0:0:0:
303,89,77678,1,2,0:2:0:0:
98,0,77843,1,8,0:2:0:0:
222,228,78008,1,2,0:2:0:0:
369,143,78172,2,0,P|389:80|361:21,1,135.000000514984,0|2,3:0|0:2,0:0:0:0:
483,80,78502,2,0,P|456:184|379:249,1,202.500000772476,8|0,0:2|0:0,0:0:0:0:
349,260,78832,6,0,P|415:247|458:197,1,135.000000514984,0|2,3:0|0:2,0:0:0:0:
294,143,79161,1,8,0:2:0:0:
255,351,79326,1,2,0:2:0:0:
41,195,79491,2,0,L|48:329,1,135.000000514984,0|2,3:0|0:2,0:0:0:0:
147,176,79821,1,8,0:2:0:0:
155,331,79986,1,2,0:2:0:0:
233,114,80150,5,0,3:0:0:0:
41,195,80315,1,2,0:2:0:0:
91,51,80480,1,8,0:2:0:0:
179,251,80645,1,2,0:2:0:0:
295,56,80810,2,0,P|236:27|176:54,1,135.000000514984,0|2,3:0|3:2,0:0:0:0:
348,141,81139,2,0,P|441:165|499:89,1,202.500000772476,8|0,3:2|0:0,0:0:0:0:
509,64,81469,6,0,L|503:198,1,135.000000514984,4|2,3:1|0:2,0:0:0:0:
269,373,81799,1,8,0:2:0:0:
348,141,81964,1,2,0:2:0:0:
434,313,82128,2,0,B|391:359|391:359|185:342,1,270.000001029968,0|0,3:0|0:2,0:0:0:0:
348,141,82623,1,2,0:2:0:0:
512,364,82788,5,0,3:0:0:0:
349,273,82953,1,2,0:2:0:0:
469,190,83117,2,0,P|442:224|434:314,1,135.000000514984,8|2,0:2|0:2,0:0:0:0:
463,93,83447,1,0,3:0:0:0:
349,273,83612,1,2,0:2:0:0:
380,144,83777,2,0,P|319:67|221:57,1,202.500000772476,8|0,0:2|0:0,0:0:0:0:
212,82,84106,6,0,P|255:65|304:82,1,100,0|2,3:0|0:2,0:0:0:0:
256,242,84436,1,8,0:2:0:0:
256,142,84601,1,2,0:2:0:0:
304,301,84767,2,0,P|258:318|212:302,1,100,0|2,3:0|0:2,0:0:0:0:
325,191,85095,1,8,0:2:0:0:
186,191,85260,1,2,0:2:0:0:
282,95,85425,53,2,3:3:0:0:
298,69,85508,1,2,0:3:0:0:
292,39,85590,1,2,0:3:0:0:
269,20,85672,1,2,0:3:0:0:
240,20,85755,1,2,3:3:0:0:
216,39,85837,1,2,0:3:0:0:
211,69,85920,1,2,0:3:0:0:
226,95,86002,1,2,0:3:0:0:
254,105,86084,5,2,3:3:0:0:
272,112,86167,1,2,0:3:0:0:
278,129,86249,1,2,0:3:0:0:
272,146,86332,1,2,0:3:0:0:
254,154,86414,1,2,3:3:0:0:
237,146,86497,1,2,0:3:0:0:
230,129,86579,1,2,0:3:0:0:
237,112,86661,1,2,0:3:0:0:
254,105,86744,53,2,3:3:0:0:
