osu file format v14

[General]
AudioFilename: audio.mp3
AudioLeadIn: 0
PreviewTime: 41934
Countdown: 0
SampleSet: Soft
StackLeniency: 0.3
Mode: 0
LetterboxInBreaks: 0
WidescreenStoryboard: 1

[Editor]
Bookmarks: 1737,11195,20653,25382,27746,32475,39569,41934,60849,67943,75037,77106,84200,88929
DistanceSpacing: 0.9
BeatDivisor: 4
GridSize: 32
TimelineZoom: 1.8

[Metadata]
Title:3-pun 29-byou (TV Size)
TitleUnicode:3分29秒 (TV Size)
Artist:hitorie
ArtistUnicode:ヒトリエ​
Creator:Ohwow
Version:Normal
Source:86―エイティシックス―
Tags:opening op japanese anime 86 eighty six eighty-six rock jrock j-rock 3:29 3 minutes 29 seconds
BeatmapID:2961973
BeatmapSetID:1438780

[Difficulty]
HPDrainRate:3
CircleSize:3.2
OverallDifficulty:4
ApproachRate:5
SliderMultiplier:1
SliderTickRate:1

[Events]
//Background and Video events
0,0,"bg.jpg",0,0
Video,0,"video.mp4"
//Break Periods
2,1942,5271
//Storyboard Layer 0 (Background)
//Storyboard Layer 1 (Fail)
//Storyboard Layer 2 (Pass)
//Storyboard Layer 3 (Foreground)
//Storyboard Layer 4 (Overlay)
//Storyboard Sound Samples

[TimingPoints]
560,295.566502463054,4,2,1,60,1,0
560,-100,4,2,1,60,0,0
1742,-100,4,2,1,60,0,0
6471,-100,4,2,1,70,0,0
8835,-100,4,2,1,70,0,0
11200,-100,4,2,1,75,0,0
20658,-100,4,2,1,60,0,0
32481,-100,4,2,1,60,0,0
39279,-100,4,2,1,70,0,0
39500,-100,4,2,1,5,0,0
39574,-100,4,2,1,70,0,0
41939,-100,4,2,1,80,0,1
60855,-100,4,2,1,60,0,0
67949,-100,4,2,1,70,0,0
76816,-100,4,2,1,70,0,0
77111,295.566502463054,4,2,1,70,1,0
77111,-100,4,2,1,70,0,0
84204,279.06976744186,4,2,1,70,1,0
84204,-100,4,2,1,70,0,0
84622,298.507462686567,4,2,1,70,1,0
84622,-100,4,2,1,70,0,0
86444,295.566502463054,4,2,1,70,1,0
87180,279.06976744186,4,2,1,70,1,0
87180,-100,4,2,1,70,0,0
87598,298.507462686567,4,2,1,70,1,0
87598,-100,4,2,1,70,0,0

[Colours]
Combo1 : 223,189,117
Combo2 : 100,216,236
Combo3 : 60,85,204
Combo4 : 170,192,196

[HitObjects]
105,293,560,6,0,P|57:305|7:308,2,100,8|4|0,0:3|0:3|3:0,0:0:0:0:
145,274,1298,2,0,P|149:249|157:225,2,50,8|8|8,0:0|0:0|0:0,0:0:0:0:
181,300,1742,1,2,0:0:0:0:
462,212,6471,6,0,L|480:310,1,100,4|0,3:2|0:0,0:0:0:0:
392,329,7062,2,0,L|372:230,1,100,0|8,0:0|0:0,0:0:0:0:
397,144,7653,2,0,P|370:134|340:135,1,50,0|8,3:0|0:0,0:0:0:0:
307,134,7949,1,0,3:0:0:0:
307,134,8096,2,0,B|271:155|271:155|193:141,1,100,0|8,0:0|0:0,0:0:0:0:
128,131,8688,1,8,0:0:0:0:
128,131,8835,6,0,B|121:197|121:197|133:224|133:224|128:277,1,150,4|4,3:2|3:1,0:0:0:0:
220,376,9722,2,0,B|224:322|224:322|212:295|212:295|219:229,1,150,4|4,3:2|3:1,0:0:0:0:
360,83,11200,6,0,L|365:33,2,50,4|0|8,3:2|3:0|0:0,0:0:0:0:
394,112,11643,2,0,P|421:150|410:215,1,100,4|8,3:1|0:0,0:0:0:0:
396,243,12087,1,8,0:0:0:0:
396,243,12234,1,8,0:0:0:0:
318,197,12530,1,4,3:2:0:0:
234,229,12826,2,0,B|210:246|210:246|202:322,1,100,4|8,3:1|0:0,0:0:0:0:
199,361,13269,1,8,0:0:0:0:
109,349,13564,6,0,L|59:354,2,50,4|0|8,3:2|3:0|0:0,0:0:0:0:
117,304,14008,2,0,B|128:204,1,100,4|8,3:1|0:0,0:0:0:0:
133,163,14451,1,8,0:0:0:0:
133,163,14599,1,8,0:0:0:0:
67,101,14894,1,4,3:2:0:0:
126,33,15190,2,0,P|181:28|233:57,1,100,4|8,3:1|0:0,0:0:0:0:
252,77,15633,1,8,0:0:0:0:
333,116,15929,6,0,P|357:113|381:120,2,50,4|0|8,3:2|3:0|0:0,0:0:0:0:
315,157,16372,2,0,B|300:227|300:227|324:256,1,100,4|8,3:1|0:0,0:0:0:0:
355,284,16816,1,8,0:0:0:0:
355,284,16963,1,8,0:0:0:0:
439,253,17259,1,4,3:2:0:0:
424,163,17555,2,0,P|437:114|441:65,1,100,4|8,3:1|0:0,0:0:0:0:
420,24,17998,2,0,P|380:17|357:25,1,50,8|8,0:0|0:0,0:0:0:0:
340,51,18293,6,0,B|292:42|292:42|273:52|273:52|194:36,1,150,4|4,3:2|3:1,0:0:0:0:
102,134,19180,2,0,B|150:143|150:143|169:133|169:133|248:149,1,150,4|4,3:2|3:1,0:0:0:0:
378,9,20658,6,0,L|391:108,1,100,4|0,3:2|1:0,0:0:0:0:
455,170,21249,2,0,L|441:269,1,100,0|0,1:0|1:0,0:0:0:0:
391,344,21840,2,0,P|344:360|295:351,1,100,2|0,1:2|1:0,0:0:0:0:
260,322,22284,2,0,L|272:208,2,100,2|2|2,0:0|3:2|3:2,0:0:0:0:
218,340,23023,6,0,P|183:339|123:363,1,100,0|0,3:0|1:0,0:0:0:0:
44,318,23614,2,0,P|45:283|21:223,1,100,0|0,1:0|1:0,0:0:0:0:
57,140,24205,2,0,B|116:130|106:150|156:142,1,100,2|0,1:2|1:0,0:0:0:0:
194,117,24648,2,0,P|249:114|294:155,1,100,2|2,0:0|0:0,0:0:0:0:
310,175,25092,1,0,3:0:0:0:
442,147,25535,6,8,B|455:71|455:71|442:52,2,100,8|4|10,0:3|0:3|0:0,0:3:0:0:
424,236,26422,2,8,B|411:312|411:312|423:331,2,100,8|4|10,0:3|0:3|0:0,0:3:0:0:
354,179,27308,2,0,B|362:130,2,50,8|8|0,0:0|0:0|3:0,0:0:0:0:
312,196,27752,1,4,3:2:0:0:
58,354,28934,6,0,P|59:304|78:258,1,100,2|0,1:2|1:2,0:0:0:0:
112,229,29377,2,0,P|110:179|91:133,1,100,2|2,0:0|3:2,0:0:0:0:
62,97,29821,1,0,0:0:0:0:
131,39,30116,2,0,L|239:53,1,100,0|0,3:0|1:0,0:0:0:0:
298,110,30707,2,0,L|397:97,1,100,0|0,1:0|1:0,0:0:0:0:
476,139,31298,6,0,P|492:186|482:245,1,100,2|0,1:2|3:0,0:0:0:0:
456,269,31742,1,2,0:0:0:0:
456,269,31890,2,0,P|407:259|361:221,1,100,8|4,3:3|0:3,0:0:0:0:
290,183,32481,5,4,3:2:0:0:
222,241,32776,1,0,3:0:0:0:
138,206,33072,2,0,L|113:91,1,100,8|2,0:0|0:0,0:0:0:0:
138,20,33663,2,0,P|88:18|46:44,2,100,0|0|8,3:0|3:0|0:0,0:0:0:0:
218,60,34550,1,2,0:0:0:0:
293,10,34845,6,0,B|364:2|364:2|399:27,1,100,2|2,3:2|3:0,0:0:0:0:
427,50,35289,1,0,0:0:0:0:
427,50,35436,2,0,L|415:158,1,100,10|0,0:0|0:0,0:0:0:0:
461,227,36027,6,0,B|437:243|437:243|366:235,1,100,2|2,3:2|3:2,0:0:0:0:
325,233,36471,1,2,0:0:0:0:
325,233,36619,1,8,0:0:0:0:
258,293,36914,2,0,L|208:299,1,50,10|8,0:0|0:0,0:0:0:0:
163,303,37210,1,2,3:2:0:0:
85,257,37505,6,0,P|70:209|83:161,1,100,2|8,3:2|0:0,0:0:0:0:
132,87,38096,1,0,0:0:0:0:
218,112,38392,2,0,L|316:96,2,100,0|0|10,3:0|3:0|0:0,0:0:0:0:
171,189,39279,1,2,0:0:0:0:
240,245,39574,6,0,B|309:235|309:235|333:217|333:217|382:209,1,150,4|4,3:2|3:1,0:0:0:0:
459,319,40461,2,0,B|390:329|390:329|366:347|366:347|316:356,1,150,4|4,3:2|3:1,0:0:0:0:
59,277,41939,6,0,L|80:172,1,100,6|10,3:2|0:0,0:0:0:0:
52,98,42530,1,2,3:0:0:0:
52,98,42678,2,0,L|113:88,1,50,2|8,3:2|0:0,0:0:0:0:
130,55,42973,2,0,P|170:85|219:84,1,100,6|2,3:2|3:2,0:0:0:0:
299,44,43564,2,0,P|338:14|387:15,1,100,2|0,3:2|3:0,0:0:0:0:
428,33,44008,1,10,0:0:0:0:
443,126,44303,5,6,3:2:0:0:
443,126,44451,2,0,L|438:175,1,50,2|8,0:0|0:0,0:0:0:0:
396,193,44747,2,0,B|374:182|374:182|300:201,1,100,2|2,0:0|3:2,0:0:0:0:
278,241,45190,1,8,0:0:0:0:
278,241,45338,2,0,B|165:212,1,100,6|0,3:2|3:0,0:0:0:0:
136,207,45781,1,8,0:0:0:0:
66,263,46077,2,0,P|41:266|18:275,2,50,2|10|0,3:2|0:0|3:0,0:0:0:0:
96,303,46520,1,8,0:0:0:0:
96,303,46668,6,0,P|137:329|187:332,1,100,4|8,3:2|0:0,0:0:0:0:
271,300,47259,2,0,P|312:273|362:270,1,100,2|8,3:2|0:0,0:0:0:0:
451,280,47850,2,0,L|442:170,1,100,2|10,3:2|0:0,0:0:0:0:
414,145,48293,2,0,L|423:35,2,100,2|2|2,0:0|3:2|0:0,0:0:0:0:
368,147,49032,6,0,P|319:156|276:132,1,100,6|8,3:2|0:2,0:0:0:0:
208,72,49624,2,0,P|165:48|116:56,1,100,8|8,0:2|0:2,0:0:0:0:
89,91,50067,2,0,L|77:151,1,50,0|8,3:2|0:2,0:0:0:0:
70,184,50362,1,0,3:0:0:0:
7,248,50658,2,0,B|46:279|46:279|95:271,1,100,4|8,3:1|0:0,0:0:0:0:
138,258,51101,2,0,L|187:266,1,50,8|8,0:0|0:0,0:0:0:0:
227,245,51397,6,0,P|237:185|209:134,1,100,6|10,3:2|0:0,0:0:0:0:
155,99,51988,1,2,3:2:0:0:
155,99,52136,2,0,L|163:49,1,50,2|8,3:2|0:0,0:0:0:0:
202,27,52431,2,0,L|300:43,1,100,6|2,3:2|3:2,0:0:0:0:
360,110,53023,2,0,L|458:93,1,100,2|2,3:2|3:2,0:0:0:0:
502,83,53466,1,10,0:0:0:0:
481,170,53761,6,0,P|476:220|482:270,1,100,6|10,3:2|0:0,0:0:0:0:
477,314,54205,2,0,P|435:340|387:336,1,100,2|2,0:0|3:2,0:0:0:0:
348,322,54648,1,8,0:0:0:0:
348,322,54796,2,0,P|306:295|258:299,1,100,6|0,3:2|3:0,0:0:0:0:
219,322,55239,1,8,0:0:0:0:
140,276,55535,2,0,P|115:278|92:288,2,50,0|10|0,3:0|0:0|3:0,0:0:0:0:
160,238,55978,1,8,0:0:0:0:
160,238,56126,6,0,B|142:134,1,100,6|8,3:2|0:0,0:0:0:0:
77,77,56717,2,0,P|119:52|169:53,1,100,2|8,3:2|0:0,0:0:0:0:
243,103,57308,2,0,L|357:111,1,100,2|10,3:2|0:0,0:0:0:0:
378,138,57752,2,0,P|392:185|374:235,1,100,2|2,0:0|3:2,0:0:0:0:
341,259,58195,1,8,0:0:0:0:
266,308,58491,6,0,B|194:291|194:291|171:304,1,100,4|8,3:2|0:0,0:0:0:0:
84,329,59082,2,0,B|72:377,2,50,0|0|0,3:0|3:0|0:0,0:0:0:0:
56,293,59525,2,0,P|43:244|41:194,1,100,8|0,0:0|3:0,0:0:0:0:
59,153,59968,1,12,0:0:0:0:
148,144,60264,2,0,L|209:130,1,50,8|0,0:0|0:0,0:0:0:0:
231,161,60559,2,0,L|242:209,1,50,8|0,0:3|0:0,0:0:0:0:
244,255,60855,6,0,P|293:253|337:277,1,100,6|2,3:2|3:0,0:0:0:0:
405,218,61446,2,0,P|381:174|382:124,1,100,10|0,0:0|0:0,0:0:0:0:
419,43,62037,2,0,B|501:32|501:32|512:18,2,100,2|2|10,3:2|3:0|0:0,0:0:0:0:
333,15,62924,1,2,0:0:0:0:
248,45,63220,6,0,L|130:33,1,100,2|2,3:2|3:2,0:0:0:0:
83,96,63811,2,0,L|95:214,1,100,10|2,0:0|0:2,0:0:0:0:
145,269,64402,2,0,P|131:309|135:370,2,100,2|0|8,3:2|3:0|0:0,0:0:0:0:
202,199,65289,2,0,P|245:192|264:196,1,50,8|8,0:0|0:0,0:0:0:0:
293,207,65584,5,6,3:2:0:0:
462,100,66766,5,6,3:2:0:0:
348,272,67949,6,0,L|397:263,2,50,4|0|8,3:2|3:0|0:0,0:0:0:0:
312,244,68392,2,0,P|266:220|201:240,1,100,4|8,3:1|0:0,0:0:0:0:
183,253,68835,1,8,0:0:0:0:
183,253,68983,1,8,0:0:0:0:
121,318,69279,1,4,3:2:0:0:
50,261,69574,2,0,L|33:163,1,100,4|8,3:1|0:0,0:0:0:0:
23,118,70018,1,8,0:0:0:0:
94,64,70313,6,0,L|102:15,2,50,4|0|8,3:2|3:0|0:0,0:0:0:0:
115,105,70757,2,0,P|158:130|207:126,1,100,4|8,3:1|0:0,0:0:0:0:
248,106,71200,1,8,0:0:0:0:
248,106,71348,1,8,0:0:0:0:
308,39,71643,1,4,3:2:0:0:
384,87,71939,2,0,P|399:134|408:183,1,100,4|8,3:1|0:0,0:0:0:0:
408,228,72382,1,8,0:0:0:0:
345,293,72678,6,0,P|360:325|376:341,2,50,4|0|8,3:2|3:0|0:0,0:0:0:0:
311,262,73121,2,0,B|282:241|282:241|218:249,1,100,4|8,3:1|0:0,0:0:0:0:
177,259,73564,1,8,0:0:0:0:
177,259,73712,1,8,0:0:0:0:
124,185,74008,1,4,3:2:0:0:
189,123,74303,2,0,B|288:110,1,100,4|8,3:1|0:0,0:0:0:0:
326,84,74747,2,0,P|364:79|392:86,1,50,8|8,0:0|0:0,0:0:0:0:
413,105,75042,6,0,B|405:162|405:162|387:184|387:184|378:247,1,150,4|4,3:2|3:1,0:0:0:0:
261,316,75929,2,0,B|269:259|269:259|287:237|287:237|295:173,1,150,4|4,3:2|3:1,0:0:0:0:
116,80,77111,6,0,L|108:16,2,50,4|0|8,3:2|3:0|0:0,0:0:0:0:
85,113,77555,2,0,L|97:212,1,100,4|8,3:1|0:0,0:0:0:0:
108,260,77998,1,8,0:0:0:0:
108,260,78146,1,8,0:0:0:0:
74,343,78441,1,4,3:2:0:0:
157,377,78737,2,0,P|202:357|252:352,1,100,4|8,3:1|0:0,0:0:0:0:
295,364,79180,1,8,0:0:0:0:
378,330,79476,6,0,P|416:332|446:324,2,50,4|0|8,3:2|3:0|0:0,0:0:0:0:
350,294,79919,2,0,P|337:234|357:191,1,100,4|8,3:1|0:0,0:0:0:0:
382,168,80362,1,8,0:0:0:0:
382,168,80510,1,8,0:0:0:0:
434,94,80806,1,4,3:2:0:0:
366,34,81101,2,0,L|244:46,1,100,4|8,3:1|0:0,0:0:0:0:
221,47,81545,1,8,0:0:0:0:
160,113,81840,6,0,P|136:107|112:108,2,50,4|0|8,3:2|3:0|0:0,0:0:0:0:
194,143,82284,2,0,P|204:199|184:251,1,100,4|8,3:1|0:0,0:0:0:0:
165,276,82727,1,8,0:0:0:0:
165,276,82875,1,8,0:0:0:0:
220,346,83170,1,4,3:2:0:0:
298,301,83466,2,0,L|396:286,1,100,4|8,3:1|0:0,0:0:0:0:
441,279,83909,2,0,L|448:230,1,50,8|8,0:0|0:0,0:0:0:0:
437,186,84205,6,0,B|419:161|419:161|428:78|428:78|406:49,1,150,4|4,3:2|3:1,0:0:0:0:
288,116,85069,2,0,B|306:141|306:141|297:224|297:224|318:252,1,150,4|4,3:2|3:1,0:0:0:0:
71,79,87180,6,0,B|96:61|96:61|179:70|179:70|207:48,1,150,4|4,3:2|3:1,0:0:0:0:
271,166,88045,2,0,B|246:184|246:184|163:175|163:175|134:196,1,150,4|4,3:2|3:1,0:0:0:0:
