osu file format v14

[General]
AudioFilename: audio.mp3
AudioLeadIn: 0
PreviewTime: 41934
Countdown: 0
SampleSet: Soft
StackLeniency: 0.3
Mode: 0
LetterboxInBreaks: 0
WidescreenStoryboard: 1

[Editor]
Bookmarks: 1737,11195,20653,25382,27746,32475,39569,41934,60849,67943,75037,77106,84200,88929
DistanceSpacing: 1.3
BeatDivisor: 6
GridSize: 32
TimelineZoom: 1.8

[Metadata]
Title:3-pun 29-byou (TV Size)
TitleUnicode:3分29秒 (TV Size)
Artist:hitorie
ArtistUnicode:ヒトリエ​
Creator:Ohwow
Version:Insane
Source:86―エイティシックス―
Tags:opening op japanese anime 86 eighty six eighty-six rock jrock j-rock 3:29 3 minutes 29 seconds
BeatmapID:2965081
BeatmapSetID:1438780

[Difficulty]
HPDrainRate:4.5
CircleSize:3.8
OverallDifficulty:7.5
ApproachRate:9
SliderMultiplier:1.6
SliderTickRate:1

[Events]
//Background and Video events
0,0,"bg.jpg",0,0
Video,0,"video.mp4"
//Break Periods
//Storyboard Layer 0 (Background)
//Storyboard Layer 1 (Fail)
//Storyboard Layer 2 (Pass)
//Storyboard Layer 3 (Foreground)
//Storyboard Layer 4 (Overlay)
//Storyboard Sound Samples

[TimingPoints]
560,295.566502463054,4,2,1,60,1,0
560,-125,4,2,1,60,0,0
1742,-125,4,2,1,60,0,0
6471,-111.111111111111,4,2,1,70,0,0
8835,-90.9090909090909,4,2,1,70,0,0
10904,-166.666666666667,4,2,1,70,0,0
11126,-166.666666666667,4,2,1,5,0,0
11200,-90.9090909090909,4,2,1,75,0,0
20658,-111.111111111111,4,2,1,60,0,0
32481,-100,4,2,1,60,0,0
39279,-166.666666666667,4,2,1,70,0,0
39500,-100,4,2,1,5,0,0
39574,-90.9090909090909,4,2,1,70,0,0
41939,-83.3333333333333,4,2,1,80,0,1
60855,-100,4,2,1,60,0,0
67949,-90.9090909090909,4,2,1,70,0,0
75042,-90.9090909090909,4,2,1,70,0,0
76816,-166.666666666667,4,2,1,70,0,0
77037,-166.666666666667,4,2,1,5,0,0
77111,295.566502463054,4,2,1,70,1,0
77111,-90.9090909090909,4,2,1,70,0,0
84204,279.06976744186,4,2,1,70,1,0
84204,-90.9090909090909,4,2,1,70,0,0
84622,298.507462686567,4,2,1,70,1,0
84622,-90.9090909090909,4,2,1,70,0,0
86444,295.566502463054,4,2,1,70,1,0
87180,279.06976744186,4,2,1,70,1,0
87180,-90.9090909090909,4,2,1,70,0,0
87598,298.507462686567,4,2,1,70,1,0
87598,-90.9090909090909,4,2,1,70,0,0

[Colours]
Combo1 : 223,189,117
Combo2 : 100,216,236
Combo3 : 60,85,204
Combo4 : 170,192,196

[HitObjects]
77,253,560,5,8,0:3:0:0:
63,331,707,2,0,L|52:390,2,32,8|8|4,0:3|0:3|0:3,0:0:0:0:
90,174,1003,2,0,L|100:114,2,32,4|4|0,0:3|0:3|3:0,0:0:0:0:
77,253,1298,6,0,L|116:258,1,32,8|0,0:0|0:0,0:0:0:0:
194,271,1446,2,0,L|253:281,1,32,8|0,0:0|0:0,0:0:0:0:
311,289,1594,2,0,L|370:299,1,32,8|0,0:0|0:0,0:0:0:0:
452,313,1742,6,0,B|445:276|445:276|434:259|434:259|420:173,1,128,2|2,0:0|0:0,0:0:0:0:
270,95,2333,1,2,0:0:0:0:
270,95,2481,2,0,L|257:165,1,64,2|0,0:0|0:0,0:0:0:0:
346,135,2776,2,0,P|401:93|468:113,1,128,2|2,0:0|0:0,0:0:0:0:
294,237,3367,2,0,P|247:196|185:203,1,128,2|2,0:0|0:0,0:0:0:0:
118,260,3811,2,0,P|130:300|127:343,1,64,2|0,0:0|0:0,0:0:0:0:
47,213,4106,5,2,0:0:0:0:
47,213,4254,2,0,P|47:177|58:143,1,64,2|0,0:0|0:0,0:0:0:0:
92,76,4550,2,0,B|118:104|118:104|210:92,1,128,2|2,0:0|0:0,0:0:0:0:
416,107,5141,2,0,P|325:96|275:173,1,192,2|0,0:0|0:0,0:0:0:0:
380,275,5880,1,2,0:0:0:0:
380,274,6027,2,0,P|409:262|441:259,2,64,2|0|2,0:0|0:0|0:0,0:0:0:0:
315,344,6471,5,4,3:2:0:0:
314,343,6619,2,0,P|280:329|244:328,1,71.9999978027344,0|0,3:0|0:0,0:0:0:0:
151,332,6914,2,0,P|115:261|161:196,1,143.999995605469,8|0,0:0|3:0,0:0:0:0:
234,195,7358,2,0,P|269:195|322:166,1,71.9999978027344,8|0,0:0|0:0,0:0:0:0:
259,104,7653,5,0,3:0:0:0:
259,104,7801,2,0,L|265:29,2,71.9999978027344,8|0|0,0:0|3:0|0:0,0:0:0:0:
175,71,8244,2,0,L|69:62,1,71.9999978027344,8|8,0:0|0:0,0:0:0:0:
63,64,8466,1,8,0:0:0:0:
63,64,8540,1,8,0:0:0:0:
0,188,8688,1,8,0:0:0:0:
0,188,8761,1,8,0:0:0:0:
0,188,8835,6,0,B|68:176|68:176|92:190|92:190|186:176,1,176.000005371094,4|0,3:2|0:0,0:0:0:0:
237,59,9279,2,0,B|228:109|228:109|266:148|266:148|252:217,1,176.000005371094,4|0,3:1|0:0,0:0:0:0:
371,317,9722,2,0,B|328:273|328:273|351:160,1,176.000005371094,4|0,3:2|0:0,0:0:0:0:
371,41,10165,2,0,B|422:87|422:87|346:71|346:71|300:88|300:88|237:59,1,264.000008056641,4|2,3:1|0:0,0:0:0:0:
39,76,10904,6,0,P|75:91|119:82,1,71.9999978027344,2|0,0:0|0:0,0:0:0:0:
113,74,11200,6,0,L|100:182,1,88.000002685547,4|0,3:2|3:0,0:0:0:0:
44,321,11495,1,8,0:0:0:0:
114,256,11643,2,0,B|163:250|163:250|183:256|183:256|244:248,1,132.00000402832,4|0,3:1|0:0,0:0:0:0:
316,180,11939,1,8,0:0:0:0:
332,202,12013,1,8,0:0:0:0:
342,228,12087,1,8,0:0:0:0:
343,255,12160,1,8,0:0:0:0:
336,282,12234,2,0,P|327:316|331:347,2,44.0000013427735,8|8|8,0:0|0:0|0:0,0:0:0:0:
419,193,12530,6,0,P|458:175|501:182,1,88.000002685547,4|0,3:2|0:0,0:0:0:0:
512,339,12826,2,0,B|487:383|487:383|468:259,1,176.000005371094,4|8,3:1|0:0,0:0:0:0:
444,96,13269,1,8,0:0:0:0:
339,178,13417,1,8,0:0:0:0:
339,178,13491,1,8,0:0:0:0:
339,178,13564,6,0,L|246:160,1,88.000002685547,4|0,3:2|3:0,0:0:0:0:
78,122,13860,1,8,0:0:0:0:
155,58,14008,2,0,B|171:144|171:144|144:179,1,132.00000402832,4|0,3:1|0:0,0:0:0:0:
104,265,14303,1,8,0:0:0:0:
97,291,14377,1,8,0:0:0:0:
102,318,14451,1,8,0:0:0:0:
117,341,14525,1,8,0:0:0:0:
140,356,14599,2,0,P|166:360|189:357,2,44.0000013427735,8|8|8,0:0|0:0|0:0,0:0:0:0:
246,288,14894,6,0,P|289:275|347:287,1,88.000002685547,4|0,3:2|0:0,0:0:0:0:
452,334,15190,2,0,P|387:311|376:215,1,176.000005371094,4|8,3:1|0:0,0:0:0:0:
471,98,15633,1,8,0:0:0:0:
461,243,15781,1,8,0:0:0:0:
351,72,15929,6,0,L|260:55,1,88.000002685547,4|0,3:2|3:0,0:0:0:0:
91,101,16225,1,8,0:0:0:0:
166,43,16372,2,0,B|186:104|186:104|175:134|175:134|186:168,1,132.00000402832,4|0,3:1|0:0,0:0:0:0:
232,261,16668,1,8,0:0:0:0:
205,258,16742,1,8,0:0:0:0:
177,255,16816,1,8,0:0:0:0:
150,252,16890,1,8,0:0:0:0:
123,250,16963,2,8,B|108:208,2,44.0000013427735
121,339,17259,6,0,L|208:347,1,88.000002685547,4|0,3:2|0:0,0:0:0:0:
344,376,17555,2,0,B|306:340|306:340|318:206,1,176.000005371094,4|8,3:1|0:0,0:0:0:0:
329,47,17998,1,8,0:0:0:0:
447,119,18146,1,8,0:0:0:0:
447,119,18220,1,8,0:0:0:0:
447,119,18293,6,0,B|397:99|397:99|369:127|369:127|286:132,1,176.000005371094,4|0,3:2|0:0,0:0:0:0:
187,29,18737,2,0,B|216:65|216:65|192:161|192:161|211:184,1,176.000005371094,4|0,3:1|0:0,0:0:0:0:
372,251,19180,2,0,B|291:215|291:215|237:284,1,176.000005371094,4|0,3:2|0:0,0:0:0:0:
166,371,19624,2,0,B|149:247|149:247|105:224|105:224|90:119,1,264.000008056641,4|0,3:1|0:0,0:0:0:0:
144,62,20215,2,0,B|137:18,2,44.0000013427735,2|2|2,0:0|0:0|0:0,0:0:0:0:
232,112,20510,1,2,0:0:0:0:
232,112,20584,1,2,0:0:0:0:
232,112,20658,6,0,P|313:89|392:85,1,143.999995605469,4|0,3:2|1:0,0:0:0:0:
474,219,21249,2,0,P|392:196|314:192,1,143.999995605469,0|0,1:0|1:0,0:0:0:0:
252,224,21693,5,2,0:0:0:0:
225,304,21840,1,2,1:2:0:0:
225,304,21988,2,0,P|260:306|294:295,1,71.9999978027344,2|0,0:0|1:0,0:0:0:0:
210,151,22284,2,0,B|121:135|121:135|83:173,2,143.999995605469,2|2|2,0:0|3:2|3:2,0:0:0:0:
312,170,23023,6,0,P|334:102|343:31,1,143.999995605469,0|0,3:0|1:0,0:0:0:0:
481,135,23614,2,0,P|490:206|512:274,1,143.999995605469,0|0,1:0|1:0,0:0:0:0:
442,332,24057,5,2,0:0:0:0:
357,314,24205,2,0,L|282:299,2,71.9999978027344,2|2|0,1:2|0:0|1:0,0:0:0:0:
379,199,24648,2,0,L|237:227,1,143.999995605469,2|2,0:0|0:0,0:0:0:0:
152,246,25092,1,0,3:0:0:0:
15,33,25535,6,8,P|31:41|45:52,3,35.9999989013672,8|8|8|8,0:3|0:3|0:3|0:3,0:3:0:0:
135,40,25830,2,4,P|135:57|133:75,3,35.9999989013672,4|4|4|4,0:3|0:3|0:3|0:3,0:3:0:0:
188,147,26126,1,10,0:0:0:0:
288,321,26422,6,8,P|304:312|318:301,3,35.9999989013672,8|8|8|8,0:3|0:3|0:3|0:3,0:3:0:0:
408,314,26717,2,4,P|408:296|406:278,3,35.9999989013672,4|4|4|4,0:3|0:3|0:3|0:3,0:3:0:0:
461,207,27013,1,10,0:0:0:0:
355,16,27308,6,0,L|341:81,1,35.9999989013672,8|8,0:0|0:0,0:0:0:0:
338,138,27456,1,8,0:0:0:0:
311,140,27530,1,0,3:0:0:0:
284,143,27604,1,0,3:0:0:0:
257,146,27678,1,0,3:0:0:0:
230,149,27752,6,0,L|88:125,1,143.999995605469,4|0,3:2|1:0,0:0:0:0:
0,328,28343,2,0,L|141:304,1,143.999995605469,0|0,1:0|1:0,0:0:0:0:
216,258,28786,5,2,0:0:0:0:
247,341,28934,1,2,1:2:0:0:
247,341,29082,2,0,L|351:359,1,71.9999978027344,2|0,0:0|1:2,0:0:0:0:
291,217,29377,2,0,P|204:172|160:194,2,143.999995605469,2|2|2,0:0|3:2|3:2,0:0:0:0:
362,280,30116,6,0,L|385:138,1,143.999995605469,0|0,3:0|1:0,0:0:0:0:
218,0,30707,2,0,L|241:141,1,143.999995605469,0|0,1:0|1:0,0:0:0:0:
203,220,31151,5,2,0:0:0:0:
138,163,31298,2,0,L|67:151,1,71.9999978027344,2|2,1:2|0:0,0:0:0:0:
12,248,31594,2,0,L|82:236,1,71.9999978027344,0|2,3:0|0:0,0:0:0:0:
154,289,31890,2,0,P|163:309|167:346,2,47.9999985351563,8|8|8,3:3|0:3|0:3,0:0:0:0:
256,339,32185,2,0,P|247:359|242:396,2,47.9999985351563,4|4|4,0:3|0:3|0:3,0:0:0:0:
309,251,32481,6,0,P|346:265|385:268,1,80,4|0,3:2|0:0,0:0:0:0:
433,159,32776,2,0,P|393:161|355:175,1,80,0|0,3:0|0:0,0:0:0:0:
512,192,33072,2,0,P|507:113|430:72,1,160,8|2,0:0|0:0,0:0:0:0:
279,106,33515,1,2,3:2:0:0:
370,5,33663,6,0,L|356:115,1,80,0|0,3:0|0:0,0:0:0:0:
290,185,33959,2,0,L|279:106,1,80,0|0,3:0|0:0,0:0:0:0:
266,8,34254,2,0,B|204:59|204:59|130:31,1,160,8|2,0:0|0:0,0:0:0:0:
66,161,34845,6,0,B|90:183|90:183|75:267,1,106.666666666667,2|2,3:2|0:0,0:0:0:0:
71,298,35141,1,2,3:0:0:0:
71,298,35239,2,0,L|137:286,1,53.3333333333333,2|0,0:0|0:0,0:0:0:0:
235,192,35436,2,0,L|352:211,2,106.666666666667,10|2|2,0:0|0:0|0:0,0:0:0:0:
203,185,35880,1,0,3:0:0:0:
260,312,36027,6,0,B|313:298|313:298|352:311|352:311|430:294,1,160,2|2,3:2|3:2,0:0:0:0:
509,158,36471,1,2,0:0:0:0:
462,228,36619,2,0,L|375:214,1,80,8|0,0:0|0:0,0:0:0:0:
282,74,36914,1,10,0:0:0:0:
333,145,37062,1,8,0:0:0:0:
368,65,37210,1,2,3:2:0:0:
368,65,37505,6,0,P|290:49|209:41,2,160,2|8|0,3:2|0:0|0:0,0:0:0:0:
419,136,38244,1,0,3:0:0:0:
363,204,38392,2,0,P|346:240|343:280,1,80,0|0,3:0|0:0,0:0:0:0:
274,349,38688,2,0,P|270:309|254:272,1,80,0|0,3:0|0:0,0:0:0:0:
184,218,38983,1,10,0:0:0:0:
6,337,39279,6,0,P|39:358|75:356,1,71.9999978027344,2|0,0:0|0:0,0:0:0:0:
79,347,39574,6,0,B|101:271|101:271|90:249|90:249|110:170,1,176.000005371094,4|0,3:2|0:0,0:0:0:0:
46,107,40018,2,0,B|136:96|136:96|176:126|176:126|205:106,1,176.000005371094,4|0,3:1|0:0,0:0:0:0:
307,22,40461,2,0,B|277:53|277:53|294:93|294:93|276:180,1,176.000005371094,4|0,3:2|0:0,0:0:0:0:
171,278,40904,2,0,B|209:251|209:251|291:271|291:271|330:251|330:251|434:276,1,264.000008056641,4|2,3:1|0:0,0:0:0:0:
118,18,41939,6,0,L|3:-3,1,95.9999970703126,6|0,3:2|0:0,0:0:0:0:
183,136,42234,2,0,L|298:115,1,95.9999970703126,10|0,0:0|0:0,0:0:0:0:
216,35,42530,1,2,3:0:0:0:
93,106,42678,2,0,P|91:163|122:210,1,95.9999970703126,2|8,3:2|0:0,0:0:0:0:
289,226,42973,6,0,P|240:212|165:288,1,143.999995605469,6|0,3:2|0:0,0:0:0:0:
163,301,43269,1,2,3:2:0:0:
346,351,43417,1,8,0:0:0:0:
362,169,43564,2,0,P|277:128|183:136,1,191.999994140625,2|0,3:2|3:0,0:0:0:0:
336,257,44008,2,0,P|396:252|433:231,1,95.9999970703126,10|0,0:0|0:0,0:0:0:0:
493,56,44303,5,6,3:2:0:0:
362,169,44451,2,0,L|352:70,1,95.9999970703126,2|8,0:0|0:0,0:0:0:0:
512,194,44747,2,0,L|502:289,1,95.9999970703126,2|0,0:0|3:0,0:0:0:0:
273,189,45042,1,2,3:2:0:0:
426,235,45190,1,8,0:0:0:0:
222,305,45338,6,0,B|217:261|217:261|193:234|193:234|180:102,1,191.999994140625,6|0,3:2|3:0,0:0:0:0:
276,0,45781,2,0,P|284:49|266:95,1,95.9999970703126,8|0,0:0|0:0,0:0:0:0:
92,147,46077,1,2,3:2:0:0:
196,39,46225,1,10,0:0:0:0:
196,39,46298,1,8,0:0:0:0:
196,39,46372,1,0,3:0:0:0:
311,179,46520,1,8,0:0:0:0:
311,179,46594,1,8,0:0:0:0:
311,179,46668,6,0,P|432:183|524:202,2,191.999994140625,4|8|2,3:2|0:0|3:2,0:0:0:0:
187,300,47407,1,0,3:0:0:0:
348,351,47555,2,0,P|359:294|334:235,1,95.9999970703126,8|0,0:0|0:0,0:0:0:0:
241,124,47850,6,0,B|224:146|224:146|231:214,1,95.9999970703126,2|0,3:2|0:0,0:0:0:0:
405,181,48146,1,10,0:0:0:0:
283,43,48293,2,0,P|236:34|190:48,1,95.9999970703126,2|0,0:0|3:0,0:0:0:0:
60,231,48589,2,0,P|106:239|152:225,1,95.9999970703126,2|8,3:2|0:0,0:0:0:0:
241,124,48885,1,2,0:0:0:0:
307,324,49032,6,0,B|278:353|278:353|136:323,1,143.999995605469,6|0,3:2|0:0,0:0:0:0:
140,319,49328,2,0,P|140:271|152:225,1,95.9999970703126,8|0,0:2|3:2,0:0:0:0:
314,66,49624,2,0,P|325:112|326:160,1,95.9999970703126,8|0,0:2|3:2,0:0:0:0:
89,86,49919,1,8,0:2:0:0:
241,124,50067,1,0,3:2:0:0:
152,225,50215,1,8,0:2:0:0:
344,246,50362,6,0,L|459:224,1,95.9999970703126,0|0,3:0|0:0,0:0:0:0:
201,319,50658,2,0,L|59:291,1,143.999995605469,4|0,3:1|0:0,0:0:0:0:
9,219,50954,1,8,0:0:0:0:
0,188,51027,1,8,0:0:0:0:
4,156,51101,1,8,0:0:0:0:
18,128,51175,1,8,0:0:0:0:
42,107,51249,1,8,0:0:0:0:
72,95,51323,1,8,0:0:0:0:
103,95,51397,6,0,L|197:113,1,95.9999970703126,6|0,3:2|0:0,0:0:0:0:
349,201,51693,2,0,L|254:219,1,95.9999970703126,10|0,0:0|0:0,0:0:0:0:
135,185,51988,1,2,3:2:0:0:
253,43,52136,2,0,P|282:94|279:152,1,95.9999970703126,2|8,3:2|0:0,0:0:0:0:
82,262,52431,6,0,B|43:229|43:229|54:96,1,143.999995605469,6|0,3:2|0:0,0:0:0:0:
56,97,52727,1,2,3:2:0:0:
197,113,52875,1,8,0:0:0:0:
163,295,53023,2,0,P|88:349|6:306,1,191.999994140625,2|2,3:2|3:2,0:0:0:0:
144,211,53466,2,0,P|191:214|233:241,1,95.9999970703126,10|0,0:0|0:0,0:0:0:0:
339,353,53761,6,0,L|320:218,1,95.9999970703126,6|0,3:2|0:0,0:0:0:0:
343,94,54057,1,10,0:0:0:0:
415,242,54205,2,0,P|362:264|321:256,1,95.9999970703126,2|0,0:0|3:0,0:0:0:0:
224,123,54500,1,2,3:2:0:0:
358,178,54648,1,8,0:0:0:0:
176,198,54796,6,0,B|129:168|129:168|152:27,1,191.999994140625,6|0,3:2|3:0,0:0:0:0:
328,0,55239,2,0,B|343:94,1,95.9999970703126,8|0,0:0|0:0,0:0:0:0:
306,247,55535,1,0,3:0:0:0:
224,123,55683,1,10,0:0:0:0:
224,123,55757,1,8,0:0:0:0:
224,123,55830,1,0,3:0:0:0:
191,307,55978,1,8,0:0:0:0:
191,307,56052,1,8,0:0:0:0:
191,307,56126,6,0,P|70:311|-22:330,2,191.999994140625,6|8|2,3:2|0:0|3:2,0:0:0:0:
336,339,56865,1,0,3:0:0:0:
290,173,57013,2,0,P|274:219|274:267,1,95.9999970703126,8|0,0:0|0:0,0:0:0:0:
444,126,57308,6,0,B|415:107|415:107|354:114,1,95.9999970703126,2|0,3:2|0:0,0:0:0:0:
495,197,57604,1,10,0:0:0:0:
429,24,57752,2,0,B|334:35,1,95.9999970703126,2|0,0:0|3:0,0:0:0:0:
194,161,58047,2,0,B|289:172,1,95.9999970703126,2|8,3:2|0:0,0:0:0:0:
495,197,58343,1,2,0:0:0:0:
446,352,58491,6,0,B|256:374,2,191.999994140625,4|8|0,3:2|0:0|3:0,0:0:0:0:
388,272,59229,2,0,B|293:283,1,95.9999970703126,0|0,3:0|0:0,0:0:0:0:
162,384,59525,6,0,B|196:278|124:312|161:197,1,191.999994140625,8|0,0:0|3:0,0:0:0:0:
246,10,59968,2,0,P|245:75|215:111,1,95.9999970703126,12|0,0:0|3:0,0:0:0:0:
92,136,60264,2,0,P|60:129|28:128,2,63.9999980468751,8|8|8,0:0|0:0|0:0,0:0:0:0:
160,197,60559,2,0,P|191:190|223:189,2,63.9999980468751,8|4|4,0:3|0:3|0:3,0:0:0:0:
67,271,60855,6,0,P|121:325|196:310,1,160,6|2,3:2|3:0,0:0:0:0:
270,262,61298,1,0,0:0:0:0:
350,297,61446,2,0,B|373:188|373:188|325:138,1,160,10|0,0:0|0:0,0:0:0:0:
319,61,61890,1,2,3:2:0:0:
319,61,62037,6,0,P|357:73|396:74,1,80,2|0,3:2|0:0,0:0:0:0:
265,200,62333,2,0,P|226:212|187:213,1,80,2|0,3:0|0:0,0:0:0:0:
82,77,62628,2,0,B|94:62|105:34|105:34|126:154,1,160,10|2,0:0|0:0,0:0:0:0:
63,358,63220,6,0,L|151:350,1,80,2|0,3:2|0:0,0:0:0:0:
204,287,63515,2,0,L|292:295,1,80,2|0,3:2|0:0,0:0:0:0:
386,353,63811,2,0,P|330:300|341:223,1,160,10|2,0:0|0:2,0:0:0:0:
387,148,64254,1,0,3:0:0:0:
462,193,64402,6,0,L|486:359,2,160,2|0|8,3:2|3:0|0:0,0:0:0:0:
364,44,65289,5,8,0:0:0:0:
291,93,65436,1,8,0:0:0:0:
242,20,65584,1,6,3:2:0:0:
231,3,66766,5,6,3:2:0:0:
97,171,67949,6,0,L|208:183,1,88.000002685547,4|0,3:2|3:0,0:0:0:0:
347,131,68244,1,8,0:0:0:0:
281,68,68392,2,0,B|250:108|250:108|274:200,1,132.00000402832,4|0,3:1|0:0,0:0:0:0:
344,237,68688,1,8,0:0:0:0:
341,264,68761,1,8,0:0:0:0:
338,291,68835,1,8,0:0:0:0:
336,319,68909,1,8,0:0:0:0:
333,346,68983,2,0,L|414:357,2,44.0000013427735,8|8|8,0:0|0:0|0:0,0:0:0:0:
240,316,69279,6,0,P|210:283|166:277,1,88.000002685547,4|0,3:2|0:0,0:0:0:0:
57,384,69574,2,0,B|93:346|93:346|80:264|80:264|107:208,1,176.000005371094,4|8,3:1|0:0,0:0:0:0:
169,72,70018,1,8,0:0:0:0:
258,214,70165,1,8,0:0:0:0:
258,214,70239,1,8,0:0:0:0:
258,214,70313,6,0,L|352:210,1,88.000002685547,4|0,3:2|3:0,0:0:0:0:
424,55,70609,1,8,0:0:0:0:
444,139,70757,2,0,B|398:141|398:141|373:126|373:126|286:129,1,132.00000402832,4|0,3:1|0:0,0:0:0:0:
230,129,71052,1,8,0:0:0:0:
210,109,71126,1,8,0:0:0:0:
198,85,71200,1,8,0:0:0:0:
195,58,71274,1,8,0:0:0:0:
201,31,71348,2,0,P|211:11|229:0,2,44.0000013427735,8|8|8,0:0|0:0|0:0,0:0:0:0:
97,81,71643,6,0,B|115:106|115:106|105:162,1,88.000002685547,4|0,3:2|0:0,0:0:0:0:
17,261,71939,2,0,P|73:205|168:244,1,176.000005371094,4|8,3:1|0:0,0:0:0:0:
230,384,72382,1,8,0:0:0:0:
98,293,72530,1,8,0:0:0:0:
236,130,72678,6,0,L|250:216,1,88.000002685547,4|0,3:2|3:0,0:0:0:0:
340,361,72973,1,8,0:0:0:0:
357,278,73121,2,0,B|328:270|328:270|267:305|267:305|235:298,1,132.00000402832,4|0,3:1|0:0,0:0:0:0:
149,241,73417,1,8,0:0:0:0:
122,248,73490,1,8,0:0:0:0:
95,255,73564,1,8,0:0:0:0:
69,262,73638,1,8,0:0:0:0:
42,269,73712,2,0,L|27:320,2,44.0000013427735,8|8|8,0:0|0:0|0:0,0:0:0:0:
33,180,74008,6,0,L|128:156,1,88.000002685547,4|0,3:2|0:0,0:0:0:0:
206,50,74303,2,0,B|170:83|170:83|309:112,1,176.000005371094,4|8,3:1|0:0,0:0:0:0:
414,239,74747,1,8,0:0:0:0:
391,100,74894,1,8,0:0:0:0:
391,100,74968,1,8,0:0:0:0:
391,100,75042,6,0,B|373:164|373:164|341:186|341:186|315:284,1,176.000005371094,4|0,3:2|0:0,0:0:0:0:
438,320,75486,2,0,B|446:349|446:349|380:322|380:322|299:345,1,176.000005371094,4|0,3:1|0:0,0:0:0:0:
172,361,75929,2,0,B|209:379|209:379|246:234,1,176.000005371094,4|0,3:2|0:0,0:0:0:0:
244,133,76372,2,0,B|277:172|277:172|239:163|239:163|226:167|226:167|155:150,1,176.000005371094,4|0,3:1|0:0,0:0:0:0:
62,91,76816,6,0,P|72:123|52:167,1,71.9999978027344,2|0,0:0|0:0,0:0:0:0:
51,168,77111,6,0,L|68:277,1,88.000002685547,4|0,3:2|3:0,0:0:0:0:
30,384,77406,1,8,0:0:0:0:
115,339,77554,2,0,L|246:353,1,132.00000402832,4|0,3:1|0:0,0:0:0:0:
311,298,77849,1,8,0:0:0:0:
318,272,77923,1,8,0:0:0:0:
313,245,77997,1,8,0:0:0:0:
298,222,78071,1,8,0:0:0:0:
275,207,78145,2,0,P|249:203|226:206,2,44.0000013427735,8|8|8,0:0|0:0|0:0,0:0:0:0:
359,153,78441,6,0,P|369:102|335:41,1,88.000002685547,4|0,3:2|0:0,0:0:0:0:
192,70,78736,2,0,B|164:122|164:122|294:111,1,176.000005371094,4|8,3:1|0:0,0:0:0:0:
433,18,79179,1,8,0:0:0:0:
440,176,79327,1,8,0:0:0:0:
440,176,79401,1,8,0:0:0:0:
440,176,79475,6,0,L|461:277,1,88.000002685547,4|0,3:2|3:0,0:0:0:0:
289,354,79771,1,8,0:0:0:0:
373,308,79918,2,0,L|346:178,1,132.00000402832,4|0,3:1|0:0,0:0:0:0:
385,97,80214,1,8,0:0:0:0:
358,89,80288,1,8,0:0:0:0:
331,88,80362,1,8,0:0:0:0:
305,97,80436,1,8,0:0:0:0:
282,113,80510,2,0,P|253:133|222:139,2,44.0000013427735,8|8|8,0:0|0:0|0:0,0:0:0:0:
99,40,80805,6,0,P|141:86|150:126,1,88.000002685547,4|0,3:2|0:0,0:0:0:0:
199,207,81101,2,0,B|137:143|137:143|47:179,1,176.000005371094,4|8,3:1|0:0,0:0:0:0:
12,366,81544,1,8,0:0:0:0:
117,241,81692,1,8,0:0:0:0:
254,375,81840,6,0,L|361:356,1,88.000002685547,4|0,3:2|3:0,0:0:0:0:
511,327,82135,1,8,0:0:0:0:
435,376,82283,2,0,B|421:341|421:341|434:281|434:281|421:243,1,132.00000402832,4|0,3:1|0:0,0:0:0:0:
394,168,82578,1,8,0:0:0:0:
388,141,82652,1,8,0:0:0:0:
392,114,82726,1,8,0:0:0:0:
404,89,82800,1,8,0:0:0:0:
424,71,82874,2,0,P|444:63|466:60,2,44.0000013427735,8|8|8,0:0|0:0|0:0,0:0:0:0:
328,18,83170,6,0,P|289:0|245:-2,1,88.000002685547,4|0,3:2|0:0,0:0:0:0:
110,0,83465,2,0,B|158:23|158:23|145:170,1,176.000005371094,4|8,3:1|0:0,0:0:0:0:
161,300,83909,1,8,0:0:0:0:
264,186,84056,1,8,0:0:0:0:
264,186,84130,1,8,0:0:0:0:
264,186,84204,6,0,B|282:237|282:237|322:211|322:211|433:231,1,176.000005371094,4|0,3:2|0:0,0:0:0:0:
482,292,84622,2,0,B|475:188|475:188|451:157|451:157|448:124,1,176.000005371094,4|0,3:1|0:0,0:0:0:0:
475,13,85069,2,0,B|505:51|505:51|439:38|439:38|384:60,1,176.000005371094,4|0,3:2|0:0,0:0:0:0:
265,30,85517,2,0,B|301:-2|301:-2|294:88|294:88|314:120|314:120|304:229,1,264.000008056641,4|0,3:1|0:0,0:0:0:0:
122,82,86444,5,0,3:0:0:0:
122,82,86517,1,0,3:0:0:0:
122,82,86591,2,0,L|207:94,1,80,8|0,0:0|3:0,0:0:0:0:
186,174,86887,2,0,L|106:162,1,80,8|0,0:0|3:0,0:0:0:0:
72,347,87180,6,0,B|101:304|101:304|144:325|144:325|228:298,1,176.000005371094,4|0,3:2|0:0,0:0:0:0:
353,329,87598,2,0,B|322:215|322:215|302:280,1,176.000005371094,4|0,3:1|0:0,0:0:0:0:
226,160,88045,2,0,B|343:122|343:122|393:170,1,176.000005371094,4|0,3:2|0:0,0:0:0:0:
496,191,88493,2,0,B|460:223|460:223|467:133|467:133|447:101|447:101|457:-8,1,264.000008056641,4|0,3:1|0:0,0:0:0:0:
