osu file format v14

[General]
AudioFilename: audio.mp3
AudioLeadIn: 0
PreviewTime: 41934
Countdown: 0
SampleSet: Soft
StackLeniency: 0.3
Mode: 0
LetterboxInBreaks: 0
WidescreenStoryboard: 1

[Editor]
Bookmarks: 1737,11195,20653,25382,27746,32475,39569,41934,60849,67943,75037,77106,84200,88929
DistanceSpacing: 1.2
BeatDivisor: 4
GridSize: 32
TimelineZoom: 1.8

[Metadata]
Title:3-pun 29-byou (TV Size)
TitleUnicode:3分29秒 (TV Size)
Artist:hitorie
ArtistUnicode:ヒトリエ​
Creator:Ohwow
Version:Hard
Source:86―エイティシックス―
Tags:opening op japanese anime 86 eighty six eighty-six rock jrock j-rock 3:29 3 minutes 29 seconds
BeatmapID:2961972
BeatmapSetID:1438780

[Difficulty]
HPDrainRate:4
CircleSize:3.5
OverallDifficulty:6.6
ApproachRate:8
SliderMultiplier:1.4
SliderTickRate:1

[Events]
//Background and Video events
0,0,"bg.jpg",0,0
Video,0,"video.mp4"
//Break Periods
//Storyboard Layer 0 (Background)
//Storyboard Layer 1 (Fail)
//Storyboard Layer 2 (Pass)
//Storyboard Layer 3 (Foreground)
//Storyboard Layer 4 (Overlay)
//Storyboard Sound Samples

[TimingPoints]
560,295.566502463054,4,2,1,60,1,0
560,-100,4,2,1,60,0,0
1742,-100,4,2,1,60,0,0
6471,-100,4,2,1,70,0,0
8835,-100,4,2,1,70,0,0
11200,-100,4,2,1,75,0,0
20658,-125,4,2,1,60,0,0
25535,-100,4,2,1,60,0,0
27752,-125,4,2,1,60,0,0
32481,-111.111111111111,4,2,1,60,0,0
39574,-100,4,2,1,70,0,0
41939,-90.9090909090909,4,2,1,80,0,1
50584,-90.9090909090909,4,2,1,5,0,1
50658,-90.9090909090909,4,2,1,80,0,1
60855,-100,4,2,1,60,0,0
67949,-100,4,2,1,70,0,0
76816,-100,4,2,1,70,0,0
77111,295.566502463054,4,2,1,70,1,0
77111,-100,4,2,1,70,0,0
84204,279.06976744186,4,2,1,70,1,0
84204,-100,4,2,1,70,0,0
84622,298.507462686567,4,2,1,70,1,0
84622,-100,4,2,1,70,0,0
86444,295.566502463054,4,2,1,70,1,0
87180,279.06976744186,4,2,1,70,1,0
87180,-100,4,2,1,70,0,0
87598,298.507462686567,4,2,1,70,1,0
87598,-100,4,2,1,70,0,0

[Colours]
Combo1 : 223,189,117
Combo2 : 100,216,236
Combo3 : 60,85,204
Combo4 : 170,192,196

[HitObjects]
473,88,560,5,8,0:3:0:0:
405,137,707,2,0,L|399:187,2,35,8|8|4,0:3|0:3|0:3,0:0:0:0:
371,60,1003,2,0,L|375:25,2,35,4|4|0,0:3|0:3|3:0,0:0:0:0:
303,109,1298,2,0,L|233:101,2,70,8|8|8,0:0|0:0|0:0,0:0:0:0:
352,178,1742,6,0,P|372:231|314:313,1,140,2|2,0:0|0:0,0:0:0:0:
180,363,2333,1,2,0:0:0:0:
180,363,2481,2,0,P|147:353|112:349,1,70,2|0,0:0|0:0,0:0:0:0:
27,351,2776,6,0,P|43:296|59:190,1,140,2|2,0:0|0:0,0:0:0:0:
6,54,3367,2,0,P|39:112|106:111,1,140,2|2,0:0|0:0,0:0:0:0:
165,50,3811,1,2,0:0:0:0:
266,184,4106,6,0,L|278:262,2,70,2|2|0,0:0|0:0|0:0,0:0:0:0:
315,114,4550,2,0,P|249:100|194:141,1,140,2|2,0:0|0:0,0:0:0:0:
205,308,5141,6,0,B|313:252|295:343|411:291,1,210,2|0,0:0|0:0,0:0:0:0:
345,138,5880,1,2,0:0:0:0:
345,138,6027,2,0,P|335:103|321:71,2,70,2|0|2,0:0|0:0|0:0,0:0:0:0:
414,187,6471,5,4,3:2:0:0:
468,123,6619,2,0,P|429:104|341:145,1,140,0|8,3:0|0:0,0:0:0:0:
294,205,7062,2,0,L|310:273,1,70,0|0,0:0|3:0,0:0:0:0:
256,339,7358,2,0,L|188:323,1,70,8|0,0:0|0:0,0:0:0:0:
105,341,7653,6,0,B|141:307|141:307|129:217,1,140,0|0,3:0|3:0,0:0:0:0:
81,148,8096,2,0,P|112:133|147:134,1,70,0|8,0:0|0:0,0:0:0:0:
213,187,8392,2,0,B|217:221,2,35,8|8|8,0:0|0:0|0:0,0:0:0:0:
262,121,8688,1,8,0:0:0:0:
262,121,8761,1,8,0:0:0:0:
262,121,8835,6,0,B|322:116|322:116|348:98|348:98|414:90,1,140,4|0,3:2|0:0,0:0:0:0:
460,37,9279,2,0,P|430:88|482:169,1,140,4|0,3:1|0:0,0:0:0:0:
512,221,9722,2,0,B|454:183|454:183|389:213,1,140,4|0,3:2|0:0,0:0:0:0:
343,281,10165,2,0,B|356:196|356:196|339:160|339:160|353:77,1,210,4|2,3:1|0:0,0:0:0:0:
117,38,11200,6,0,B|105:108,1,70,4|0,3:2|3:0,0:0:0:0:
43,165,11495,1,8,0:0:0:0:
83,239,11643,2,0,B|151:251,1,70,4|0,3:1|0:0,0:0:0:0:
242,262,11939,1,8,0:0:0:0:
242,262,12013,1,8,0:0:0:0:
242,262,12087,2,0,L|248:316,4,35,8|8|8|8|8,0:0|0:0|0:0|0:0|0:0,0:0:0:0:
201,188,12530,6,0,P|204:153|222:123,1,70,4|0,3:2|0:0,0:0:0:0:
213,31,12826,2,0,P|247:77|348:55,1,140,4|8,3:1|0:0,0:0:0:0:
389,23,13269,2,0,P|406:52|410:87,1,70,8|8,0:0|0:0,0:0:0:0:
377,164,13564,6,0,B|389:256,1,70,4|0,3:2|3:0,0:0:0:0:
396,318,13860,1,8,0:0:0:0:
318,286,14008,2,0,B|226:298,1,70,4|0,3:1|0:0,0:0:0:0:
165,309,14303,1,8,0:0:0:0:
165,309,14377,1,8,0:0:0:0:
165,309,14451,2,0,L|156:366,4,35,8|8|8|8|8,0:0|0:0|0:0|0:0|0:0,0:0:0:0:
113,242,14894,6,0,P|110:207|123:170,1,70,4|0,3:2|0:0,0:0:0:0:
190,126,15190,2,0,B|270:97|243:149|329:124,1,140,4|8,3:1|0:0,0:0:0:0:
377,59,15633,1,8,0:0:0:0:
377,59,15781,1,8,0:0:0:0:
307,11,15929,6,0,L|237:1,1,70,4|0,3:2|3:0,0:0:0:0:
178,62,16225,1,8,0:0:0:0:
103,25,16372,2,0,L|92:95,1,70,4|0,3:1|0:0,0:0:0:0:
83,185,16668,1,8,0:0:0:0:
83,185,16742,1,8,0:0:0:0:
83,185,16816,2,0,L|48:180,4,35,8|8|8|8|8,0:0|0:0|0:0|0:0|0:0,0:0:0:0:
125,257,17259,6,0,L|194:268,1,70,4|0,3:2|0:0,0:0:0:0:
261,217,17555,2,0,B|228:297|228:297|257:343,1,140,4|8,3:1|0:0,0:0:0:0:
335,371,17998,2,0,L|404:360,1,70,8|8,0:0|0:0,0:0:0:0:
450,357,18220,1,8,0:0:0:0:
450,357,18293,6,0,L|431:209,1,140,4|0,3:2|0:0,0:0:0:0:
491,158,18737,2,0,P|425:175|370:134,1,140,4|0,3:1|0:0,0:0:0:0:
323,66,19180,2,0,B|337:151|337:151|307:196,1,140,4|0,3:2|0:0,0:0:0:0:
375,246,19624,2,0,B|267:196|286:277|171:236,1,210,4|0,3:1|0:0,0:0:0:0:
65,77,20658,6,0,L|53:188,1,112,4|0,3:2|1:0,0:0:0:0:
23,319,21249,2,0,P|54:291|129:290,1,112,0|0,1:0|1:0,0:0:0:0:
197,326,21693,1,2,0:0:0:0:
268,280,21840,1,2,1:2:0:0:
268,280,21988,2,0,L|260:224,1,56,2|0,0:0|1:0,0:0:0:0:
203,162,22284,2,0,B|193:81|193:81|232:41,2,112,2|2|2,0:0|3:2|3:2,0:0:0:0:
285,143,23023,6,0,P|338:131|386:157,1,112,0|0,3:0|1:0,0:0:0:0:
375,325,23614,2,0,L|263:313,1,112,0|0,1:0|1:0,0:0:0:0:
192,277,24057,1,2,0:0:0:0:
192,277,24205,2,0,P|168:292|140:296,2,56,2|2|0,1:2|0:0|1:0,0:0:0:0:
239,206,24648,2,0,B|253:127|253:127|231:103,1,112,2|2,0:0|0:0,0:0:0:0:
170,45,25092,1,0,3:0:0:0:
64,220,25535,6,8,L|3:235,6,35,8|8|8|8|4|4|4,0:3|0:3|0:3|0:3|0:3|0:3|0:3,0:3:0:0:
145,199,26126,1,10,0:0:0:0:
122,32,26422,6,8,L|183:17,6,35,8|8|8|8|4|4|4,0:3|0:3|0:3|0:3|0:3|0:3|0:3,0:3:0:0:
41,53,27013,1,10,0:0:0:0:
145,197,27308,5,8,0:0:0:0:
145,197,27382,1,8,0:0:0:0:
145,197,27456,2,0,L|212:180,1,70,8|0,0:0|3:0,0:0:0:0:
284,134,27752,6,0,P|270:188|265:244,1,112,4|0,3:2|1:0,0:0:0:0:
398,144,28343,2,0,P|393:88|379:33,1,112,0|0,1:0|1:0,0:0:0:0:
302,0,28786,1,2,0:0:0:0:
238,55,28934,5,2,1:2:0:0:
238,55,29082,2,0,P|212:64|185:69,1,56,2|0,0:0|1:2,0:0:0:0:
128,140,29377,2,0,P|82:108|25:113,2,112,2|2|2,0:0|3:2|3:2,0:0:0:0:
174,211,30116,6,0,L|284:194,1,112,0|0,3:0|1:0,0:0:0:0:
211,346,30707,2,0,L|100:329,1,112,0|0,1:0|1:0,0:0:0:0:
54,264,31151,1,2,0:0:0:0:
54,264,31298,6,0,L|61:208,1,56,2|2,1:2|0:0,0:0:0:0:
117,145,31594,2,0,L|172:152,1,56,0|2,3:0|0:0,0:0:0:0:
247,113,31890,2,0,L|241:66,2,37.3333333333333,8|8|8,3:3|0:3|0:3,0:0:0:0:
295,140,32185,2,0,L|290:192,2,37.3333333333333,4|4|4,0:3|0:3|0:3,0:0:0:0:
349,109,32481,6,0,P|381:105|411:114,1,62.9999980773926,4|0,3:2|0:0,0:0:0:0:
470,170,32776,2,0,P|468:224|452:249,1,62.9999980773926,0|0,3:0|0:0,0:0:0:0:
400,282,33072,2,0,P|339:250|274:270,1,125.999996154785,8|2,0:0|0:0,0:0:0:0:
220,222,33515,1,2,3:2:0:0:
220,222,33663,6,0,L|230:159,1,62.9999980773926,0|0,3:0|0:0,0:0:0:0:
194,85,33959,2,0,L|131:74,1,62.9999980773926,0|0,3:0|0:0,0:0:0:0:
50,64,34254,2,0,B|67:153|67:153|43:190,1,125.999996154785,8|2,0:0|0:0,0:0:0:0:
22,344,34845,6,0,P|63:350|101:334,1,83.9999974365235,2|2,3:2|0:0,0:0:0:0:
142,297,35141,2,0,P|134:277|132:256,1,41.9999987182618,2|0,3:0|0:0,0:0:0:0:
241,252,35436,2,0,L|324:263,2,83.9999974365235,10|2|2,0:0|0:0|0:0,0:0:0:0:
183,159,36027,6,0,B|189:120|189:120|182:96|182:96|194:35,1,125.999996154785,2|2,3:2|3:2,0:0:0:0:
280,40,36471,1,2,0:0:0:0:
280,40,36619,2,0,P|288:70|291:101,1,62.9999980773926,8|0,0:0|0:0,0:0:0:0:
366,133,36914,2,0,P|368:101|375:70,1,62.9999980773926,10|8,0:0|0:0,0:0:0:0:
456,58,37210,5,2,3:2:0:0:
493,219,37505,2,0,B|509:301|509:301|471:345,2,125.999996154785,2|8|0,3:2|0:0|0:0,0:0:0:0:
419,182,38244,1,0,3:0:0:0:
360,239,38392,6,0,L|297:233,1,62.9999980773926,0|0,3:0|0:0,0:0:0:0:
214,226,38688,2,0,L|207:163,1,62.9999980773926,0|0,3:0|0:0,0:0:0:0:
166,92,38983,2,0,B|236:66|218:108|305:76,1,125.999996154785,10|2,0:0|0:0,0:0:0:0:
454,42,39574,6,0,L|435:190,1,140,4|0,3:2|0:0,0:0:0:0:
495,241,40018,2,0,P|429:224|374:265,1,140,4|0,3:1|0:0,0:0:0:0:
307,315,40461,2,0,B|334:277|334:277|319:184,1,140,4|0,3:2|0:0,0:0:0:0:
331,101,40904,2,0,P|267:176|175:141,1,210,4|2,3:1|0:0,0:0:0:0:
34,325,41939,6,0,L|116:309,1,77.0000023498536,6|0,3:2|0:0,0:0:0:0:
171,242,42234,2,0,L|253:257,1,77.0000023498536,10|0,0:0|0:0,0:0:0:0:
309,324,42530,1,2,3:0:0:0:
388,276,42678,2,0,P|407:243|408:205,1,77.0000023498536,2|8,3:2|0:0,0:0:0:0:
460,128,42973,6,0,B|429:163|429:163|309:136,1,154.000004699707,6|2,3:2|3:2,0:0:0:0:
268,65,43417,1,8,0:0:0:0:
180,97,43564,2,0,P|134:155|148:229,1,154.000004699707,2|0,3:2|3:0,0:0:0:0:
230,271,44008,2,0,L|314:260,1,77.0000023498536,10|0,0:0|0:0,0:0:0:0:
317,356,44303,5,6,3:2:0:0:
317,356,44451,2,0,L|240:365,1,77.0000023498536,2|8,0:0|0:0,0:0:0:0:
155,325,44747,2,0,L|78:316,1,77.0000023498536,2|0,0:0|3:0,0:0:0:0:
3,370,45042,2,0,P|-8:334|-6:296,1,77.0000023498536,2|8,3:2|0:0,0:0:0:0:
11,207,45338,6,0,B|67:200|67:200|99:216|99:216|160:209,1,154.000004699707,6|0,3:2|3:0,0:0:0:0:
238,160,45781,2,0,P|252:196|249:234,1,77.0000023498536,8|0,0:0|0:0,0:0:0:0:
198,312,46077,1,2,3:2:0:0:
285,346,46225,2,0,L|292:383,2,38.5000011749268,10|8|0,0:0|0:0|3:0,0:0:0:0:
354,284,46520,1,8,0:0:0:0:
354,284,46594,1,8,0:0:0:0:
354,284,46668,6,0,P|423:263|530:263,2,154.000004699707,4|8|2,3:2|0:0|3:2,0:0:0:0:
271,242,47407,1,0,3:0:0:0:
286,150,47555,2,0,L|299:56,1,77.0000023498536,8|0,0:0|0:0,0:0:0:0:
374,23,47850,6,0,P|412:19|447:35,1,77.0000023498536,2|0,3:2|0:0,0:0:0:0:
492,116,48146,1,10,0:0:0:0:
425,179,48293,2,0,L|414:255,1,77.0000023498536,2|0,0:0|3:0,0:0:0:0:
446,342,48589,2,0,L|369:331,1,77.0000023498536,2|8,3:2|0:0,0:0:0:0:
293,277,48885,1,2,0:0:0:0:
217,329,49032,6,0,B|199:295|199:295|214:219,1,115.50000352478,6|0,3:2|0:0,0:0:0:0:
224,173,49328,1,8,0:2:0:0:
195,85,49476,1,0,3:2:0:0:
135,155,49624,2,0,L|119:230,1,77.0000023498536,8|0,0:2|3:2,0:0:0:0:
28,210,49919,2,0,L|44:135,1,77.0000023498536,8|0,0:2|3:2,0:0:0:0:
19,45,50215,1,8,0:2:0:0:
108,66,50362,6,0,B|139:45|139:45|179:59|216:49,1,115.50000352478,0|0,3:0|0:0,0:0:0:0:
257,30,50658,2,0,P|295:23|330:37,1,77.0000023498536,4|0,3:1|0:0,0:0:0:0:
395,103,50954,2,0,L|433:105,5,38.5000011749268,8|8|8|8|8|8,0:0|0:0|0:0|0:0|0:0|0:0,0:0:0:0:
469,134,51397,6,0,P|475:171|468:209,1,77.0000023498536,6|0,3:2|0:0,0:0:0:0:
395,266,51693,2,0,P|357:259|319:265,1,77.0000023498536,10|0,0:0|0:0,0:0:0:0:
256,333,51988,1,2,3:2:0:0:
181,278,52136,2,0,L|192:183,1,77.0000023498536,2|8,3:2|0:0,0:0:0:0:
253,134,52431,6,0,B|215:167|215:167|96:142,1,154.000004699707,6|2,3:2|3:2,0:0:0:0:
31,100,52875,1,8,0:0:0:0:
7,189,53023,2,0,L|45:353,1,154.000004699707,2|2,3:2|3:2,0:0:0:0:
127,373,53466,2,0,P|183:367|215:345,1,77.0000023498536,10|0,0:0|0:0,0:0:0:0:
246,277,53761,6,0,B|313:244|313:244|385:299,1,154.000004699707,6|10,3:2|0:0,0:0:0:0:
450,348,54205,2,0,P|465:296|468:259,1,77.0000023498536,2|0,0:0|3:0,0:0:0:0:
405,204,54500,2,0,P|390:152|387:115,1,77.0000023498536,2|8,3:2|0:0,0:0:0:0:
456,66,54796,6,0,P|412:39|309:75,1,154.000004699707,6|0,3:2|3:0,0:0:0:0:
262,138,55239,2,0,P|256:176|244:212,1,77.0000023498536,8|0,0:0|0:0,0:0:0:0:
183,283,55535,1,0,3:0:0:0:
97,247,55683,2,0,L|32:260,2,38.5000011749268,10|8|0,0:0|0:0|3:0,0:0:0:0:
104,162,55978,1,8,0:0:0:0:
104,162,56052,1,8,0:0:0:0:
104,162,56126,6,0,B|119:8,2,154.000004699707,6|8|2,3:2|0:0|3:2,0:0:0:0:
191,192,56865,1,0,3:0:0:0:
264,136,57013,2,0,B|340:128,1,77.0000023498536,8|0,0:0|0:0,0:0:0:0:
424,167,57308,6,0,P|438:214|433:252,1,77.0000023498536,2|0,3:2|0:0,0:0:0:0:
400,327,57604,1,10,0:0:0:0:
321,278,57752,2,0,B|244:270,1,77.0000023498536,2|0,0:0|3:0,0:0:0:0:
188,343,58047,2,0,B|111:350,1,77.0000023498536,2|8,3:2|0:0,0:0:0:0:
32,300,58343,1,2,0:0:0:0:
34,207,58491,6,0,P|64:154|158:144,2,154.000004699707,4|8|0,3:2|0:0|3:0,0:0:0:0:
122,226,59229,2,0,P|161:218|199:216,1,77.0000023498536,0|0,3:0|0:0,0:0:0:0:
274,267,59525,6,0,B|288:203|288:203|272:156|272:156|280:118,1,154.000004699707,8|0,0:0|3:0,0:0:0:0:
262,27,59968,2,0,L|337:39,1,77.0000023498536,12|0,0:0|3:0,0:0:0:0:
407,101,60264,2,0,L|473:89,2,51.3333348999024,8|8|8,0:0|0:0|0:0,0:0:0:0:
371,151,60559,2,0,L|305:163,2,51.3333348999024,8|4|4,0:3|0:3|0:3,0:0:0:0:
414,187,60855,6,0,B|438:213|438:213|423:327,1,140,6|2,3:2|3:0,0:0:0:0:
358,368,61298,1,0,0:0:0:0:
308,299,61446,2,0,P|251:261|185:279,1,140,10|0,0:0|0:0,0:0:0:0:
125,338,61890,1,2,3:2:0:0:
56,290,62037,6,0,L|75:201,1,70,2|0,3:2|0:0,0:0:0:0:
129,161,62333,2,0,L|115:92,1,70,2|0,3:0|0:0,0:0:0:0:
86,13,62628,2,0,B|171:-7|141:43|221:22,1,140,10|2,0:0|0:0,0:0:0:0:
388,0,63220,6,0,P|411:55|369:130,1,140,2|2,3:2|3:2,0:0:0:0:
303,161,63663,1,0,0:0:0:0:
303,161,63811,2,0,P|270:220|293:284,1,140,10|2,0:0|0:2,0:0:0:0:
366,335,64254,1,0,3:0:0:0:
366,335,64402,6,0,B|469:322|469:322|496:345,2,140,2|0|8,3:2|3:0|0:0,0:0:0:0:
197,351,65289,1,8,0:0:0:0:
216,269,65436,1,8,0:0:0:0:
236,187,65584,1,6,3:2:0:0:
245,161,66766,5,6,3:2:0:0:
477,348,67949,6,0,L|407:358,1,70,4|0,3:2|3:0,0:0:0:0:
348,297,68245,1,8,0:0:0:0:
273,334,68392,2,0,L|262:264,1,70,4|0,3:1|0:0,0:0:0:0:
253,174,68688,1,8,0:0:0:0:
253,174,68762,1,8,0:0:0:0:
253,174,68836,2,0,L|218:179,4,35,8|8|8|8|8,0:0|0:0|0:0|0:0|0:0,0:0:0:0:
333,199,69279,6,0,P|336:164|323:127,1,70,4|0,3:2|0:0,0:0:0:0:
374,62,69574,2,0,B|337:87|337:87|240:59,1,140,4|8,3:1|0:0,0:0:0:0:
170,20,70018,2,0,P|159:53|162:87,1,70,8|8,0:0|0:0,0:0:0:0:
201,162,70313,6,0,L|208:231,1,70,4|0,3:2|3:0,0:0:0:0:
163,303,70609,1,8,0:0:0:0:
219,365,70757,2,0,L|288:358,1,70,4|0,3:1|0:0,0:0:0:0:
358,308,71052,1,8,0:0:0:0:
358,308,71126,1,8,0:0:0:0:
358,308,71200,2,0,L|414:313,4,35,8|8|8|8|8,0:0|0:0|0:0|0:0|0:0,0:0:0:0:
303,243,71643,6,0,P|289:211|288:176,1,70,4|0,3:2|0:0,0:0:0:0:
333,104,71939,2,0,P|378:147|468:131,1,140,4|8,3:1|0:0,0:0:0:0:
505,78,72382,1,8,0:0:0:0:
505,78,72530,1,8,0:0:0:0:
453,11,72678,6,0,L|384:-1,1,70,4|0,3:2|3:0,0:0:0:0:
314,46,72973,1,8,0:0:0:0:
243,0,73121,2,0,L|231:69,1,70,4|0,3:1|0:0,0:0:0:0:
212,157,73417,1,8,0:0:0:0:
212,157,73491,1,8,0:0:0:0:
212,157,73564,2,0,P|195:164|178:167,4,35,8|8|8|8|8,0:0|0:0|0:0|0:0|0:0,0:0:0:0:
296,155,74008,6,0,L|284:224,1,70,4|0,3:2|0:0,0:0:0:0:
357,264,74303,2,0,L|218:282,1,140,4|8,3:1|0:0,0:0:0:0:
147,329,74747,2,0,L|77:320,1,70,8|8,0:0|0:0,0:0:0:0:
67,279,74968,1,8,0:0:0:0:
67,279,75042,6,0,P|67:204|51:121,1,140,4|0,3:2|0:0,0:0:0:0:
14,66,75486,2,0,B|50:101|50:101|163:81,1,140,4|0,3:1|0:0,0:0:0:0:
197,25,75929,2,0,B|159:84|159:84|202:138,1,140,4|0,3:2|0:0,0:0:0:0:
147,202,76372,2,0,B|211:187|211:187|248:213|248:213|345:193,1,210,4|2,3:1|0:0,0:0:0:0:
390,30,77111,6,0,B|298:18,1,70,4|0,3:2|3:0,0:0:0:0:
236,11,77407,1,8,0:0:0:0:
268,89,77555,2,0,B|256:181,1,70,4|0,3:1|0:0,0:0:0:0:
253,249,77850,1,8,0:0:0:0:
253,249,77924,1,8,0:0:0:0:
253,249,77998,2,0,L|196:258,4,35,8|8|8|8|8,0:0|0:0|0:0|0:0|0:0,0:0:0:0:
332,277,78441,6,0,P|366:284|399:274,1,70,4|0,3:2|0:0,0:0:0:0:
483,270,78737,2,0,P|424:234|410:167,1,140,4|8,3:1|0:0,0:0:0:0:
446,93,79179,2,0,P|412:82|378:89,1,70,8|8,0:0|0:0,0:0:0:0:
303,129,79476,6,0,L|211:120,1,70,4|0,3:2|3:0,0:0:0:0:
167,69,79771,1,8,0:0:0:0:
101,121,79918,2,0,L|92:213,1,70,4|0,3:1|0:0,0:0:0:0:
86,281,80214,1,8,0:0:0:0:
86,281,80288,1,8,0:0:0:0:
86,281,80362,2,0,P|68:284|51:282,4,35,8|8|8|8|8,0:0|0:0|0:0|0:0|0:0,0:0:0:0:
168,265,80805,6,0,L|241:273,1,70,4|0,3:2|0:0,0:0:0:0:
315,307,81101,2,0,B|283:271|283:271|292:179,1,140,4|8,3:1|0:0,0:0:0:0:
361,130,81544,1,8,0:0:0:0:
361,130,81692,1,8,0:0:0:0:
426,182,81840,6,0,B|419:251,1,70,4|0,3:2|3:0,0:0:0:0:
458,326,82135,1,8,0:0:0:0:
389,375,82283,2,0,B|319:381,1,70,4|0,3:1|0:0,0:0:0:0:
246,333,82578,1,8,0:0:0:0:
246,333,82652,1,8,0:0:0:0:
246,333,82726,2,0,P|244:315|244:298,4,35,8|8|8|8|8,0:0|0:0|0:0|0:0|0:0,0:0:0:0:
163,351,83170,6,0,P|157:316|162:282,1,70,4|0,3:2|0:0,0:0:0:0:
213,214,83465,2,0,B|154:252|154:252|88:230,1,140,4|8,3:1|0:0,0:0:0:0:
27,169,83909,2,0,P|21:134|26:100,1,70,8|8,0:0|0:0,0:0:0:0:
50,67,84130,1,8,0:0:0:0:
50,67,84204,6,0,L|193:78,1,140,4|0,3:2|0:0,0:0:0:0:
253,23,84622,2,0,B|223:118|223:118|245:151,1,140,4|0,3:1|0:0,0:0:0:0:
317,196,85069,2,0,P|255:185|188:242,1,140,4|0,3:2|0:0,0:0:0:0:
119,265,85517,2,0,B|186:246|186:246|233:298,1,140,4|0,3:1|0:0,0:0:0:0:
425,262,86444,5,0,3:0:0:0:
425,262,86517,1,0,3:0:0:0:
425,262,86591,2,0,P|421:227|413:193,1,70,8|0,0:0|3:0,0:0:0:0:
328,189,86887,2,0,P|336:154|339:120,1,70,8|0,0:0|3:0,0:0:0:0:
386,45,87180,6,0,P|339:78|237:69,1,140,4|0,3:2|0:0,0:0:0:0:
210,17,87598,2,0,B|232:104|232:104|203:145,1,140,4|0,3:1|0:0,0:0:0:0:
234,222,88045,2,0,B|187:173|187:173|96:199,1,140,4|0,3:2|0:0,0:0:0:0:
54,137,88493,2,0,B|68:192|68:192|97:214|97:214|125:327,1,210,4|0,3:1|0:0,0:0:0:0:
