osu file format v14

[General]
AudioFilename: audio.mp3
AudioLeadIn: 0
PreviewTime: 41934
Countdown: 0
SampleSet: Soft
StackLeniency: 0.3
Mode: 0
LetterboxInBreaks: 0
WidescreenStoryboard: 0

[Editor]
Bookmarks: 1737,11195,20653,25382,27746,32475,39569,41934,60849,67943,75037,77106,84200,88929
DistanceSpacing: 1.4
BeatDivisor: 4
GridSize: 32
TimelineZoom: 1.8

[Metadata]
Title:3-pun 29-byou (TV Size)
TitleUnicode:3分29秒 (TV Size)
Artist:hitorie
ArtistUnicode:ヒトリエ​
Creator:Ohwow
Version:1:29
Source:86―エイティシックス―
Tags:opening op japanese anime 86 eighty six eighty-six rock jrock j-rock 3:29 3 minutes 29 seconds
BeatmapID:2960367
BeatmapSetID:1438780

[Difficulty]
HPDrainRate:5
CircleSize:4.2
OverallDifficulty:8
ApproachRate:9.2
SliderMultiplier:1.8
SliderTickRate:1

[Events]
//Background and Video events
0,0,"bg.jpg",0,0
Video,0,"video.mp4"
//Break Periods
//Storyboard Layer 0 (Background)
//Storyboard Layer 1 (Fail)
//Storyboard Layer 2 (Pass)
//Storyboard Layer 3 (Foreground)
//Storyboard Layer 4 (Overlay)
//Storyboard Sound Samples

[TimingPoints]
560,295.566502463054,4,2,1,60,1,0
560,-125,4,2,1,60,0,0
1742,-166.666666666667,4,2,1,60,0,0
6471,-100,4,2,1,70,0,0
6840,-100,4,2,1,5,0,0
6914,-100,4,2,1,70,0,0
8835,-83.3333333333333,4,2,1,70,0,0
11200,-83.3333333333333,4,2,1,75,0,0
11865,-83.3333333333333,4,2,1,5,0,0
11939,-83.3333333333333,4,2,1,75,0,0
12752,-83.3333333333333,4,2,1,5,0,0
12826,-83.3333333333333,4,2,1,75,0,0
13047,-83.3333333333333,4,2,1,5,0,0
13121,-83.3333333333333,4,2,1,75,0,0
14229,-83.3333333333333,4,2,1,5,0,0
14303,-83.3333333333333,4,2,1,75,0,0
15116,-83.3333333333333,4,2,1,5,0,0
15190,-83.3333333333333,4,2,1,75,0,0
15412,-83.3333333333333,4,2,1,5,0,0
15486,-83.3333333333333,4,2,1,75,0,0
16594,-83.3333333333333,4,2,1,5,0,0
16668,-83.3333333333333,4,2,1,75,0,0
17481,-83.3333333333333,4,2,1,5,0,0
17555,-83.3333333333333,4,2,1,75,0,0
17776,-83.3333333333333,4,2,1,5,0,0
17850,-83.3333333333333,4,2,1,75,0,0
20658,-125,4,2,1,60,0,0
32481,-100,4,2,1,60,0,0
39279,-76.9230769230769,4,2,1,70,0,0
39500,-66.6666666666667,4,2,1,5,0,0
39574,-83.3333333333333,4,2,1,70,0,0
41939,-76.9230769230769,4,2,1,80,0,1
42160,-76.9230769230769,4,2,1,5,0,1
42234,-76.9230769230769,4,2,1,80,0,1
43786,-76.9230769230769,4,2,1,5,0,1
43860,-76.9230769230769,4,2,1,80,0,1
46890,-76.9230769230769,4,2,1,5,0,1
46963,-76.9230769230769,4,2,1,80,0,1
48072,-76.9230769230769,4,2,1,5,0,1
48146,-76.9230769230769,4,2,1,80,0,1
49254,-76.9230769230769,4,2,1,5,0,1
49328,-76.9230769230769,4,2,1,80,0,1
50880,-76.9230769230769,4,2,1,5,0,1
50954,-76.9230769230769,4,2,1,80,0,1
51619,-76.9230769230769,4,2,1,5,0,1
51693,-76.9230769230769,4,2,1,80,0,1
53244,-76.9230769230769,4,2,1,5,0,1
53318,-76.9230769230769,4,2,1,80,0,1
53983,-76.9230769230769,4,2,1,5,0,1
54057,-76.9230769230769,4,2,1,80,0,1
56348,-76.9230769230769,4,2,1,5,0,1
56422,-76.9230769230769,4,2,1,80,0,1
57530,-76.9230769230769,4,2,1,5,0,1
57604,-76.9230769230769,4,2,1,80,0,1
58712,-76.9230769230769,4,2,1,5,0,1
58786,-76.9230769230769,4,2,1,80,0,1
60855,-100,4,2,1,60,0,0
67949,-83.3333333333333,4,2,1,70,0,0
68614,-83.3333333333333,4,2,1,5,0,0
68688,-83.3333333333333,4,2,1,70,0,0
69500,-83.3333333333333,4,2,1,5,0,0
69574,-83.3333333333333,4,2,1,70,0,0
69796,-83.3333333333333,4,2,1,5,0,0
69870,-83.3333333333333,4,2,1,70,0,0
70978,-83.3333333333333,4,2,1,5,0,0
71052,-83.3333333333333,4,2,1,70,0,0
71865,-83.3333333333333,4,2,1,5,0,0
71939,-83.3333333333333,4,2,1,70,0,0
72160,-83.3333333333333,4,2,1,5,0,0
72234,-83.3333333333333,4,2,1,70,0,0
73343,-83.3333333333333,4,2,1,5,0,0
73417,-83.3333333333333,4,2,1,70,0,0
74229,-83.3333333333333,4,2,1,5,0,0
74303,-83.3333333333333,4,2,1,70,0,0
74525,-83.3333333333333,4,2,1,5,0,0
74599,-83.3333333333333,4,2,1,70,0,0
76816,-66.6666666666667,4,2,1,70,0,0
77037,-66.6666666666667,4,2,1,5,0,0
77111,295.566502463054,4,2,1,70,1,0
77111,-83.3333333333333,4,2,1,70,0,0
77776,-83.3333333333333,4,2,1,5,0,0
77849,-83.3333333333333,4,2,1,70,0,0
78662,-83.3333333333333,4,2,1,5,0,0
78736,-83.3333333333333,4,2,1,70,0,0
78958,-83.3333333333333,4,2,1,5,0,0
79032,-83.3333333333333,4,2,1,70,0,0
80140,-83.3333333333333,4,2,1,5,0,0
80214,-83.3333333333333,4,2,1,70,0,0
81027,-83.3333333333333,4,2,1,5,0,0
81101,-83.3333333333333,4,2,1,70,0,0
81322,-83.3333333333333,4,2,1,5,0,0
81396,-83.3333333333333,4,2,1,70,0,0
82505,-83.3333333333333,4,2,1,5,0,0
82578,-83.3333333333333,4,2,1,70,0,0
83391,-83.3333333333333,4,2,1,5,0,0
83465,-83.3333333333333,4,2,1,70,0,0
83687,-83.3333333333333,4,2,1,5,0,0
83761,-83.3333333333333,4,2,1,70,0,0
84204,279.06976744186,4,2,1,70,1,0
84204,-83.3333333333333,4,2,1,70,0,0
84622,298.507462686567,4,2,1,70,1,0
84622,-83.3333333333333,4,2,1,70,0,0
86444,295.566502463054,4,2,1,70,1,0
87180,279.06976744186,4,2,1,70,1,0
87180,-83.3333333333333,4,2,1,70,0,0
87598,298.507462686567,4,2,1,70,1,0
87598,-83.3333333333333,4,2,1,70,0,0

[Colours]
Combo1 : 223,189,117
Combo2 : 100,216,236
Combo3 : 60,85,204
Combo4 : 170,192,196

[HitObjects]
512,96,560,5,8,0:3:0:0:
452,149,707,2,0,L|459:184,2,36,8|8|4,0:3|0:3|0:3,0:0:0:0:
436,71,1003,2,0,L|428:35,2,36,4|4|0,0:3|0:3|3:0,0:0:0:0:
377,124,1298,6,0,L|341:131,1,36,8|0,0:0|0:0,0:0:0:0:
272,147,1446,2,0,L|236:154,1,36,8|0,0:0|0:0,0:0:0:0:
167,170,1594,2,0,L|131:177,1,36,8|0,0:0|0:0,0:0:0:0:
43,140,1742,6,0,L|69:265,1,107.999996704102,2|2,0:0|0:0,0:0:0:0:
121,353,2333,1,2,0:0:0:0:
121,353,2481,2,0,L|132:300,1,53.9999983520508,2|0,0:0|0:0,0:0:0:0:
206,245,2776,6,0,B|265:262|258:233|312:254,1,107.999996704102,2|2,0:0|0:0,0:0:0:0:
430,379,3367,2,0,B|404:370|404:370|391:290,1,107.999996704102,2|2,0:0|0:0,0:0:0:0:
438,217,3811,2,0,P|413:206|386:204,1,53.9999983520508,2|0,0:0|0:0,0:0:0:0:
260,240,4106,5,2,0:0:0:0:
260,240,4254,2,0,P|285:251|312:254,1,53.9999983520508,2|0,0:0|0:0,0:0:0:0:
268,157,4550,2,0,P|215:163|182:204,1,107.999996704102,2|2,0:0|0:0,0:0:0:0:
140,344,5141,6,0,P|124:273|40:255,1,161.999995056153,2|0,0:0|0:0,0:0:0:0:
182,204,5880,1,2,0:0:0:0:
182,204,6027,2,0,P|197:180|204:151,2,53.9999983520508,2|0|2,0:0|0:0|0:0,0:0:0:0:
91,64,6471,5,4,3:2:0:0:
14,90,6619,2,0,P|75:147|134:132,1,135,0|0,3:0|0:0,0:0:0:0:
185,86,6914,2,0,P|189:41|205:0,1,90,8|0,0:0|0:0,0:0:0:0:
358,96,7210,1,0,3:0:0:0:
291,157,7358,2,0,P|274:115|270:70,1,90,8|0,0:0|0:0,0:0:0:0:
480,24,7653,5,0,3:0:0:0:
358,96,7801,1,8,0:0:0:0:
497,131,7949,2,0,L|514:239,1,90,0|0,3:0|0:0,0:0:0:0:
358,96,8244,2,0,L|375:204,1,90,8|8,0:0|0:0,0:0:0:0:
374,193,8466,1,8,0:0:0:0:
375,201,8540,1,8,0:0:0:0:
431,356,8688,1,8,0:0:0:0:
422,353,8761,1,8,0:0:0:0:
411,351,8835,6,0,B|344:335|344:335|318:294|318:294|223:354,1,215.999993408203,4|0,3:2|0:0,0:0:0:0:
125,321,9279,2,0,B|188:284|188:284|151:271|151:271|133:273|133:273|49:248,1,215.999993408203,4|0,3:1|0:0,0:0:0:0:
18,171,9722,2,0,B|-7:124|-7:124|79:152|79:152|97:180|97:180|137:194,1,215.999993408203,4|0,3:2|0:0,0:0:0:0:
268,169,10165,2,0,B|216:197|216:197|246:98|246:98|218:52,1,215.999993408203,4|2,3:1|0:0,0:0:0:0:
210,38,10535,1,2,0:0:0:0:
202,24,10609,1,2,0:0:0:0:
310,43,10757,1,2,0:0:0:0:
301,29,10830,1,2,0:0:0:0:
293,15,10904,6,0,B|395:45,2,53.9999983520508,2|2|2,0:0|0:0|0:0,0:0:0:0:
373,209,11200,6,0,B|269:178,1,107.999996704102,4|0,3:2|3:0,0:0:0:0:
351,108,11422,1,0,3:0:0:0:
346,123,11495,1,8,0:0:0:0:
151,179,11643,2,0,P|217:179|237:277,1,161.999995056153,4|0,3:1|0:0,0:0:0:0:
356,305,11939,1,8,0:0:0:0:
324,279,12013,1,8,0:0:0:0:
285,274,12087,1,8,0:0:0:0:
248,290,12160,1,8,0:0:0:0:
225,323,12234,2,0,L|204:382,2,53.9999983520508,8|8|8,0:0|0:0|0:0,0:0:0:0:
29,311,12530,6,0,B|-13:292|-13:292|150:260,1,161.999995056153,4|0,3:2|0:0,0:0:0:0:
155,170,12826,2,0,P|81:179|82:253,1,161.999995056153,4|0,3:1|0:0,0:0:0:0:
181,255,13121,2,0,B|260:239,1,53.9999983520508,8|0,0:0|0:0,0:0:0:0:
311,230,13269,2,0,B|390:214,1,53.9999983520508,8|0,0:0|0:0,0:0:0:0:
302,60,13417,1,8,0:0:0:0:
285,58,13491,1,8,0:0:0:0:
268,56,13564,6,0,P|230:93|243:151,1,107.999996704102,4|0,3:2|3:0,0:0:0:0:
323,151,13786,1,0,3:0:0:0:
333,138,13860,1,8,0:0:0:0:
185,4,14008,2,0,B|219:29|219:29|335:0,1,161.999995056153,4|0,3:1|0:0,0:0:0:0:
487,69,14303,1,8,0:0:0:0:
448,59,14377,1,8,0:0:0:0:
408,49,14451,1,8,0:0:0:0:
368,40,14525,1,8,0:0:0:0:
329,30,14599,2,0,B|316:82,2,53.9999983520508,8|8|8,0:0|0:0|0:0,0:0:0:0:
472,151,14894,6,0,P|501:221|448:277,1,161.999995056153,4|0,3:2|0:0,0:0:0:0:
287,278,15190,2,0,B|320:239|320:239|425:271,1,161.999995056153,4|0,3:1|0:0,0:0:0:0:
360,384,15486,2,0,L|348:331,1,53.9999983520508,8|0,0:0|0:0,0:0:0:0:
198,248,15633,2,0,L|209:300,1,53.9999983520508,8|0,0:0|0:0,0:0:0:0:
71,384,15781,2,0,L|59:331,1,53.9999983520508,8|0,0:0|0:0,0:0:0:0:
19,128,15929,6,0,B|98:139|98:139|112:174,1,107.999996704102,4|0,3:2|3:0,0:0:0:0:
44,208,16151,1,0,3:0:0:0:
27,206,16225,1,8,0:0:0:0:
127,285,16372,2,0,P|113:237|215:175,1,161.999995056153,4|0,3:1|0:0,0:0:0:0:
233,257,16668,1,8,0:0:0:0:
225,217,16742,1,8,0:0:0:0:
217,177,16816,1,8,0:0:0:0:
209,137,16890,1,8,0:0:0:0:
201,98,16963,2,8,L|123:86,2,53.9999983520508,8|8|8,0:0|0:0|0:0,0:0:0:0:
304,133,17259,6,0,B|364:78|364:78|438:108,1,161.999995056153,4|0,3:2|0:0,0:0:0:0:
354,264,17555,2,0,P|355:186|287:150,1,161.999995056153,4|0,3:1|0:0,0:0:0:0:
281,313,17850,2,0,P|255:309|232:296,1,53.9999983520508,8|0,0:0|0:0,0:0:0:0:
159,251,17998,2,0,P|132:255|109:268,1,53.9999983520508,8|0,0:0|0:0,0:0:0:0:
51,360,18146,1,8,0:0:0:0:
47,343,18220,1,8,0:0:0:0:
44,327,18293,6,0,B|28:247|28:247|-14:217|-14:217|90:198,1,215.999993408203,4|0,3:2|0:0,0:0:0:0:
67,82,18737,2,0,B|9:131|9:131|76:119|76:119|142:149,1,215.999993408203,4|0,3:1|0:0,0:0:0:0:
262,147,19180,2,0,B|233:113|233:113|218:199|218:199|181:222|181:222|211:250,1,215.999993408203,4|0,3:2|0:0,0:0:0:0:
286,291,19624,2,0,B|300:221|300:221|357:258|357:258|406:238|406:238|422:207|422:207|512:172,1,323.999990112305,4|0,3:1|0:0,0:0:0:0:
425,119,20215,5,2,0:0:0:0:
440,113,20289,1,2,0:0:0:0:
455,108,20362,1,2,0:0:0:0:
396,44,20510,1,2,0:0:0:0:
411,38,20584,1,2,0:0:0:0:
426,33,20658,6,0,L|284:3,1,144,4|0,3:2|1:0,0:0:0:0:
143,166,21249,2,0,L|284:136,1,144,0|0,1:0|1:0,0:0:0:0:
355,179,21693,5,2,0:0:0:0:
405,112,21840,1,2,1:2:0:0:
426,193,21988,2,0,L|324:172,1,72,2|0,0:0|1:0,0:0:0:0:
372,282,22284,2,0,L|514:252,2,144,2|2|2,0:0|3:2|3:2,0:0:0:0:
297,296,23023,6,0,P|232:264|162:249,1,144,0|0,3:0|1:0,0:0:0:0:
218,102,23614,2,0,P|288:87|352:55,1,144,0|0,1:0|1:0,0:0:0:0:
428,25,24057,5,2,0:0:0:0:
483,84,24205,2,0,P|453:103|418:105,2,72,2|2|0,1:2|0:0|1:0,0:0:0:0:
458,187,24648,2,0,P|404:140|334:142,1,144,2|2,0:0|0:0,0:0:0:0:
272,188,25092,1,0,3:0:0:0:
103,63,25535,6,8,L|89:20,1,36,8|8,0:3|0:3,0:3:0:0:
155,234,25683,2,8,L|168:276,1,36,8|8,0:3|0:3,0:3:0:0:
189,81,25830,2,4,L|219:48,1,36,4|4,0:3|0:3,0:3:0:0:
66,213,25978,2,4,L|35:245,1,36,4|4,0:3|0:3,0:3:0:0:
127,147,26126,1,10,0:0:0:0:
92,66,26422,6,8,L|78:23,1,36,8|8,0:3|0:3,0:3:0:0:
144,237,26569,2,8,L|157:279,1,36,8|8,0:3|0:3,0:3:0:0:
178,84,26717,2,4,L|208:51,1,36,4|4,0:3|0:3,0:3:0:0:
55,216,26865,2,4,L|24:248,1,36,4|4,0:3|0:3,0:3:0:0:
116,150,27013,1,10,0:0:0:0:
391,24,27308,6,0,L|426:31,1,36,8|8,0:0|0:0,0:0:0:0:
442,123,27456,1,8,0:0:0:0:
416,118,27530,1,0,3:0:0:0:
389,112,27604,1,0,3:0:0:0:
363,106,27678,1,0,3:0:0:0:
335,101,27752,6,0,P|288:159|303:226,1,144,4|0,3:2|1:0,0:0:0:0:
408,384,28343,2,0,P|419:315|373:262,1,144,0|0,1:0|1:0,0:0:0:0:
298,299,28786,5,2,0:0:0:0:
230,259,28934,1,2,1:2:0:0:
230,259,29082,2,0,L|219:187,1,72,2|0,0:0|1:2,0:0:0:0:
147,145,29377,2,0,P|204:105|272:123,2,144,2|2|2,0:0|3:2|3:2,0:0:0:0:
130,227,30116,6,0,B|32:247|32:247|0:218,1,144,0|0,3:0|1:0,0:0:0:0:
155,44,30707,2,0,B|187:14|187:14|285:35,1,144,0|0,1:0|1:0,0:0:0:0:
363,61,31151,5,2,0:0:0:0:
292,104,31298,2,0,P|280:62|289:27,2,72,2|2|0,1:2|0:0|3:0,0:0:0:0:
364,143,31742,1,2,0:0:0:0:
444,174,31890,2,0,L|451:126,2,48,8|8|8,3:3|0:3|0:3,0:0:0:0:
386,271,32185,2,0,L|379:224,2,48,4|4|4,0:3|0:3|0:3,0:0:0:0:
443,328,32481,6,0,P|404:349|360:347,1,90,4|0,3:2|0:0,0:0:0:0:
289,238,32776,2,0,P|251:215|207:218,1,90,0|0,3:0|0:0,0:0:0:0:
97,289,33072,1,8,0:0:0:0:
88,103,33367,5,2,0:0:0:0:
88,103,33515,1,2,3:2:0:0:
52,180,33663,6,0,B|111:190|111:190|152:157,1,90,0|0,3:0|0:0,0:0:0:0:
202,74,33959,2,0,B|261:64|261:64|302:97,1,90,0|0,3:0|0:0,0:0:0:0:
379,157,34254,1,8,0:0:0:0:
379,157,34550,2,0,P|366:104|394:63,1,90,2|0,0:0|0:0,0:0:0:0:
509,68,34845,6,0,B|526:96|526:96|507:131|500:178,1,120,2|2,3:2|0:0,0:0:0:0:
459,254,35141,1,2,3:0:0:0:
459,254,35239,2,0,P|425:256|393:246,1,60,2|0,0:0|0:0,0:0:0:0:
312,209,35436,2,0,P|258:200|202:237,2,120,10|2|2,0:0|0:0|0:0,0:0:0:0:
327,224,35880,1,0,3:0:0:0:
188,353,36027,6,0,B|159:383|159:383|134:247,1,180,2|2,3:2|3:2,0:0:0:0:
105,91,36471,1,2,0:0:0:0:
75,180,36619,2,0,B|163:164,1,90,8|0,0:0|0:0,0:0:0:0:
339,50,36914,1,10,0:0:0:0:
251,66,37062,1,8,0:0:0:0:
309,139,37210,1,2,3:2:0:0:
309,139,37505,6,0,B|321:215|321:215|306:256|306:256|316:314,2,180,2|8|0,3:2|0:0|0:0,0:0:0:0:
221,155,38244,1,0,3:0:0:0:
403,170,38392,2,0,B|389:81,1,90,0|0,3:0|0:0,0:0:0:0:
221,155,38688,2,0,B|235:245,1,90,0|0,3:0|0:0,0:0:0:0:
389,81,38983,1,10,0:0:0:0:
139,21,39279,6,0,B|184:22|184:22|46:65,1,175.499991966248,2|0,0:0|0:0,0:0:0:0:
0,121,39574,6,0,B|46:149|46:149|145:119|145:119|100:202,1,215.999993408203,4|0,3:2|0:0,0:0:0:0:
18,292,40018,2,0,B|12:222|12:222|77:263|77:263|190:233,1,215.999993408203,4|0,3:1|0:0,0:0:0:0:
306,169,40461,2,0,B|284:191|284:191|198:186|198:186|286:230,1,215.999993408203,4|0,3:2|0:0,0:0:0:0:
428,288,40904,2,0,B|413:346|413:346|390:247|390:247|398:232|398:232|389:194,1,215.999993408203,4|2,3:1|0:0,0:0:0:0:
386,180,41274,1,2,0:0:0:0:
382,164,41348,1,2,0:0:0:0:
417,56,41495,1,2,0:0:0:0:
420,72,41569,1,2,0:0:0:0:
423,88,41643,6,0,L|475:76,2,53.9999983520508,2|2|2,0:0|0:0|0:0,0:0:0:0:
297,175,41939,6,0,P|260:122|162:139,1,175.499991966248,6|0,3:2|0:0,0:0:0:0:
155,221,42234,2,0,B|184:251|184:251|264:250,1,116.999994644165,10|0,0:0|0:0,0:0:0:0:
167,42,42530,1,2,3:0:0:0:
68,186,42678,2,0,B|73:270|73:270|98:289,1,116.999994644165,2|8,3:2|0:0,0:0:0:0:
349,325,42973,6,0,P|386:281|387:224,1,116.999994644165,6|0,3:2|0:0,0:0:0:0:
288,62,43269,2,0,P|250:105|249:162,1,116.999994644165,2|8,3:2|0:0,0:0:0:0:
497,139,43564,2,0,B|442:128|442:128|404:149|404:149|329:134,1,175.499991966248,2|0,3:2|0:0,0:0:0:0:
288,62,43860,1,0,3:0:0:0:
192,229,44008,2,0,B|306:251,1,116.999994644165,10|0,0:0|0:0,0:0:0:0:
288,62,44303,5,6,3:2:0:0:
111,271,44451,2,0,B|98:198|98:198|150:146,1,116.999994644165,2|8,0:0|0:0,0:0:0:0:
307,251,44747,2,0,B|320:324|320:324|289:354,1,116.999994644165,2|0,0:0|3:0,0:0:0:0:
46,368,45042,1,2,3:2:0:0:
231,295,45190,1,8,0:0:0:0:
48,124,45338,6,0,B|-5:77|-5:77|26:245,1,233.999989288331,6|0,3:2|3:0,0:0:0:0:
231,295,45781,2,0,B|252:179,1,116.999994644165,8|0,0:0|0:0,0:0:0:0:
461,57,46077,1,2,3:2:0:0:
361,232,46225,1,10,0:0:0:0:
343,234,46298,1,8,0:0:0:0:
325,236,46372,1,0,3:0:0:0:
228,33,46520,1,8,0:0:0:0:
246,35,46594,1,8,0:0:0:0:
264,37,46668,6,0,P|301:103|231:185,1,175.499991966248,4|0,3:2|0:0,0:0:0:0:
166,167,46963,2,0,L|148:43,1,116.999994644165,8|0,0:0|0:0,0:0:0:0:
325,236,47259,1,2,3:2:0:0:
166,167,47407,1,0,3:0:0:0:
395,160,47555,2,0,L|411:275,1,116.999994644165,8|0,0:0|0:0,0:0:0:0:
157,370,47850,6,0,P|167:287|265:277,1,175.499991966248,2|0,3:2|0:0,0:0:0:0:
308,322,48146,1,10,0:0:0:0:
163,195,48293,2,0,L|44:218,1,116.999994644165,2|0,0:0|3:0,0:0:0:0:
199,69,48589,2,0,L|318:92,1,116.999994644165,2|8,3:2|0:0,0:0:0:0:
89,0,48885,1,2,0:0:0:0:
268,172,49032,6,0,P|316:108|421:136,1,175.499991966248,6|0,3:2|0:0,0:0:0:0:
453,184,49328,5,8,0:2:0:0:
420,324,49476,1,0,3:2:0:0:
246,178,49624,5,8,0:2:0:0:
275,365,49771,1,0,3:2:0:0:
145,108,49919,5,8,0:2:0:0:
88,346,50067,1,0,3:2:0:0:
0,23,50215,5,8,0:2:0:0:
23,279,50362,2,0,P|90:257|152:272,1,116.999994644165,0|0,3:0|0:0,0:0:0:0:
318,232,50658,2,0,P|284:260|233:148,1,175.499991966248,4|0,3:1|0:0,0:0:0:0:
152,8,50954,1,8,0:0:0:0:
165,22,51027,1,8,0:0:0:0:
174,39,51101,1,8,0:0:0:0:
178,58,51175,1,8,0:0:0:0:
177,77,51249,1,8,0:0:0:0:
172,96,51323,1,8,0:0:0:0:
161,112,51397,6,0,B|100:123|100:123|62:90|62:90|-19:101,1,175.499991966248,6|0,3:2|0:0,0:0:0:0:
36,175,51693,2,0,B|15:290,1,116.999994644165,10|0,0:0|0:0,0:0:0:0:
192,291,51988,1,2,3:2:0:0:
269,125,52136,2,0,P|212:100|136:130,1,116.999994644165,2|8,3:2|0:0,0:0:0:0:
255,353,52431,6,0,B|284:379|284:379|390:362,1,116.999994644165,6|0,3:2|0:0,0:0:0:0:
206,183,52727,2,0,P|181:240|211:316,1,116.999994644165,2|8,3:2|0:0,0:0:0:0:
434,242,53023,2,0,B|332:216|374:272|263:245,1,175.499991966248,2|0,3:2|0:0,0:0:0:0:
206,183,53318,1,2,3:2:0:0:
422,134,53466,2,0,P|446:186|435:242,1,116.999994644165,10|0,0:0|0:0,0:0:0:0:
135,132,53761,6,0,B|158:94|158:94|332:109,1,175.499991966248,6|0,3:2|0:0,0:0:0:0:
345,167,54057,1,10,0:0:0:0:
76,203,54205,2,0,P|49:157|61:70,1,116.999994644165,2|0,0:0|3:0,0:0:0:0:
206,183,54500,1,2,3:2:0:0:
10,270,54648,1,8,0:0:0:0:
0,21,54796,6,0,B|106:11|106:11|144:37|144:37|256:25,1,233.999989288331,6|0,3:2|3:0,0:0:0:0:
322,195,55239,2,0,B|205:182,1,116.999994644165,8|0,0:0|0:0,0:0:0:0:
310,17,55535,1,0,3:0:0:0:
412,189,55683,1,10,0:0:0:0:
411,207,55757,1,8,0:0:0:0:
409,225,55830,1,0,3:0:0:0:
263,355,55978,1,8,0:0:0:0:
261,337,56052,1,8,0:0:0:0:
259,319,56126,6,0,B|339:279|339:279|411:325,1,175.499991966248,6|0,3:2|0:0,0:0:0:0:
470,384,56422,2,0,P|492:331|478:275,1,116.999994644165,8|0,0:0|0:0,0:0:0:0:
295,109,56717,1,2,3:2:0:0:
409,225,56865,1,0,3:0:0:0:
373,48,57013,2,0,L|259:21,1,116.999994644165,8|0,0:0|0:0,0:0:0:0:
200,202,57308,6,0,P|300:156|277:87,1,175.499991966248,2|0,3:2|0:0,0:0:0:0:
214,87,57604,1,10,0:0:0:0:
169,307,57752,2,0,L|282:280,1,116.999994644165,2|0,0:0|3:0,0:0:0:0:
151,29,58047,2,0,B|123:47|123:47|140:155,1,116.999994644165,2|8,3:2|0:0,0:0:0:0:
365,257,58343,1,2,0:0:0:0:
424,49,58491,6,0,B|446:98|446:98|293:81,1,175.499991966248,4|0,3:2|0:0,0:0:0:0:
320,159,58786,2,0,B|436:171,1,116.999994644165,8|0,0:0|0:0,0:0:0:0:
213,349,59082,1,0,3:0:0:0:
213,349,59229,2,0,B|60:367,1,116.999994644165,0|0,3:0|0:0,0:0:0:0:
3,147,59525,6,0,B|57:113|72:55|72:55|111:98|174:107,1,233.999989288331,8|0,0:0|3:0,0:0:0:0:
131,277,59968,2,0,P|97:231|99:173,1,116.999994644165,12|0,0:0|3:0,0:0:0:0:
154,24,60264,5,8,0:0:0:0:
173,10,60362,2,8,P|211:19|239:45,1,77.9999964294435
299,0,60559,1,8,0:3:0:0:
321,9,60658,2,0,P|332:46|323:83,1,77.9999964294435,4|4,0:3|0:3,0:0:0:0:
409,166,60855,6,0,B|367:154|367:154|326:169|326:169|236:145,1,180,6|2,3:2|3:0,0:0:0:0:
176,348,61446,1,10,0:0:0:0:
120,279,61594,2,0,L|225:264,1,90,2|0,0:0|0:0,0:0:0:0:
334,249,61890,1,2,3:2:0:0:
334,249,62037,6,0,P|348:291|342:336,1,90,2|0,3:2|0:0,0:0:0:0:
266,199,62333,2,0,P|259:155|273:113,1,90,2|0,3:0|0:0,0:0:0:0:
444,121,62628,2,0,B|448:150|461:180|461:180|403:163|344:161,1,180,10|2,0:0|0:0,0:0:0:0:
67,48,63220,6,0,P|81:91|88:136,1,90,2|0,3:2|0:0,0:0:0:0:
170,163,63515,2,0,P|156:205|149:250,1,90,2|0,3:2|0:0,0:0:0:0:
70,352,63811,2,0,P|125:287|207:311,1,180,10|2,0:0|0:2,0:0:0:0:
337,348,64254,1,0,3:0:0:0:
286,279,64402,6,0,P|297:204|322:98,2,180,2|0|8,3:2|3:0|0:0,0:0:0:0:
79,106,65289,5,8,0:0:0:0:
141,170,65436,1,8,0:0:0:0:
165,85,65584,1,6,3:2:0:0:
178,74,66766,5,6,3:2:0:0:
342,57,67949,6,0,B|324:68|324:68|335:154,1,107.999996704102,4|0,3:2|3:0,0:0:0:0:
426,106,68170,1,0,3:0:0:0:
409,107,68244,1,8,0:0:0:0:
258,164,68392,2,0,B|317:176|317:176|337:210|337:210|440:232,1,161.999995056153,4|0,3:1|0:0,0:0:0:0:
477,256,68688,1,8,0:0:0:0:
438,244,68761,1,8,0:0:0:0:
399,253,68835,1,8,0:0:0:0:
370,280,68909,1,8,0:0:0:0:
359,319,68983,2,0,L|369:376,2,53.9999983520508,8|8|8,0:0|0:0|0:0,0:0:0:0:
165,285,69279,6,0,B|145:172|145:172|183:145,1,161.999995056153,4|0,3:2|0:0,0:0:0:0:
293,229,69574,2,0,P|235:309|152:269,1,161.999995056153,4|0,3:1|0:0,0:0:0:0:
91,309,69870,2,0,L|81:255,1,53.9999983520508,8|0,0:0|0:0,0:0:0:0:
68,180,70018,2,0,L|58:126,1,53.9999983520508,8|0,0:0|0:0,0:0:0:0:
235,69,70165,1,8,0:0:0:0:
239,84,70239,1,8,0:0:0:0:
243,99,70313,6,0,L|126:85,1,107.999996704102,4|0,3:2|3:0,0:0:0:0:
174,0,70535,1,0,3:0:0:0:
178,15,70609,1,8,0:0:0:0:
242,181,70757,2,0,P|285:100|367:109,1,161.999995056153,4|0,3:1|0:0,0:0:0:0:
450,224,71052,1,8,0:0:0:0:
413,241,71126,1,8,0:0:0:0:
373,237,71200,1,8,0:0:0:0:
341,215,71274,1,8,0:0:0:0:
324,178,71348,2,0,L|341:109,2,53.9999983520508,8|8|8,0:0|0:0|0:0,0:0:0:0:
302,301,71643,6,0,B|266:335|266:335|377:323,1,161.999995056153,4|0,3:2|0:0,0:0:0:0:
504,265,71939,2,0,P|430:242|379:299,1,161.999995056153,4|0,3:1|0:0,0:0:0:0:
512,348,72234,2,0,P|485:345|459:336,1,53.9999983520508,8|0,0:0|0:0,0:0:0:0:
345,210,72382,2,0,P|319:218|292:221,1,53.9999983520508,8|0,0:0|0:0,0:0:0:0:
203,358,72530,2,0,P|176:355|150:346,1,53.9999983520508,8|0,0:0|0:0,0:0:0:0:
94,166,72678,6,0,P|63:216|98:279,1,107.999996704102,4|0,3:2|3:0,0:0:0:0:
158,242,72899,1,0,3:0:0:0:
153,226,72973,1,8,0:0:0:0:
24,122,73121,2,0,B|72:114|72:114|103:131|103:131|179:117,1,161.999995056153,4|0,3:1|0:0,0:0:0:0:
231,0,73417,1,8,0:0:0:0:
223,39,73491,1,8,0:0:0:0:
216,79,73564,1,8,0:0:0:0:
208,118,73638,1,8,0:0:0:0:
201,159,73712,2,0,B|280:172,2,53.9999983520508,8|8|8,0:0|0:0|0:0,0:0:0:0:
406,249,74008,6,0,P|403:171|324:140,1,161.999995056153,4|0,3:2|0:0,0:0:0:0:
247,253,74303,2,0,B|351:234|351:234|395:269,1,161.999995056153,4|0,3:1|0:0,0:0:0:0:
479,260,74599,2,0,L|469:313,1,53.9999983520508,8|0,0:0|0:0,0:0:0:0:
342,379,74747,2,0,L|332:325,1,53.9999983520508,8|0,0:0|0:0,0:0:0:0:
170,216,74894,1,8,0:0:0:0:
167,231,74968,1,8,0:0:0:0:
164,246,75042,6,0,B|106:235|106:235|79:242|79:242|16:228|16:228|107:211,1,215.999993408203,4|0,3:2|0:0,0:0:0:0:
153,88,75486,2,0,B|119:144|119:144|207:124|207:124|280:163,1,215.999993408203,4|0,3:1|0:0,0:0:0:0:
334,66,75929,2,0,B|320:94|320:94|354:149|354:149|313:226|313:226|281:231,1,215.999993408203,4|0,3:2|0:0,0:0:0:0:
279,348,76372,2,0,B|229:302|229:302|289:313|289:313|313:306|313:306|373:321,1,215.999993408203,4|0,3:1|0:0,0:0:0:0:
463,384,76816,6,0,B|512:187,1,202.500007724762,2|0,0:0|0:0,0:0:0:0:
500,76,77111,6,0,B|487:108|487:108|390:90,1,107.999996704102,4|0,3:2|3:0,0:0:0:0:
408,173,77332,1,0,3:0:0:0:
423,177,77406,1,8,0:0:0:0:
426,19,77554,2,0,P|401:84|306:79,1,161.999995056153,4|0,3:1|0:0,0:0:0:0:
266,7,77849,1,8,0:0:0:0:
274,46,77923,1,8,0:0:0:0:
283,86,77997,1,8,0:0:0:0:
291,125,78071,1,8,0:0:0:0:
300,165,78145,2,0,B|247:178,2,53.9999983520508,8|8|8,0:0|0:0|0:0,0:0:0:0:
183,46,78441,6,0,B|147:9|147:9|124:140,1,161.999995056153,4|0,3:2|0:0,0:0:0:0:
38,234,78736,2,0,P|50:158|124:139,1,161.999995056153,4|0,3:1|0:0,0:0:0:0:
89,300,79032,2,0,P|54:318|15:317,1,53.9999983520508,8|0,0:0|0:0,0:0:0:0:
166,212,79179,2,0,P|192:217|215:231,1,53.9999983520508,8|0,0:0|0:0,0:0:0:0:
204,351,79327,1,8,0:0:0:0:
202,334,79401,1,8,0:0:0:0:
208,318,79475,6,0,L|352:299,1,107.999996704102,4|0,3:2|3:0,0:0:0:0:
336,381,79697,1,0,3:0:0:0:
320,384,79771,1,8,0:0:0:0:
307,225,79918,2,0,P|355:285|432:273,1,161.999995056153,4|0,3:1|0:0,0:0:0:0:
398,178,80214,1,8,0:0:0:0:
359,186,80288,1,8,0:0:0:0:
319,195,80362,1,8,0:0:0:0:
280,203,80436,1,8,0:0:0:0:
240,212,80510,2,0,B|163:229,2,53.9999983520508,8|8|8,0:0|0:0|0:0,0:0:0:0:
88,312,80805,6,0,B|123:276|123:276|99:166,1,161.999995056153,4|0,3:2|0:0,0:0:0:0:
0,117,81101,2,0,P|43:178|113:149,1,161.999995056153,4|0,3:1|0:0,0:0:0:0:
63,22,81396,2,0,L|72:75,1,53.9999983520508,8|0,0:0|0:0,0:0:0:0:
232,148,81544,2,0,L|222:94,1,53.9999983520508,8|0,0:0|0:0,0:0:0:0:
373,0,81692,2,0,L|382:53,1,53.9999983520508,8|0,0:0|0:0,0:0:0:0:
322,214,81840,6,0,B|308:137|308:137|350:104,1,107.999996704102,4|0,3:2|3:0,0:0:0:0:
409,166,82061,1,0,3:0:0:0:
393,169,82135,1,8,0:0:0:0:
243,275,82283,2,0,B|318:241|318:241|371:299,1,161.999995056153,4|0,3:1|0:0,0:0:0:0:
414,384,82578,1,8,0:0:0:0:
397,347,82652,1,8,0:0:0:0:
401,307,82726,1,8,0:0:0:0:
423,275,82800,1,8,0:0:0:0:
460,258,82874,2,0,L|529:275,2,53.9999983520508,8|8|8,0:0|0:0|0:0,0:0:0:0:
290,369,83170,6,0,B|225:351|225:351|197:357|197:357|132:341,1,161.999995056153,4|0,3:2|0:0,0:0:0:0:
264,222,83465,2,0,P|320:274|304:350,1,161.999995056153,4|0,3:1|0:0,0:0:0:0:
197,274,83761,2,0,L|144:261,1,53.9999983520508,8|0,0:0|0:0,0:0:0:0:
56,320,83909,2,0,L|3:307,1,53.9999983520508,8|0,0:0|0:0,0:0:0:0:
27,134,84056,1,8,0:0:0:0:
24,149,84130,1,8,0:0:0:0:
21,165,84204,6,0,B|88:182|88:182|130:166|130:166|189:178|189:178|143:112,1,215.999993408203,4|0,3:2|0:0,0:0:0:0:
87,49,84622,2,0,B|61:2|61:2|148:30|148:30|166:58|166:58|202:70,1,215.999993408203,4|0,3:1|0:0,0:0:0:0:
367,82,85069,2,0,B|395:134|395:134|296:104|296:104|250:132,1,215.999993408203,4|0,3:2|0:0,0:0:0:0:
229,264,85517,2,0,B|191:198|191:198|256:219|256:219|308:191|308:191|424:230,1,323.999990112305,4|0,3:1|0:0,0:0:0:0:
422,229,86445,5,0,3:0:0:0:
425,242,86517,1,0,3:0:0:0:
427,255,86591,1,8,0:0:0:0:
407,151,86739,1,0,3:0:0:0:
345,270,86887,1,8,0:0:0:0:
325,166,87035,1,0,3:0:0:0:
229,359,87180,6,0,B|197:307|197:307|146:337|146:337|42:308,1,215.999993408203,4|0,3:2|0:0,0:0:0:0:
72,202,87598,2,0,B|11:217|11:217|133:250|133:250|157:237,1,215.999993408203,4|0,3:1|0:0,0:0:0:0:
193,82,88045,2,0,B|137:27|137:27|164:127|164:127|136:170,1,215.999993408203,4|0,3:2|0:0,0:0:0:0:
262,255,88493,2,0,B|224:189|224:189|289:210|289:210|341:182|341:182|457:221,1,323.999990112305,4|0,3:1|0:0,0:0:0:0:
