osu file format v14

[General]
AudioFilename: audio.mp3
AudioLeadIn: 0
PreviewTime: 107010
Countdown: 0
SampleSet: Normal
StackLeniency: 0.7
Mode: 3
LetterboxInBreaks: 0
SpecialStyle: 0
WidescreenStoryboard: 1

[Editor]
Bookmarks: 21708,32708,64374,85708
DistanceSpacing: 1
BeatDivisor: 4
GridSize: 32
TimelineZoom: 2.699999

[Metadata]
Title:perthed again (yambabom remix)
TitleUnicode:perthed again (yambabom remix)
Artist:Hitori Tori
ArtistUnicode:Hitori Tori
Creator:TheToaphster
Version:Insane
Source:
Tags:SV breakcore
BeatmapID:1277797
BeatmapSetID:569392

[Difficulty]
HPDrainRate:7.5
CircleSize:4
OverallDifficulty:7.5
ApproachRate:5
SliderMultiplier:1.4
SliderTickRate:1

[Events]
//Background and Video events
0,0,"perthed 4.png",0,0
//Break Periods
//Storyboard Layer 0 (Background)
//Storyboard Layer 1 (Fail)
//Storyboard Layer 2 (Pass)
//Storyboard Layer 3 (Foreground)
//Storyboard Sound Samples

[TimingPoints]
342,333.333333333333,4,1,2,90,1,0
353,-2000,4,1,2,90,0,0
383,-83.3333333333333,4,1,2,90,0,0
582,-125,4,1,2,90,0,0
645,-166.666666666667,4,1,2,90,0,0
687,-250,4,1,2,90,0,0
749,-500,4,1,2,90,0,0
791,-1000,4,1,2,90,0,0
812,-2000,4,1,2,90,0,0
826,-90.9090909090909,4,1,2,90,0,0
853,-2000,4,1,2,90,0,0
883,-83.3333333333333,4,1,2,90,0,0
1082,-125,4,1,2,90,0,0
1145,-166.666666666667,4,1,2,90,0,0
1187,-250,4,1,2,90,0,0
1249,-500,4,1,2,90,0,0
1291,-1000,4,1,2,90,0,0
1312,-2000,4,1,2,90,0,0
1326,-90.9090909090909,4,1,2,90,0,0
1353,-2000,4,1,2,90,0,0
1374,-100,4,1,2,90,0,0
1383,-83.3333333333333,4,1,2,90,0,0
1520,-1000,4,1,2,90,0,0
1582,-83.3333333333333,4,1,2,90,0,0
1749,-125,4,1,2,90,0,0
1812,-166.666666666667,4,1,2,90,0,0
1853,-250,4,1,2,90,0,0
1916,-500,4,1,2,90,0,0
1957,-1000,4,1,2,90,0,0
1978,-2000,4,1,2,90,0,0
1988,-33.3333333333333,4,1,2,90,0,0
2020,-2000,4,1,2,90,0,0
2050,-83.3333333333333,4,1,2,90,0,0
2249,-125,4,1,2,90,0,0
2312,-166.666666666667,4,1,2,90,0,0
2353,-250,4,1,2,90,0,0
2416,-500,4,1,2,90,0,0
2457,-1000,4,1,2,90,0,0
2468,-58.8235294117647,4,1,2,90,0,0
2520,-2000,4,1,2,90,0,0
2547,-86.9565217391304,4,1,2,90,0,0
2558,-83.3333333333333,4,1,2,90,0,0
2687,-2000,4,1,2,90,0,0
2722,-83.3333333333333,4,1,2,90,0,0
2853,-2000,4,1,2,90,0,0
2888,-83.3333333333333,4,1,2,90,0,0
3020,-2000,4,1,2,90,0,0
3055,-83.3333333333333,4,1,2,90,0,0
3249,-125,4,1,2,90,0,0
3312,-166.666666666667,4,1,2,90,0,0
3353,-250,4,1,2,90,0,0
3416,-500,4,1,2,90,0,0
3457,-1000,4,1,2,90,0,0
3478,-2000,4,1,2,90,0,0
3493,-50,4,1,2,90,0,0
3520,-2000,4,1,2,90,0,0
3552,-83.3333333333333,4,1,2,90,0,0
3749,-125,4,1,2,90,0,0
3812,-166.666666666667,4,1,2,90,0,0
3853,-250,4,1,2,90,0,0
3916,-500,4,1,2,90,0,0
3957,-1000,4,1,2,90,0,0
3978,-2000,4,1,2,90,0,0
3994,-50,4,1,2,90,0,0
4020,-2000,4,1,2,90,0,0
4053,-83.3333333333333,4,1,2,90,0,0
4187,-2000,4,1,2,90,0,0
4222,-83.3333333333333,4,1,2,90,0,0
4416,-125,4,1,2,90,0,0
4478,-166.666666666667,4,1,2,90,0,0
4520,-250,4,1,2,90,0,0
4582,-500,4,1,2,90,0,0
4624,-1000,4,1,2,90,0,0
4638,-33.3333333333333,4,1,2,90,0,0
4687,-2000,4,1,2,90,0,0
4723,-83.3333333333333,4,1,2,90,0,0
4916,-125,4,1,2,90,0,0
4978,-166.666666666667,4,1,2,90,0,0
5020,-250,4,1,2,90,0,0
5082,-500,4,1,2,90,0,0
5124,-1000,4,1,2,90,0,0
5137,-50,4,1,2,90,0,0
5187,-2000,4,1,2,90,0,0
5228,-83.3333333333333,4,1,2,90,0,0
5353,-2000,4,1,2,90,0,0
5391,-83.3333333333333,4,1,2,90,0,0
5520,-2000,4,1,2,90,0,0
5560,-83.3333333333333,4,1,2,90,0,0
5687,-2000,4,1,2,90,0,0
5722,-83.3333333333333,4,1,2,90,0,0
5916,-125,4,1,2,90,0,0
5978,-166.666666666667,4,1,2,90,0,0
6020,-250,4,1,2,90,0,0
6082,-500,4,1,2,90,0,0
6124,-1000,4,1,2,90,0,0
6153,-83.3333333333333,4,1,2,90,0,0
6187,-2000,4,1,2,90,0,0
6222,-83.3333333333333,4,1,2,90,0,0
6416,-125,4,1,2,90,0,0
6478,-166.666666666667,4,1,2,90,0,0
6520,-250,4,1,2,90,0,0
6582,-500,4,1,2,90,0,0
6624,-1000,4,1,2,90,0,0
6653,-83.3333333333333,4,1,2,90,0,0
6687,-2000,4,1,2,90,0,0
6722,-83.3333333333333,4,1,2,90,0,0
6853,-2000,4,1,2,90,0,0
6887,-83.3333333333333,4,1,2,90,0,0
7082,-125,4,1,2,90,0,0
7145,-166.666666666667,4,1,2,90,0,0
7187,-250,4,1,2,90,0,0
7249,-500,4,1,2,90,0,0
7291,-1000,4,1,2,90,0,0
7303,-40,4,1,2,90,0,0
7353,-2000,4,1,2,90,0,0
7386,-83.3333333333333,4,1,2,90,0,0
7582,-125,4,1,2,90,0,0
7645,-166.666666666667,4,1,2,90,0,0
7687,-250,4,1,2,90,0,0
7749,-500,4,1,2,90,0,0
7791,-1000,4,1,2,90,0,0
7800,-40,4,1,2,90,0,0
7853,-2000,4,1,2,90,0,0
7888,-83.3333333333333,4,1,2,90,0,0
8020,-2000,4,1,2,90,0,0
8057,-83.3333333333333,4,1,2,90,0,0
8187,-2000,4,1,2,90,0,0
8220,-83.3333333333333,4,1,2,90,0,0
8353,-2000,4,1,2,90,0,0
8387,-83.3333333333333,4,1,2,90,0,0
8582,-125,4,1,2,90,0,0
8645,-166.666666666667,4,1,2,90,0,0
8687,-250,4,1,2,90,0,0
8749,-500,4,1,2,90,0,0
8791,-1000,4,1,2,90,0,0
8812,-71.4285714285714,4,1,2,90,0,0
8853,-2000,4,1,2,90,0,0
8888,-83.3333333333333,4,1,2,90,0,0
9082,-125,4,1,2,90,0,0
9145,-166.666666666667,4,1,2,90,0,0
9187,-250,4,1,2,90,0,0
9249,-500,4,1,2,90,0,0
9291,-1000,4,1,2,90,0,0
9312,-71.4285714285714,4,1,2,90,0,0
9353,-2000,4,1,2,90,0,0
9387,-83.3333333333333,4,1,2,90,0,0
9520,-2000,4,1,2,90,0,0
9625,-83.3333333333333,4,1,2,90,0,0
9675,-100,4,1,2,90,0,0
11258,-2000,4,1,2,90,0,0
11321,-25,4,1,2,90,0,0
11341,-66.6666666666667,4,1,2,90,0,0
11425,-200,4,1,2,90,0,0
11508,-100,4,1,2,90,0,0
11946,-2000,4,1,2,90,0,0
11987,-25,4,1,2,90,0,0
12008,-66.6666666666667,4,1,2,90,0,0
12092,-200,4,1,2,90,0,0
12175,-100,4,1,2,90,0,0
12612,-2000,4,1,2,90,0,0
12654,-25,4,1,2,90,0,0
12675,-66.6666666666667,4,1,2,90,0,0
12759,-200,4,1,2,90,0,0
12842,-100,4,1,2,90,0,0
13279,-2000,4,1,2,90,0,0
13321,-25,4,1,2,90,0,0
13341,-66.6666666666667,4,1,2,90,0,0
13425,-200,4,1,2,90,0,0
13508,-100,4,1,2,90,0,0
13946,-2000,4,1,2,90,0,0
13987,-25,4,1,2,90,0,0
14008,-66.6666666666667,4,1,2,90,0,0
14092,-200,4,1,2,90,0,0
14175,-100,4,1,2,90,0,0
14612,-2000,4,1,2,90,0,0
14654,-25,4,1,2,90,0,0
14675,-66.6666666666667,4,1,2,90,0,0
14759,-200,4,1,2,90,0,0
14842,-100,4,1,2,90,0,0
15279,-2000,4,1,2,90,0,0
15321,-25,4,1,2,90,0,0
15341,-66.6666666666667,4,1,2,90,0,0
15425,-200,4,1,2,90,0,0
15508,-100,4,1,2,90,0,0
15696,-2000,4,1,2,90,0,0
15737,-25,4,1,2,90,0,0
15758,-100,4,1,2,90,0,0
15946,-2000,4,1,2,90,0,0
15987,-25,4,1,2,90,0,0
16008,-66.6666666666667,4,1,2,90,0,0
16092,-200,4,1,2,90,0,0
16175,-100,4,1,2,90,0,0
16612,-2000,4,1,2,90,0,0
16654,-25,4,1,2,90,0,0
16675,-66.6666666666667,4,1,2,90,0,0
16759,-200,4,1,2,90,0,0
16842,-100,4,1,2,90,0,0
17279,-2000,4,1,2,90,0,0
17321,-25,4,1,2,90,0,0
17341,-66.6666666666667,4,1,2,90,0,0
17425,-200,4,1,2,90,0,0
17508,-100,4,1,2,90,0,0
17946,-2000,4,1,2,90,0,0
17987,-25,4,1,2,90,0,0
18008,-66.6666666666667,4,1,2,90,0,0
18092,-200,4,1,2,90,0,0
18175,-100,4,1,2,90,0,0
18612,-2000,4,1,2,90,0,0
18654,-25,4,1,2,90,0,0
18675,-66.6666666666667,4,1,2,90,0,0
18759,-200,4,1,2,90,0,0
18842,-100,4,1,2,90,0,0
19279,-2000,4,1,2,90,0,0
19321,-25,4,1,2,90,0,0
19341,-66.6666666666667,4,1,2,90,0,0
19425,-200,4,1,2,90,0,0
19508,-100,4,1,2,90,0,0
19696,-2000,4,1,2,90,0,0
19737,-25,4,1,2,90,0,0
19758,-100,4,1,2,90,0,0
19946,-2000,4,1,2,90,0,0
19987,-25,4,1,2,90,0,0
20008,-66.6666666666667,4,1,2,90,0,0
20092,-200,4,1,2,90,0,0
20175,-100,4,1,2,90,0,0
21957,-133.333333333333,4,1,2,90,0,0
21998,-50,4,1,2,90,0,0
22061,-100,4,1,2,90,0,0
22623,-133.333333333333,4,1,2,90,0,0
22665,-50,4,1,2,90,0,0
22727,-100,4,1,2,90,0,0
23290,-133.333333333333,4,1,2,90,0,0
23332,-50,4,1,2,90,0,0
23394,-100,4,1,2,90,0,0
23957,-133.333333333333,4,1,2,90,0,0
23998,-50,4,1,2,90,0,0
24061,-100,4,1,2,90,0,0
24623,-133.333333333333,4,1,2,90,0,0
24665,-50,4,1,2,90,0,0
24727,-100,4,1,2,90,0,0
25290,-133.333333333333,4,1,2,90,0,0
25332,-50,4,1,2,90,0,0
25394,-100,4,1,2,90,0,0
25957,-133.333333333333,4,1,2,90,0,0
25998,-50,4,1,2,90,0,0
26061,-100,4,1,2,90,0,0
26623,-133.333333333333,4,1,2,90,0,0
26665,-50,4,1,2,90,0,0
26727,-100,4,1,2,90,0,0
27290,-133.333333333333,4,1,2,90,0,0
27332,-50,4,1,2,90,0,0
27394,-100,4,1,2,90,0,0
27957,-133.333333333333,4,1,2,90,0,0
27998,-50,4,1,2,90,0,0
28061,-100,4,1,2,90,0,0
28623,-133.333333333333,4,1,2,90,0,0
28665,-50,4,1,2,90,0,0
28727,-100,4,1,2,90,0,0
29290,-133.333333333333,4,1,2,90,0,0
29332,-50,4,1,2,90,0,0
29394,-100,4,1,2,90,0,0
29957,-133.333333333333,4,1,2,90,0,0
29998,-50,4,1,2,90,0,0
30061,-100,4,1,2,90,0,0
30623,-133.333333333333,4,1,2,90,0,0
30665,-50,4,1,2,90,0,0
30727,-100,4,1,2,90,0,0
32332,-50,4,1,2,90,0,0
32511,-66.6666666666667,4,1,2,90,0,0
32552,-100,4,1,2,90,0,0
32594,-200,4,1,2,90,0,0
32623,-400,4,1,2,90,0,0
32644,-1000,4,1,2,90,0,0
32665,-80,4,1,2,90,0,0
32707,-1000,4,1,2,90,0,0
32737,-100,4,1,2,90,0,0
33271,-2000,4,1,2,90,0,0
33313,-47.6190476190476,4,1,2,90,0,0
33354,-100,4,1,2,90,0,0
33938,-2000,4,1,2,90,0,0
33979,-47.6190476190476,4,1,2,90,0,0
34021,-100,4,1,2,90,0,0
34438,-2000,4,1,2,90,0,0
34479,-47.6190476190476,4,1,2,90,0,0
34521,-100,4,1,2,90,0,0
34604,-2000,4,1,2,90,0,0
34646,-47.6190476190476,4,1,2,90,0,0
34688,-100,4,1,2,90,0,0
35271,-2000,4,1,2,90,0,0
35313,-47.6190476190476,4,1,2,90,0,0
35354,-100,4,1,2,90,0,0
35938,-2000,4,1,2,90,0,0
35979,-47.6190476190476,4,1,2,90,0,0
36021,-100,4,1,2,90,0,0
36604,-2000,4,1,2,90,0,0
36646,-47.6190476190476,4,1,2,90,0,0
36688,-100,4,1,2,90,0,0
37104,-2000,4,1,2,90,0,0
37146,-47.6190476190476,4,1,2,90,0,0
37188,-100,4,1,2,90,0,0
37271,-2000,4,1,2,90,0,0
37313,-47.6190476190476,4,1,2,90,0,0
37354,-100,4,1,2,90,0,0
37938,-2000,4,1,2,90,0,0
37979,-47.6190476190476,4,1,2,90,0,0
38021,-100,4,1,2,90,0,0
38604,-1000,4,1,2,90,0,0
38646,-47.6190476190476,4,1,2,90,0,0
38688,-100,4,1,2,90,0,0
39271,-2000,4,1,2,90,0,0
39313,-47.6190476190476,4,1,2,90,0,0
39354,-100,4,1,2,90,0,0
39771,-2000,4,1,2,90,0,0
39813,-50,4,1,2,90,0,0
39854,-100,4,1,2,90,0,0
39938,-2000,4,1,2,90,0,0
39979,-50,4,1,2,90,0,0
40021,-100,4,1,2,90,0,0
40104,-2000,4,1,2,90,0,0
40146,-50,4,1,2,90,0,0
40188,-100,4,1,2,90,0,0
40271,-2000,4,1,2,90,0,0
40313,-50,4,1,2,90,0,0
40354,-100,4,1,2,90,0,0
40375,-10000,4,1,2,90,0,0
40623,-50,4,1,2,90,0,0
40707,-10000,4,1,2,90,0,0
40957,-50,4,1,2,90,0,0
41040,-10000,4,1,2,90,0,0
41123,-50,4,1,2,90,0,0
41207,-10000,4,1,2,90,0,0
41457,-76.9230769230769,4,1,2,90,0,0
41540,-100,4,1,2,90,0,0
41644,-71.4285714285714,4,1,2,90,0,0
41707,-100,4,1,2,90,0,0
41811,-83.3333333333333,4,1,2,90,0,0
41873,-100,4,1,2,90,0,0
41977,-76.9230769230769,4,1,2,90,0,0
42040,-100,4,1,2,90,0,0
42144,-71.4285714285714,4,1,2,90,0,0
42207,-100,4,1,2,90,0,0
42311,-71.4285714285714,4,1,2,90,0,0
42373,-100,4,1,2,90,0,0
42477,-71.4285714285714,4,1,2,90,0,0
42540,-100,4,1,2,90,0,0
42644,-71.4285714285714,4,1,2,90,0,0
42707,-100,4,1,2,90,0,0
42811,-71.4285714285714,4,1,2,90,0,0
42873,-100,4,1,2,90,0,0
43008,-200,4,1,2,90,0,0
43091,-66.6666666666667,4,1,2,90,0,0
43175,-100,4,1,2,90,0,0
43508,-200,4,1,2,90,0,0
43591,-66.6666666666667,4,1,2,90,0,0
43675,-100,4,1,2,90,0,0
44008,-200,4,1,2,90,0,0
44091,-66.6666666666667,4,1,2,90,0,0
44175,-100,4,1,2,90,0,0
44508,-200,4,1,2,90,0,0
44591,-66.6666666666667,4,1,2,90,0,0
44675,-100,4,1,2,90,0,0
45008,-200,4,1,2,90,0,0
45091,-66.6666666666667,4,1,2,90,0,0
45175,-100,4,1,2,90,0,0
45341,-200,4,1,2,90,0,0
45425,-66.6666666666667,4,1,2,90,0,0
45508,-200,4,1,2,90,0,0
45591,-66.6666666666667,4,1,2,90,0,0
45675,-100,4,1,2,90,0,0
46008,-200,4,1,2,90,0,0
46091,-66.6666666666667,4,1,2,90,0,0
46175,-100,4,1,2,90,0,0
46508,-200,4,1,2,90,0,0
46591,-66.6666666666667,4,1,2,90,0,0
46675,-100,4,1,2,90,0,0
47008,-200,4,1,2,90,0,0
47091,-66.6666666666667,4,1,2,90,0,0
47175,-100,4,1,2,90,0,0
47508,-200,4,1,2,90,0,0
47591,-66.6666666666667,4,1,2,90,0,0
47675,-200,4,1,2,90,0,0
47758,-66.6666666666667,4,1,2,90,0,0
47841,-100,4,1,2,90,0,0
48008,-200,4,1,2,90,0,0
48091,-66.6666666666667,4,1,2,90,0,0
48175,-100,4,1,2,90,0,0
48508,-200,4,1,2,90,0,0
48591,-66.6666666666667,4,1,2,90,0,0
48675,-100,4,1,2,90,0,0
48841,-200,4,1,2,90,0,0
48925,-66.6666666666667,4,1,2,90,0,0
49008,-200,4,1,2,90,0,0
49091,-66.6666666666667,4,1,2,90,0,0
49175,-100,4,1,2,90,0,0
49508,-200,4,1,2,90,0,0
49591,-66.6666666666667,4,1,2,90,0,0
49675,-100,4,1,2,90,0,0
50008,-200,4,1,2,90,0,0
50091,-66.6666666666667,4,1,2,90,0,0
50175,-100,4,1,2,90,0,0
50508,-200,4,1,2,90,0,0
50591,-66.6666666666667,4,1,2,90,0,0
50675,-200,4,1,2,90,0,0
50758,-66.6666666666667,4,1,2,90,0,0
50841,-100,4,1,2,90,0,0
51008,-200,4,1,2,90,0,0
51091,-66.6666666666667,4,1,2,90,0,0
51175,-100,4,1,2,90,0,0
51508,-200,4,1,2,90,0,0
51591,-66.6666666666667,4,1,2,90,0,0
51675,-100,4,1,2,90,0,0
52008,-200,4,1,2,90,0,0
52091,-66.6666666666667,4,1,2,90,0,0
52175,-100,4,1,2,90,0,0
52508,-200,4,1,2,90,0,0
52591,-66.6666666666667,4,1,2,90,0,0
52675,-100,4,1,2,90,0,0
52977,-66.6666666666667,4,1,2,90,0,0
53040,-100,4,1,2,90,0,0
53144,-66.6666666666667,4,1,2,90,0,0
53207,-100,4,1,2,90,0,0
53311,-66.6666666666667,4,1,2,90,0,0
53373,-100,4,1,2,90,0,0
53477,-66.6666666666667,4,1,2,90,0,0
53540,-100,4,1,2,90,0,0
53644,-66.6666666666667,4,1,2,90,0,0
53707,-100,4,1,2,90,0,0
53841,-200,4,1,2,90,0,0
53925,-66.6666666666667,4,1,2,90,0,0
54008,-100,4,1,2,90,0,0
54175,-200,4,1,2,90,0,0
54258,-66.6666666666667,4,1,2,90,0,0
54341,-200,4,1,2,90,0,0
54425,-66.6666666666667,4,1,2,90,0,0
54508,-100,4,1,2,90,0,0
54841,-200,4,1,2,90,0,0
54925,-66.6666666666667,4,1,2,90,0,0
55008,-100,4,1,2,90,0,0
55341,-200,4,1,2,90,0,0
55425,-66.6666666666667,4,1,2,90,0,0
55508,-100,4,1,2,90,0,0
55841,-200,4,1,2,90,0,0
55925,-66.6666666666667,4,1,2,90,0,0
56008,-200,4,1,2,90,0,0
56091,-66.6666666666667,4,1,2,90,0,0
56175,-100,4,1,2,90,0,0
56341,-200,4,1,2,90,0,0
56425,-66.6666666666667,4,1,2,90,0,0
56508,-100,4,1,2,90,0,0
56841,-200,4,1,2,90,0,0
56925,-66.6666666666667,4,1,2,90,0,0
57008,-100,4,1,2,90,0,0
57341,-200,4,1,2,90,0,0
57425,-66.6666666666667,4,1,2,90,0,0
57508,-100,4,1,2,90,0,0
57841,-200,4,1,2,90,0,0
57925,-66.6666666666667,4,1,2,90,0,0
58008,-100,4,1,2,90,0,0
58175,-200,4,1,2,90,0,0
58258,-66.6666666666667,4,1,2,90,0,0
58341,-200,4,1,2,90,0,0
58425,-66.6666666666667,4,1,2,90,0,0
58508,-100,4,1,2,90,0,0
58675,-200,4,1,2,90,0,0
58758,-66.6666666666667,4,1,2,90,0,0
58841,-100,4,1,2,90,0,0
59175,-200,4,1,2,90,0,0
59258,-66.6666666666667,4,1,2,90,0,0
59341,-100,4,1,2,90,0,0
59508,-200,4,1,2,90,0,0
59591,-66.6666666666667,4,1,2,90,0,0
59675,-200,4,1,2,90,0,0
59758,-66.6666666666667,4,1,2,90,0,0
59841,-100,4,1,2,90,0,0
60175,-200,4,1,2,90,0,0
60258,-66.6666666666667,4,1,2,90,0,0
60341,-100,4,1,2,90,0,0
60675,-200,4,1,2,90,0,0
60758,-66.6666666666667,4,1,2,90,0,0
60841,-100,4,1,2,90,0,0
61175,-200,4,1,2,90,0,0
61258,-66.6666666666667,4,1,2,90,0,0
61341,-200,4,1,2,90,0,0
61425,-66.6666666666667,4,1,2,90,0,0
61508,-200,4,1,2,90,0,0
61591,-66.6666666666667,4,1,2,90,0,0
61675,-100,4,1,2,90,0,0
74144,-90.9090909090909,4,1,2,90,0,0
74207,-133.333333333333,4,1,2,90,0,0
74311,-76.9230769230769,4,1,2,90,0,0
74373,-133.333333333333,4,1,2,90,0,0
74477,-66.6666666666667,4,1,2,90,0,0
74540,-133.333333333333,4,1,2,90,0,0
74644,-58.8235294117647,4,1,2,90,0,0
74707,-133.333333333333,4,1,2,90,0,0
74811,-52.6315789473684,4,1,2,90,0,0
74873,-133.333333333333,4,1,2,90,0,0
74977,-50,4,1,2,90,0,0
75040,-100,4,1,2,90,0,0
84341,-66.6666666666667,4,1,2,90,0,0
84383,-125,4,1,2,90,0,0
84508,-66.6666666666667,4,1,2,90,0,0
84550,-125,4,1,2,90,0,0
84675,-66.6666666666667,4,1,2,90,0,0
84717,-125,4,1,2,90,0,0
84841,-66.6666666666667,4,1,2,90,0,0
84883,-125,4,1,2,90,0,0
85008,-66.6666666666667,4,1,2,90,0,0
85050,-125,4,1,2,90,0,0
85175,-66.6666666666667,4,1,2,90,0,0
85217,-125,4,1,2,90,0,0
85341,-66.6666666666667,4,1,2,90,0,0
85383,-125,4,1,2,90,0,0
85508,-66.6666666666667,4,1,2,90,0,0
85550,-125,4,1,2,90,0,0
85693,-117.647058823529,4,1,2,90,0,0
96311,-108.695652173913,4,1,2,90,0,0
101602,-200,4,1,2,90,0,0
101644,-50,4,1,2,90,0,0
101686,-111.111111111111,4,1,2,90,0,0
101936,-200,4,1,2,90,0,0
101977,-50,4,1,2,90,0,0
102019,-111.111111111111,4,1,2,90,0,0
102269,-200,4,1,2,90,0,0
102311,-50,4,1,2,90,0,0
102352,-111.111111111111,4,1,2,90,0,0
102602,-200,4,1,2,90,0,0
102644,-50,4,1,2,90,0,0
102686,-111.111111111111,4,1,2,90,0,0
102936,-200,4,1,2,90,0,0
102977,-50,4,1,2,90,0,0
103019,-111.111111111111,4,1,2,90,0,0
103269,-200,4,1,2,90,0,0
103311,-50,4,1,2,90,0,0
103352,-111.111111111111,4,1,2,90,0,0
103602,-200,4,1,2,90,0,0
103644,-50,4,1,2,90,0,0
103686,-111.111111111111,4,1,2,90,0,0
103936,-200,4,1,2,90,0,0
103977,-50,4,1,2,90,0,0
104019,-111.111111111111,4,1,2,90,0,0
104269,-200,4,1,2,90,0,0
104311,-50,4,1,2,90,0,0
104352,-111.111111111111,4,1,2,90,0,0
104602,-200,4,1,2,90,0,0
104644,-50,4,1,2,90,0,0
104686,-111.111111111111,4,1,2,90,0,0
104936,-200,4,1,2,90,0,0
104977,-50,4,1,2,90,0,0
105019,-111.111111111111,4,1,2,90,0,0
105269,-200,4,1,2,90,0,0
105311,-50,4,1,2,90,0,0
105352,-111.111111111111,4,1,2,90,0,0
105602,-200,4,1,2,90,0,0
105644,-50,4,1,2,90,0,0
105686,-111.111111111111,4,1,2,90,0,0
105936,-200,4,1,2,90,0,0
105977,-50,4,1,2,90,0,0
106014,-111.111111111111,4,1,2,90,0,0
106264,-200,4,1,2,90,0,0
106306,-50,4,1,2,90,0,0
106347,-111.111111111111,4,1,2,90,0,0
106597,-200,4,1,2,90,0,0
106639,-100,4,1,2,90,0,0
106702,-66.6666666666667,4,1,2,90,0,0
106768,-200,4,1,2,90,0,0
106785,-66.6666666666667,4,1,2,90,0,0
106852,-200,4,1,2,90,0,0
106868,-66.6666666666667,4,1,2,90,0,0
106935,-200,4,1,2,90,0,0
106952,-66.6666666666667,4,1,2,90,0,0
107008,-333.333333333333,4,1,2,90,0,0
107133,-43.4782608695652,4,1,2,90,0,0
107175,-333.333333333333,4,1,2,90,0,0
107300,-43.4782608695652,4,1,2,90,0,0
107341,-333.333333333333,4,1,2,90,0,0
107466,-43.4782608695652,4,1,2,90,0,0
107508,-117.647058823529,4,1,2,90,0,0
107675,-333.333333333333,4,1,2,90,0,0
107800,-43.4782608695652,4,1,2,90,0,0
107841,-117.647058823529,4,1,2,90,0,0
108008,-333.333333333333,4,1,2,90,0,0
108133,-43.4782608695652,4,1,2,90,0,0
108175,-333.333333333333,4,1,2,90,0,0
108300,-43.4782608695652,4,1,2,90,0,0
108341,-333.333333333333,4,1,2,90,0,0
108466,-43.4782608695652,4,1,2,90,0,0
108508,-333.333333333333,4,1,2,90,0,0
108633,-43.4782608695652,4,1,2,90,0,0
108675,-333.333333333333,4,1,2,90,0,0
108800,-43.4782608695652,4,1,2,90,0,0
108841,-117.647058823529,4,1,2,90,0,0
109008,-333.333333333333,4,1,2,90,0,0
109133,-43.4782608695652,4,1,2,90,0,0
109175,-117.647058823529,4,1,2,90,0,0
109341,-333.333333333333,4,1,2,90,0,0
109466,-43.4782608695652,4,1,2,90,0,0
109508,-333.333333333333,4,1,2,90,0,0
109633,-43.4782608695652,4,1,2,90,0,0
109675,-333.333333333333,4,1,2,90,0,0
109800,-43.4782608695652,4,1,2,90,0,0
109841,-333.333333333333,4,1,2,90,0,0
109966,-43.4782608695652,4,1,2,90,0,0
110008,-333.333333333333,4,1,2,90,0,0
110133,-43.4782608695652,4,1,2,90,0,0
110175,-333.333333333333,4,1,2,90,0,0
110300,-43.4782608695652,4,1,2,90,0,0
110341,-333.333333333333,4,1,2,90,0,0
110466,-43.4782608695652,4,1,2,90,0,0
110508,-117.647058823529,4,1,2,90,0,0
110675,-333.333333333333,4,1,2,90,0,0
110800,-43.4782608695652,4,1,2,90,0,0
110841,-333.333333333333,4,1,2,90,0,0
110966,-43.4782608695652,4,1,2,90,0,0
111008,-333.333333333333,4,1,2,90,0,0
111133,-43.4782608695652,4,1,2,90,0,0
111175,-333.333333333333,4,1,2,90,0,0
111300,-43.4782608695652,4,1,2,90,0,0
111341,-333.333333333333,4,1,2,90,0,0
111466,-43.4782608695652,4,1,2,90,0,0
111508,-333.333333333333,4,1,2,90,0,0
111633,-43.4782608695652,4,1,2,90,0,0
111675,-333.333333333333,4,1,2,90,0,0
111800,-43.4782608695652,4,1,2,90,0,0
111841,-117.647058823529,4,1,2,90,0,0
112008,-66.6666666666667,4,1,2,90,0,0
112091,-200,4,1,2,90,0,0
112175,-66.6666666666667,4,1,2,90,0,0
112258,-200,4,1,2,90,0,0
112341,-117.647058823529,4,1,2,90,0,0
112508,-333.333333333333,4,1,2,90,0,0
112633,-43.4782608695652,4,1,2,90,0,0
112675,-333.333333333333,4,1,2,90,0,0
112800,-43.4782608695652,4,1,2,90,0,0
112841,-333.333333333333,4,1,2,90,0,0
112966,-43.4782608695652,4,1,2,90,0,0
113008,-333.333333333333,4,1,2,90,0,0
113133,-43.4782608695652,4,1,2,90,0,0
113175,-117.647058823529,4,1,2,90,0,0
113341,-333.333333333333,4,1,2,90,0,0
113466,-43.4782608695652,4,1,2,90,0,0
113508,-333.333333333333,4,1,2,90,0,0
113633,-43.4782608695652,4,1,2,90,0,0
113675,-333.333333333333,4,1,2,90,0,0
113800,-43.4782608695652,4,1,2,90,0,0
113841,-117.647058823529,4,1,2,90,0,0
114175,-333.333333333333,4,1,2,90,0,0
114300,-43.4782608695652,4,1,2,90,0,0
114341,-333.333333333333,4,1,2,90,0,0
114466,-43.4782608695652,4,1,2,90,0,0
114508,-333.333333333333,4,1,2,90,0,0
114633,-43.4782608695652,4,1,2,90,0,0
114675,-117.647058823529,4,1,2,90,0,0
114841,-333.333333333333,4,1,2,90,0,0
114966,-43.4782608695652,4,1,2,90,0,0
115008,-333.333333333333,4,1,2,90,0,0
115133,-43.4782608695652,4,1,2,90,0,0
115175,-333.333333333333,4,1,2,90,0,0
115300,-43.4782608695652,4,1,2,90,0,0
115341,-333.333333333333,4,1,2,90,0,0
115466,-43.4782608695652,4,1,2,90,0,0
115508,-333.333333333333,4,1,2,90,0,0
115633,-43.4782608695652,4,1,2,90,0,0
115675,-333.333333333333,4,1,2,90,0,0
115800,-43.4782608695652,4,1,2,90,0,0
115841,-117.647058823529,4,1,2,90,0,0
116008,-333.333333333333,4,1,2,90,0,0
116133,-43.4782608695652,4,1,2,90,0,0
116175,-333.333333333333,4,1,2,90,0,0
116300,-43.4782608695652,4,1,2,90,0,0
116341,-333.333333333333,4,1,2,90,0,0
116466,-43.4782608695652,4,1,2,90,0,0
116508,-333.333333333333,4,1,2,90,0,0
116633,-43.4782608695652,4,1,2,90,0,0
116675,-117.647058823529,4,1,2,90,0,0
116841,-66.6666666666667,4,1,2,90,0,0
116883,-200,4,1,2,90,0,0
116925,-66.6666666666667,4,1,2,90,0,0
116966,-200,4,1,2,90,0,0
117008,-66.6666666666667,4,1,2,90,0,0
117050,-200,4,1,2,90,0,0
117091,-66.6666666666667,4,1,2,90,0,0
117133,-200,4,1,2,90,0,0
117175,-66.6666666666667,4,1,2,90,0,0
117216,-200,4,1,2,90,0,0
117258,-66.6666666666667,4,1,2,90,0,0
117300,-200,4,1,2,90,0,0
117341,-66.6666666666667,4,1,2,90,0,0
117383,-200,4,1,2,90,0,0
117425,-66.6666666666667,4,1,2,90,0,0
117466,-200,4,1,2,90,0,0
117508,-66.6666666666667,4,1,2,90,0,0
117550,-200,4,1,2,90,0,0
117591,-66.6666666666667,4,1,2,90,0,0
117633,-200,4,1,2,90,0,0
117675,-333.333333333333,4,1,2,90,0,0
117800,-43.4782608695652,4,1,2,90,0,0
117841,-117.647058823529,4,1,2,90,0,0
118175,-333.333333333333,4,1,2,90,0,0
118300,-43.4782608695652,4,1,2,90,0,0
118341,-333.333333333333,4,1,2,90,0,0
118466,-43.4782608695652,4,1,2,90,0,0
118508,-117.647058823529,4,1,2,90,0,0
118675,-333.333333333333,4,1,2,90,0,0
118800,-43.4782608695652,4,1,2,90,0,0
118841,-117.647058823529,4,1,2,90,0,0
119008,-333.333333333333,4,1,2,90,0,0
119133,-43.4782608695652,4,1,2,90,0,0
119175,-117.647058823529,4,1,2,90,0,0
119258,-333.333333333333,4,1,2,90,0,0
119383,-43.4782608695652,4,1,2,90,0,0
119425,-117.647058823529,4,1,2,90,0,0
119508,-333.333333333333,4,1,2,90,0,0
119633,-43.4782608695652,4,1,2,90,0,0
119675,-333.333333333333,4,1,2,90,0,0
119800,-43.4782608695652,4,1,2,90,0,0
119841,-333.333333333333,4,1,2,90,0,0
119966,-43.4782608695652,4,1,2,90,0,0
120008,-117.647058823529,4,1,2,90,0,0
120175,-333.333333333333,4,1,2,90,0,0
120300,-43.4782608695652,4,1,2,90,0,0
120341,-333.333333333333,4,1,2,90,0,0
120466,-43.4782608695652,4,1,2,90,0,0
120508,-333.333333333333,4,1,2,90,0,0
120633,-43.4782608695652,4,1,2,90,0,0
120675,-117.647058823529,4,1,2,90,0,0
120841,-333.333333333333,4,1,2,90,0,0
120966,-43.4782608695652,4,1,2,90,0,0
121008,-333.333333333333,4,1,2,90,0,0
121133,-43.4782608695652,4,1,2,90,0,0
121175,-117.647058823529,4,1,2,90,0,0
121341,-333.333333333333,4,1,2,90,0,0
121466,-43.4782608695652,4,1,2,90,0,0
121508,-333.333333333333,4,1,2,90,0,0
121633,-43.4782608695652,4,1,2,90,0,0
121675,-117.647058823529,4,1,2,90,0,0
121841,-333.333333333333,4,1,2,90,0,0
121966,-43.4782608695652,4,1,2,90,0,0
122008,-333.333333333333,4,1,2,90,0,0
122133,-43.4782608695652,4,1,2,90,0,0
122175,-333.333333333333,4,1,2,90,0,0
122300,-43.4782608695652,4,1,2,90,0,0
122341,-117.647058823529,4,1,2,90,0,0
122508,-333.333333333333,4,1,2,90,0,0
122633,-43.4782608695652,4,1,2,90,0,0
122675,-117.647058823529,4,1,2,90,0,0
123008,-333.333333333333,4,1,2,90,0,0
123133,-43.4782608695652,4,1,2,90,0,0
123175,-333.333333333333,4,1,2,90,0,0
123300,-43.4782608695652,4,1,2,90,0,0
123341,-333.333333333333,4,1,2,90,0,0
123466,-43.4782608695652,4,1,2,90,0,0
123508,-117.647058823529,4,1,2,90,0,0
123675,-333.333333333333,4,1,2,90,0,0
123800,-43.4782608695652,4,1,2,90,0,0
123841,-333.333333333333,4,1,2,90,0,0
123966,-43.4782608695652,4,1,2,90,0,0
124008,-333.333333333333,4,1,2,90,0,0
124120,-62.5,4,1,2,90,0,0
124188,-1000,4,1,2,90,0,0
124241,-57.1428571428571,4,1,2,90,0,0
124271,-1000,4,1,2,90,0,0
124329,-57.1428571428571,4,1,2,90,0,0
124373,-1000,4,1,2,90,0,0
124425,-57.1428571428571,4,1,2,90,0,0
124457,-1000,4,1,2,90,0,0
124506,-57.1428571428571,4,1,2,90,0,0
124540,-1000,4,1,2,90,0,0
124588,-57.1428571428571,4,1,2,90,0,0
124623,-1000,4,1,2,90,0,0
124669,-57.1428571428571,4,1,2,90,0,0
124707,-1000,4,1,2,90,0,0
124750,-57.1428571428571,4,1,2,90,0,0
124790,-1000,4,1,2,90,0,0
124832,-57.1428571428571,4,1,2,90,0,0
124873,-1000,4,1,2,90,0,0
124915,-56.8181818181818,4,1,2,90,0,0
124957,-1000,4,1,2,90,0,0
124998,-56.4971751412429,4,1,2,90,0,0
125040,-1000,4,1,2,90,0,0
125082,-56.1797752808989,4,1,2,90,0,0
125123,-1000,4,1,2,90,0,0
125165,-55.8659217877095,4,1,2,90,0,0
125207,-1000,4,1,2,90,0,0
125248,-55.5555555555556,4,1,2,90,0,0
125290,-1000,4,1,2,90,0,0
125332,-55.2486187845304,4,1,2,90,0,0
125373,-1000,4,1,2,90,0,0
125415,-54.9450549450549,4,1,2,90,0,0
125457,-1000,4,1,2,90,0,0
125498,-54.6448087431694,4,1,2,90,0,0
125540,-1000,4,1,2,90,0,0
125582,-54.3478260869565,4,1,2,90,0,0
125623,-1000,4,1,2,90,0,0
125665,-54.054054054054,4,1,2,90,0,0
125707,-1000,4,1,2,90,0,0
125748,-53.763440860215,4,1,2,90,0,0
125790,-1000,4,1,2,90,0,0
125832,-53.475935828877,4,1,2,90,0,0
125873,-1000,4,1,2,90,0,0
125915,-53.1914893617021,4,1,2,90,0,0
125957,-1000,4,1,2,90,0,0
125998,-52.9100529100529,4,1,2,90,0,0
126041,-1000,4,1,2,90,0,0
126081,-52.6315789473684,4,1,2,90,0,0
126123,-1000,4,1,2,90,0,0
126165,-52.3560209424084,4,1,2,90,0,0
126207,-1000,4,1,2,90,0,0
126248,-52.0833333333333,4,1,2,90,0,0
126290,-1000,4,1,2,90,0,0
126332,-51.8134715025907,4,1,2,90,0,0
126373,-1000,4,1,2,90,0,0
126415,-51.5463917525773,4,1,2,90,0,0
126457,-1000,4,1,2,90,0,0
126498,-51.2820512820513,4,1,2,90,0,0
126540,-1000,4,1,2,90,0,0
126582,-51.0204081632653,4,1,2,90,0,0
126623,-1000,4,1,2,90,0,0
126665,-50.761421319797,4,1,2,90,0,0
126707,-1000,4,1,2,90,0,0
126748,-50.5050505050505,4,1,2,90,0,0
126790,-1000,4,1,2,90,0,0
126832,-50.251256281407,4,1,2,90,0,0
126873,-1000,4,1,2,90,0,0
126915,-50,4,1,2,90,0,0
126957,-1000,4,1,2,90,0,0
126998,-49.7512437810945,4,1,2,90,0,0
127041,-1000,4,1,2,90,0,0
127081,-49.5049504950495,4,1,2,90,0,0
127123,-1000,4,1,2,90,0,0
127165,-49.2610837438424,4,1,2,90,0,0
127207,-1000,4,1,2,90,0,0
127248,-49.0196078431373,4,1,2,90,0,0
127290,-1000,4,1,2,90,0,0
127332,-48.780487804878,4,1,2,90,0,0
127366,-1000,4,1,2,90,0,0
127405,-48.5436893203883,4,1,2,90,0,0
127408,-1000,4,1,2,90,0,0
127428,-48.5436893203883,4,1,2,90,0,0
127450,-1000,4,1,2,90,0,0
127471,-48.5436893203883,4,1,2,90,0,0
127491,-1000,4,1,2,90,0,0
127513,-48.5436893203883,4,1,2,90,0,0
127533,-1000,4,1,2,90,0,0
127553,-48.5436893203883,4,1,2,90,0,0
127575,-1000,4,1,2,90,0,0
127595,-48.5436893203883,4,1,2,90,0,0
127616,-1000,4,1,2,90,0,0
127637,-48.5436893203883,4,1,2,90,0,0
127658,-1000,4,1,2,90,0,0
127678,-48.5436893203883,4,1,2,90,0,0
127707,-1000,4,1,2,90,0,0
127748,-47.6190476190476,4,1,2,90,0,0
127790,-1000,4,1,2,90,0,0
127832,-46.5116279069767,4,1,2,90,0,0
127873,-1000,4,1,2,90,0,0
127915,-45.4545454545455,4,1,2,90,0,0
127957,-1000,4,1,2,90,0,0
127998,-20,4,1,2,90,0,0
128061,-25,4,1,2,90,0,0
128102,-50,4,1,2,90,0,0
128144,-100,4,1,2,90,0,0
128186,-133.333333333333,4,1,2,90,0,0
128227,-200,4,1,2,90,0,0
128269,-400,4,1,2,90,0,0
128311,-2000,4,1,2,90,0,0
128333,-86.9565217391304,4,1,2,90,0,0
128373,-2000,4,1,2,90,0,0
128403,-86.9565217391304,4,1,2,90,0,0
128540,-2000,4,1,2,90,0,0
128570,-86.9565217391304,4,1,2,90,0,0
128707,-2000,4,1,2,90,0,0
128737,-86.9565217391304,4,1,2,90,0,0
128873,-2000,4,1,2,90,0,0
128903,-86.9565217391304,4,1,2,90,0,0
129040,-2000,4,1,2,90,0,0
129070,-86.9565217391304,4,1,2,90,0,0
129207,-2000,4,1,2,90,0,0
129237,-86.9565217391304,4,1,2,90,0,0
129373,-2000,4,1,2,90,0,0
129403,-86.9565217391304,4,1,2,90,0,0
129540,-2000,4,1,2,90,0,0
129570,-86.9565217391304,4,1,2,90,0,0
129707,-2000,4,1,2,90,0,0
129737,-86.9565217391304,4,1,2,90,0,0
129873,-2000,4,1,2,90,0,0
129903,-86.9565217391304,4,1,2,90,0,0
130040,-2000,4,1,2,90,0,0
130070,-86.9565217391304,4,1,2,90,0,0
130207,-2000,4,1,2,90,0,0
130237,-86.9565217391304,4,1,2,90,0,0
130373,-2000,4,1,2,90,0,0
130403,-86.9565217391304,4,1,2,90,0,0
130540,-2000,4,1,2,90,0,0
130570,-86.9565217391304,4,1,2,90,0,0
130707,-2000,4,1,2,90,0,0
130737,-86.9565217391304,4,1,2,90,0,0
130873,-2000,4,1,2,90,0,0
130903,-86.9565217391304,4,1,2,90,0,0
131040,-2000,4,1,2,90,0,0
131070,-86.9565217391304,4,1,2,90,0,0
131207,-2000,4,1,2,90,0,0
131237,-86.9565217391304,4,1,2,90,0,0
131373,-2000,4,1,2,90,0,0
131403,-86.9565217391304,4,1,2,90,0,0
131540,-2000,4,1,2,90,0,0
131570,-86.9565217391304,4,1,2,90,0,0
131707,-2000,4,1,2,90,0,0
131737,-86.9565217391304,4,1,2,90,0,0
131873,-2000,4,1,2,90,0,0
131903,-86.9565217391304,4,1,2,90,0,0
132040,-2000,4,1,2,90,0,0
132070,-86.9565217391304,4,1,2,90,0,0
132207,-2000,4,1,2,90,0,0
132237,-86.9565217391304,4,1,2,90,0,0
132373,-2000,4,1,2,90,0,0
132403,-86.9565217391304,4,1,2,90,0,0
132540,-2000,4,1,2,90,0,0
132570,-86.9565217391304,4,1,2,90,0,0
132707,-2000,4,1,2,90,0,0
132737,-86.9565217391304,4,1,2,90,0,0
132873,-2000,4,1,2,90,0,0
132903,-86.9565217391304,4,1,2,90,0,0
133040,-2000,4,1,2,90,0,0
133070,-86.9565217391304,4,1,2,90,0,0
133207,-2000,4,1,2,90,0,0
133237,-86.9565217391304,4,1,2,90,0,0
133373,-2000,4,1,2,90,0,0
133413,-60.6060606060606,4,1,2,90,0,0
133457,-2000,4,1,2,90,0,0
133497,-60.6060606060606,4,1,2,90,0,0
133540,-2000,4,1,2,90,0,0
133580,-60.6060606060606,4,1,2,90,0,0
133623,-2000,4,1,2,90,0,0
133663,-60.6060606060606,4,1,2,90,0,0
133675,-86.9565217391304,4,1,2,90,0,0
133707,-2000,4,1,2,90,0,0
133737,-86.9565217391304,4,1,2,90,0,0
133873,-2000,4,1,2,90,0,0
133903,-86.9565217391304,4,1,2,90,0,0
134040,-2000,4,1,2,90,0,0
134070,-86.9565217391304,4,1,2,90,0,0
134207,-2000,4,1,2,90,0,0
134237,-86.9565217391304,4,1,2,90,0,0
134373,-2000,4,1,2,90,0,0
134403,-86.9565217391304,4,1,2,90,0,0
134540,-2000,4,1,2,90,0,0
134570,-86.9565217391304,4,1,2,90,0,0
134707,-2000,4,1,2,90,0,0
134737,-86.9565217391304,4,1,2,90,0,0
134873,-2000,4,1,2,90,0,0
134903,-86.9565217391304,4,1,2,90,0,0
135040,-2000,4,1,2,90,0,0
135070,-86.9565217391304,4,1,2,90,0,0
135207,-2000,4,1,2,90,0,0
135237,-86.9565217391304,4,1,2,90,0,0
135373,-2000,4,1,2,90,0,0
135403,-86.9565217391304,4,1,2,90,0,0
135540,-2000,4,1,2,90,0,0
135570,-86.9565217391304,4,1,2,90,0,0
135707,-2000,4,1,2,90,0,0
135737,-86.9565217391304,4,1,2,90,0,0
135873,-2000,4,1,2,90,0,0
135903,-86.9565217391304,4,1,2,90,0,0
136040,-2000,4,1,2,90,0,0
136070,-86.9565217391304,4,1,2,90,0,0
136207,-2000,4,1,2,90,0,0
136237,-86.9565217391304,4,1,2,90,0,0
136373,-2000,4,1,2,90,0,0
136403,-86.9565217391304,4,1,2,90,0,0
136540,-2000,4,1,2,90,0,0
136570,-86.9565217391304,4,1,2,90,0,0
136707,-2000,4,1,2,90,0,0
136737,-86.9565217391304,4,1,2,90,0,0
136873,-2000,4,1,2,90,0,0
136903,-86.9565217391304,4,1,2,90,0,0
137040,-2000,4,1,2,90,0,0
137070,-86.9565217391304,4,1,2,90,0,0
137207,-2000,4,1,2,90,0,0
137237,-86.9565217391304,4,1,2,90,0,0
137373,-2000,4,1,2,90,0,0
137403,-86.9565217391304,4,1,2,90,0,0
137540,-2000,4,1,2,90,0,0
137570,-86.9565217391304,4,1,2,90,0,0
137707,-2000,4,1,2,90,0,0
137737,-86.9565217391304,4,1,2,90,0,0
137873,-2000,4,1,2,90,0,0
137903,-86.9565217391304,4,1,2,90,0,0
138040,-2000,4,1,2,90,0,0
138070,-86.9565217391304,4,1,2,90,0,0
138207,-2000,4,1,2,90,0,0
138237,-86.9565217391304,4,1,2,90,0,0
138373,-2000,4,1,2,90,0,0
138403,-86.9565217391304,4,1,2,90,0,0
138457,-2000,4,1,2,90,0,0
138487,-86.9565217391304,4,1,2,90,0,0
138540,-2000,4,1,2,90,0,0
138570,-86.9565217391304,4,1,2,90,0,0
138623,-2000,4,1,2,90,0,0
138663,-60.6060606060606,4,1,2,90,0,0
138707,-2000,4,1,2,90,0,0
138747,-60.6060606060606,4,1,2,90,0,0
138790,-2000,4,1,2,90,0,0
138830,-60.6060606060606,4,1,2,90,0,0
138873,-2000,4,1,2,90,0,0
138913,-60.6060606060606,4,1,2,90,0,0
138957,-2000,4,1,2,90,0,0
139040,-33.3333333333333,4,1,2,90,0,0
139144,-66.6666666666667,4,1,2,90,0,0
139207,-86.9565217391304,4,1,2,90,0,0
139248,-200,4,1,2,90,0,0
139269,-400,4,1,2,90,0,0
139311,-80,4,1,2,90,0,0
139341,-100,4,1,2,90,0,0
139373,-2000,4,1,2,90,0,0
139403,-95.2380952380952,4,1,2,90,0,0
139540,-2000,4,1,2,90,0,0
139570,-95.2380952380952,4,1,2,90,0,0
139707,-2000,4,1,2,90,0,0
139737,-95.2380952380952,4,1,2,90,0,0
139873,-2000,4,1,2,90,0,0
139903,-95.2380952380952,4,1,2,90,0,0
140040,-2000,4,1,2,90,0,0
140070,-95.2380952380952,4,1,2,90,0,0
140207,-2000,4,1,2,90,0,0
140237,-95.2380952380952,4,1,2,90,0,0
140373,-2000,4,1,2,90,0,0
140403,-95.2380952380952,4,1,2,90,0,0
140540,-2000,4,1,2,90,0,0
140570,-95.2380952380952,4,1,2,90,0,0
140707,-2000,4,1,2,90,0,0
140737,-95.2380952380952,4,1,2,90,0,0
140873,-2000,4,1,2,90,0,0
140903,-95.2380952380952,4,1,2,90,0,0
141040,-2000,4,1,2,90,0,0
141070,-95.2380952380952,4,1,2,90,0,0
141207,-2000,4,1,2,90,0,0
141237,-95.2380952380952,4,1,2,90,0,0
141373,-2000,4,1,2,90,0,0
141403,-95.2380952380952,4,1,2,90,0,0
141540,-2000,4,1,2,90,0,0
141570,-95.2380952380952,4,1,2,90,0,0
141707,-2000,4,1,2,90,0,0
141737,-95.2380952380952,4,1,2,90,0,0
141873,-2000,4,1,2,90,0,0
141903,-95.2380952380952,4,1,2,90,0,0
142040,-2000,4,1,2,90,0,0
142070,-95.2380952380952,4,1,2,90,0,0
142207,-2000,4,1,2,90,0,0
142237,-95.2380952380952,4,1,2,90,0,0
142373,-2000,4,1,2,90,0,0
142403,-95.2380952380952,4,1,2,90,0,0
142540,-2000,4,1,2,90,0,0
142570,-95.2380952380952,4,1,2,90,0,0
142707,-2000,4,1,2,90,0,0
142737,-95.2380952380952,4,1,2,90,0,0
142873,-2000,4,1,2,90,0,0
142903,-95.2380952380952,4,1,2,90,0,0
143040,-2000,4,1,2,90,0,0
143070,-95.2380952380952,4,1,2,90,0,0
143207,-2000,4,1,2,90,0,0
143237,-95.2380952380952,4,1,2,90,0,0
143373,-2000,4,1,2,90,0,0
143403,-95.2380952380952,4,1,2,90,0,0
143540,-2000,4,1,2,90,0,0
143570,-95.2380952380952,4,1,2,90,0,0
143707,-2000,4,1,2,90,0,0
143737,-95.2380952380952,4,1,2,90,0,0
143873,-2000,4,1,2,90,0,0
143903,-95.2380952380952,4,1,2,90,0,0
144031,-2000,4,1,2,90,0,0
144073,-60.6060606060606,4,1,2,90,0,0
144114,-2000,4,1,2,90,0,0
144156,-60.6060606060606,4,1,2,90,0,0
144198,-2000,4,1,2,90,0,0
144239,-60.6060606060606,4,1,2,90,0,0
144281,-2000,4,1,2,90,0,0
144323,-60.6060606060606,4,1,2,90,0,0
144341,-95.2380952380952,4,1,2,90,0,0
144364,-2000,4,1,2,90,0,0
144394,-95.2380952380952,4,1,2,90,0,0
144540,-2000,4,1,2,90,0,0
144570,-95.2380952380952,4,1,2,90,0,0
144707,-2000,4,1,2,90,0,0
144717,-95.2380952380952,4,1,2,90,0,0
144873,-2000,4,1,2,90,0,0
144903,-95.2380952380952,4,1,2,90,0,0
145040,-2000,4,1,2,90,0,0
145070,-95.2380952380952,4,1,2,90,0,0
145207,-2000,4,1,2,90,0,0
145237,-95.2380952380952,4,1,2,90,0,0
145373,-2000,4,1,2,90,0,0
145403,-95.2380952380952,4,1,2,90,0,0
145540,-2000,4,1,2,90,0,0
145570,-95.2380952380952,4,1,2,90,0,0
145707,-2000,4,1,2,90,0,0
145737,-95.2380952380952,4,1,2,90,0,0
145873,-2000,4,1,2,90,0,0
145903,-95.2380952380952,4,1,2,90,0,0
146040,-2000,4,1,2,90,0,0
146070,-95.2380952380952,4,1,2,90,0,0
146207,-2000,4,1,2,90,0,0
146237,-95.2380952380952,4,1,2,90,0,0
146373,-2000,4,1,2,90,0,0
146403,-95.2380952380952,4,1,2,90,0,0
146540,-2000,4,1,2,90,0,0
146570,-95.2380952380952,4,1,2,90,0,0
146707,-2000,4,1,2,90,0,0
146737,-95.2380952380952,4,1,2,90,0,0
146873,-2000,4,1,2,90,0,0
146903,-95.2380952380952,4,1,2,90,0,0
147040,-2000,4,1,2,90,0,0
147070,-95.2380952380952,4,1,2,90,0,0
147207,-2000,4,1,2,90,0,0
147237,-95.2380952380952,4,1,2,90,0,0
147373,-2000,4,1,2,90,0,0
147403,-95.2380952380952,4,1,2,90,0,0
147540,-2000,4,1,2,90,0,0
147570,-95.2380952380952,4,1,2,90,0,0
147707,-2000,4,1,2,90,0,0
147737,-95.2380952380952,4,1,2,90,0,0
147873,-2000,4,1,2,90,0,0
147903,-95.2380952380952,4,1,2,90,0,0
148040,-2000,4,1,2,90,0,0
148070,-95.2380952380952,4,1,2,90,0,0
148207,-2000,4,1,2,90,0,0
148237,-95.2380952380952,4,1,2,90,0,0
148373,-2000,4,1,2,90,0,0
148403,-95.2380952380952,4,1,2,90,0,0
148540,-2000,4,1,2,90,0,0
148570,-95.2380952380952,4,1,2,90,0,0
148707,-2000,4,1,2,90,0,0
148737,-86.9565217391304,4,1,2,90,0,0
148873,-2000,4,1,2,90,0,0
148903,-80,4,1,2,90,0,0
149040,-2000,4,1,2,90,0,0
149070,-74.0740740740741,4,1,2,90,0,0
149207,-2000,4,1,2,90,0,0
149237,-68.9655172413793,4,1,2,90,0,0
149373,-2000,4,1,2,90,0,0
149403,-64.5161290322581,4,1,2,90,0,0
149540,-2000,4,1,2,90,0,0
149654,-33.3333333333333,4,1,2,90,0,0
149716,-10000,4,1,2,90,0,0
149837,-33.3333333333333,4,1,2,90,0,0
149883,-10000,4,1,2,90,0,0
150005,-33.3333333333333,4,1,2,90,0,0
150050,-10000,4,1,2,90,0,0
150172,-33.3333333333333,4,1,2,90,0,0
150216,-10000,4,1,2,90,0,0
150337,-33.3333333333333,4,1,2,90,0,0
150383,-10000,4,1,2,90,0,0
150505,-33.3333333333333,4,1,2,90,0,0
150550,-10000,4,1,2,90,0,0
150672,-33.3333333333333,4,1,2,90,0,0
150717,-10000,4,1,2,90,0,0
150837,-33.3333333333333,4,1,2,90,0,0
150884,-10000,4,1,2,90,0,0
151006,-33.3333333333333,4,1,2,90,0,0
151051,-10000,4,1,2,90,0,0
151177,-33.3333333333333,4,1,2,90,0,0
151216,-10000,4,1,2,90,0,0
151337,-33.3333333333333,4,1,2,90,0,0
151383,-10000,4,1,2,90,0,0
151504,-33.3333333333333,4,1,2,90,0,0
151550,-10000,4,1,2,90,0,0
151671,-33.3333333333333,4,1,2,90,0,0
151716,-10000,4,1,2,90,0,0
151837,-33.3333333333333,4,1,2,90,0,0
151883,-10000,4,1,2,90,0,0
152004,-33.3333333333333,4,1,2,90,0,0
152050,-10000,4,1,2,90,0,0
152171,-33.3333333333333,4,1,2,90,0,0
152216,-10000,4,1,2,90,0,0
152337,-33.3333333333333,4,1,2,90,0,0
152383,-10000,4,1,2,90,0,0
152504,-33.3333333333333,4,1,2,90,0,0
152550,-10000,4,1,2,90,0,0
152671,-33.3333333333333,4,1,2,90,0,0
152716,-10000,4,1,2,90,0,0
152837,-33.3333333333333,4,1,2,90,0,0
152883,-10000,4,1,2,90,0,0
153004,-33.3333333333333,4,1,2,90,0,0
153050,-10000,4,1,2,90,0,0
153171,-33.3333333333333,4,1,2,90,0,0
153216,-10000,4,1,2,90,0,0
153337,-33.3333333333333,4,1,2,90,0,0
153383,-10000,4,1,2,90,0,0
153504,-33.3333333333333,4,1,2,90,0,0
153550,-10000,4,1,2,90,0,0
153671,-33.3333333333333,4,1,2,90,0,0
153716,-10000,4,1,2,90,0,0
153837,-33.3333333333333,4,1,2,90,0,0
153883,-10000,4,1,2,90,0,0
154004,-33.3333333333333,4,1,2,90,0,0
154050,-10000,4,1,2,90,0,0
154171,-33.3333333333333,4,1,2,90,0,0
154216,-10000,4,1,2,90,0,0
154337,-33.3333333333333,4,1,2,90,0,0
154383,-10000,4,1,2,90,0,0
154504,-33.3333333333333,4,1,2,90,0,0
154550,-10000,4,1,2,90,0,0
154671,-33.3333333333333,4,1,2,90,0,0
154696,-2000,4,1,2,90,0,0
154736,-66.6666666666667,4,1,2,90,0,0
154779,-2000,4,1,2,90,0,0
154819,-66.6666666666667,4,1,2,90,0,0
154862,-2000,4,1,2,90,0,0
154902,-66.6666666666667,4,1,2,90,0,0
154946,-2000,4,1,2,90,0,0
154986,-66.6666666666667,4,1,2,90,0,0
155050,-10000,4,1,2,90,0,0
155171,-33.3333333333333,4,1,2,90,0,0
155216,-10000,4,1,2,90,0,0
155337,-33.3333333333333,4,1,2,90,0,0
155383,-10000,4,1,2,90,0,0
155504,-33.3333333333333,4,1,2,90,0,0
155550,-10000,4,1,2,90,0,0
155671,-33.3333333333333,4,1,2,90,0,0
155716,-10000,4,1,2,90,0,0
155837,-33.3333333333333,4,1,2,90,0,0
155883,-10000,4,1,2,90,0,0
156004,-33.3333333333333,4,1,2,90,0,0
156050,-10000,4,1,2,90,0,0
156171,-33.3333333333333,4,1,2,90,0,0
156216,-10000,4,1,2,90,0,0
156337,-33.3333333333333,4,1,2,90,0,0
156383,-10000,4,1,2,90,0,0
156504,-33.3333333333333,4,1,2,90,0,0
156550,-10000,4,1,2,90,0,0
156671,-33.3333333333333,4,1,2,90,0,0
156716,-10000,4,1,2,90,0,0
156837,-33.3333333333333,4,1,2,90,0,0
156883,-10000,4,1,2,90,0,0
157004,-33.3333333333333,4,1,2,90,0,0
157050,-10000,4,1,2,90,0,0
157171,-33.3333333333333,4,1,2,90,0,0
157216,-10000,4,1,2,90,0,0
157337,-33.3333333333333,4,1,2,90,0,0
157383,-10000,4,1,2,90,0,0
157504,-33.3333333333333,4,1,2,90,0,0
157550,-10000,4,1,2,90,0,0
157671,-33.3333333333333,4,1,2,90,0,0
157716,-10000,4,1,2,90,0,0
157837,-33.3333333333333,4,1,2,90,0,0
157883,-10000,4,1,2,90,0,0
158004,-33.3333333333333,4,1,2,90,0,0
158050,-10000,4,1,2,90,0,0
158171,-33.3333333333333,4,1,2,90,0,0
158216,-10000,4,1,2,90,0,0
158337,-33.3333333333333,4,1,2,90,0,0
158383,-10000,4,1,2,90,0,0
158504,-33.3333333333333,4,1,2,90,0,0
158550,-10000,4,1,2,90,0,0
158671,-33.3333333333333,4,1,2,90,0,0
158716,-10000,4,1,2,90,0,0
158837,-33.3333333333333,4,1,2,90,0,0
158883,-10000,4,1,2,90,0,0
159004,-33.3333333333333,4,1,2,90,0,0
159050,-10000,4,1,2,90,0,0
159171,-33.3333333333333,4,1,2,90,0,0
159216,-10000,4,1,2,90,0,0
159337,-33.3333333333333,4,1,2,90,0,0
159383,-10000,4,1,2,90,0,0
159504,-33.3333333333333,4,1,2,90,0,0
159550,-10000,4,1,2,90,0,0
159671,-33.3333333333333,4,1,2,90,0,0
159716,-10000,4,1,2,90,0,0
159837,-33.3333333333333,4,1,2,90,0,0
159883,-10000,4,1,2,90,0,0
160004,-33.3333333333333,4,1,2,90,0,0
160029,-2000,4,1,2,90,0,0
160069,-66.6666666666667,4,1,2,90,0,0
160112,-2000,4,1,2,90,0,0
160152,-66.6666666666667,4,1,2,90,0,0
160196,-2000,4,1,2,90,0,0
160236,-66.6666666666667,4,1,2,90,0,0
160279,-2000,4,1,2,90,0,0
160329,-66.6666666666667,4,1,2,90,0,0
160383,-10000,4,1,2,90,0,0
160504,-33.3333333333333,4,1,2,90,0,0
160550,-10000,4,1,2,90,0,0
160671,-33.3333333333333,4,1,2,90,0,0
160716,-10000,4,1,2,90,0,0
160837,-33.3333333333333,4,1,2,90,0,0
160883,-10000,4,1,2,90,0,0
161004,-33.3333333333333,4,1,2,90,0,0
161050,-10000,4,1,2,90,0,0
161171,-33.3333333333333,4,1,2,90,0,0
161216,-10000,4,1,2,90,0,0
161337,-33.3333333333333,4,1,2,90,0,0
161383,-10000,4,1,2,90,0,0
161504,-33.3333333333333,4,1,2,90,0,0
161550,-10000,4,1,2,90,0,0
161671,-33.3333333333333,4,1,2,90,0,0
161716,-10000,4,1,2,90,0,0
161837,-33.3333333333333,4,1,2,90,0,0
161883,-10000,4,1,2,90,0,0
162004,-33.3333333333333,4,1,2,90,0,0
162050,-10000,4,1,2,90,0,0
162171,-33.3333333333333,4,1,2,90,0,0
162216,-10000,4,1,2,90,0,0
162337,-33.3333333333333,4,1,2,90,0,0
162383,-10000,4,1,2,90,0,0
162504,-33.3333333333333,4,1,2,90,0,0
162550,-10000,4,1,2,90,0,0
162671,-33.3333333333333,4,1,2,90,0,0
162716,-10000,4,1,2,90,0,0
162837,-33.3333333333333,4,1,2,90,0,0
162883,-10000,4,1,2,90,0,0
163004,-33.3333333333333,4,1,2,90,0,0
163050,-10000,4,1,2,90,0,0
163171,-33.3333333333333,4,1,2,90,0,0
163216,-10000,4,1,2,90,0,0
163337,-33.3333333333333,4,1,2,90,0,0
163383,-10000,4,1,2,90,0,0
163504,-33.3333333333333,4,1,2,90,0,0
163550,-10000,4,1,2,90,0,0
163671,-33.3333333333333,4,1,2,90,0,0
163716,-10000,4,1,2,90,0,0
163837,-33.3333333333333,4,1,2,90,0,0
163883,-10000,4,1,2,90,0,0
164004,-33.3333333333333,4,1,2,90,0,0
164050,-10000,4,1,2,90,0,0
164171,-33.3333333333333,4,1,2,90,0,0
164216,-10000,4,1,2,90,0,0
164337,-33.3333333333333,4,1,2,90,0,0
164383,-10000,4,1,2,90,0,0
164504,-33.3333333333333,4,1,2,90,0,0
164550,-10000,4,1,2,90,0,0
164671,-33.3333333333333,4,1,2,90,0,0
164716,-10000,4,1,2,90,0,0
164837,-33.3333333333333,4,1,2,90,0,0
164883,-10000,4,1,2,90,0,0
165004,-33.3333333333333,4,1,2,90,0,0
165050,-10000,4,1,2,90,0,0
165171,-33.3333333333333,4,1,2,90,0,0
165216,-10000,4,1,2,90,0,0
165337,-33.3333333333333,4,1,2,90,0,0
165362,-2000,4,1,2,90,0,0
165404,-66.6666666666667,4,1,2,90,0,0
165446,-2000,4,1,2,90,0,0
165487,-66.6666666666667,4,1,2,90,0,0
165529,-2000,4,1,2,90,0,0
165571,-66.6666666666667,4,1,2,90,0,0
165612,-2000,4,1,2,90,0,0
165654,-66.6666666666667,4,1,2,90,0,0
165716,-10000,4,1,2,90,0,0
165837,-33.3333333333333,4,1,2,90,0,0
165883,-10000,4,1,2,90,0,0
166004,-33.3333333333333,4,1,2,90,0,0
166050,-10000,4,1,2,90,0,0
166171,-33.3333333333333,4,1,2,90,0,0
166216,-10000,4,1,2,90,0,0
166337,-33.3333333333333,4,1,2,90,0,0
166383,-10000,4,1,2,90,0,0
166504,-33.3333333333333,4,1,2,90,0,0
166550,-10000,4,1,2,90,0,0
166671,-33.3333333333333,4,1,2,90,0,0
166716,-10000,4,1,2,90,0,0
166837,-33.3333333333333,4,1,2,90,0,0
166883,-10000,4,1,2,90,0,0
167004,-33.3333333333333,4,1,2,90,0,0
167050,-10000,4,1,2,90,0,0
167171,-33.3333333333333,4,1,2,90,0,0
167216,-10000,4,1,2,90,0,0
167337,-33.3333333333333,4,1,2,90,0,0
167383,-10000,4,1,2,90,0,0
167504,-33.3333333333333,4,1,2,90,0,0
167550,-10000,4,1,2,90,0,0
167671,-33.3333333333333,4,1,2,90,0,0
167716,-10000,4,1,2,90,0,0
167837,-33.3333333333333,4,1,2,90,0,0
167883,-10000,4,1,2,90,0,0
168004,-33.3333333333333,4,1,2,90,0,0
168050,-10000,4,1,2,90,0,0
168171,-33.3333333333333,4,1,2,90,0,0
168216,-10000,4,1,2,90,0,0
168337,-33.3333333333333,4,1,2,90,0,0
168383,-10000,4,1,2,90,0,0
168504,-33.3333333333333,4,1,2,90,0,0
168550,-10000,4,1,2,90,0,0
168671,-33.3333333333333,4,1,2,90,0,0
168716,-10000,4,1,2,90,0,0
168837,-33.3333333333333,4,1,2,90,0,0
168883,-10000,4,1,2,90,0,0
169004,-33.3333333333333,4,1,2,90,0,0
169050,-10000,4,1,2,90,0,0
169171,-33.3333333333333,4,1,2,90,0,0
169216,-10000,4,1,2,90,0,0
169337,-33.3333333333333,4,1,2,90,0,0
169383,-10000,4,1,2,90,0,0
169504,-33.3333333333333,4,1,2,90,0,0
169550,-10000,4,1,2,90,0,0
169671,-33.3333333333333,4,1,2,90,0,0
169716,-10000,4,1,2,90,0,0
169837,-33.3333333333333,4,1,2,90,0,0
169883,-10000,4,1,2,90,0,0
170004,-33.3333333333333,4,1,2,90,0,0
170050,-10000,4,1,2,90,0,0
170171,-33.3333333333333,4,1,2,90,0,0
170216,-10000,4,1,2,90,0,0
170337,-33.3333333333333,4,1,2,90,0,0
170383,-10000,4,1,2,90,0,0
170504,-33.3333333333333,4,1,2,90,0,0
170550,-10000,4,1,2,90,0,0
170675,-2000,4,1,2,90,0,0
170717,-66.6666666666667,4,1,2,90,0,0
170759,-2000,4,1,2,90,0,0
170800,-66.6666666666667,4,1,2,90,0,0
170842,-2000,4,1,2,90,0,0
170884,-66.6666666666667,4,1,2,90,0,0
170925,-2000,4,1,2,90,0,0
170967,-66.6666666666667,4,1,2,90,0,0
171004,-33.3333333333333,4,1,2,90,0,0
171008,-117.647058823529,4,1,2,90,0,0
171175,-333.333333333333,4,1,2,90,0,0
171300,-43.4782608695652,4,1,2,90,0,0
171341,-333.333333333333,4,1,2,90,0,0
171466,-43.4782608695652,4,1,2,90,0,0
171508,-333.333333333333,4,1,2,90,0,0
171633,-43.4782608695652,4,1,2,90,0,0
171675,-333.333333333333,4,1,2,90,0,0
171800,-43.4782608695652,4,1,2,90,0,0
171841,-333.333333333333,4,1,2,90,0,0
171966,-43.4782608695652,4,1,2,90,0,0
172008,-333.333333333333,4,1,2,90,0,0
172133,-43.4782608695652,4,1,2,90,0,0
172175,-117.647058823529,4,1,2,90,0,0
172341,-333.333333333333,4,1,2,90,0,0
172466,-43.4782608695652,4,1,2,90,0,0
172508,-333.333333333333,4,1,2,90,0,0
172633,-43.4782608695652,4,1,2,90,0,0
172675,-333.333333333333,4,1,2,90,0,0
172800,-43.4782608695652,4,1,2,90,0,0
172841,-333.333333333333,4,1,2,90,0,0
172966,-43.4782608695652,4,1,2,90,0,0
173008,-333.333333333333,4,1,2,90,0,0
173133,-43.4782608695652,4,1,2,90,0,0
173175,-333.333333333333,4,1,2,90,0,0
173300,-43.4782608695652,4,1,2,90,0,0
173341,-333.333333333333,4,1,2,90,0,0
173466,-43.4782608695652,4,1,2,90,0,0
173508,-333.333333333333,4,1,2,90,0,0
173633,-43.4782608695652,4,1,2,90,0,0
173675,-333.333333333333,4,1,2,90,0,0
173800,-43.4782608695652,4,1,2,90,0,0
173841,-333.333333333333,4,1,2,90,0,0
173966,-43.4782608695652,4,1,2,90,0,0
174008,-333.333333333333,4,1,2,90,0,0
174133,-43.4782608695652,4,1,2,90,0,0
174175,-117.647058823529,4,1,2,90,0,0
174341,-333.333333333333,4,1,2,90,0,0
174466,-43.4782608695652,4,1,2,90,0,0
174508,-117.647058823529,4,1,2,90,0,0
174675,-333.333333333333,4,1,2,90,0,0
174800,-43.4782608695652,4,1,2,90,0,0
174841,-333.333333333333,4,1,2,90,0,0
174966,-43.4782608695652,4,1,2,90,0,0
175008,-333.333333333333,4,1,2,90,0,0
175133,-43.4782608695652,4,1,2,90,0,0
175175,-333.333333333333,4,1,2,90,0,0
175300,-43.4782608695652,4,1,2,90,0,0
175341,-333.333333333333,4,1,2,90,0,0
175466,-43.4782608695652,4,1,2,90,0,0
175508,-117.647058823529,4,1,2,90,0,0
175675,-333.333333333333,4,1,2,90,0,0
175800,-43.4782608695652,4,1,2,90,0,0
175841,-333.333333333333,4,1,2,90,0,0
175966,-43.4782608695652,4,1,2,90,0,0
176008,-117.647058823529,4,1,2,90,0,0
176341,-333.333333333333,4,1,2,90,0,0
176466,-43.4782608695652,4,1,2,90,0,0
176508,-333.333333333333,4,1,2,90,0,0
176633,-43.4782608695652,4,1,2,90,0,0
176675,-333.333333333333,4,1,2,90,0,0
176800,-43.4782608695652,4,1,2,90,0,0
176841,-117.647058823529,4,1,2,90,0,0
177008,-333.333333333333,4,1,2,90,0,0
177133,-43.4782608695652,4,1,2,90,0,0
177175,-333.333333333333,4,1,2,90,0,0
177300,-43.4782608695652,4,1,2,90,0,0
177341,-333.333333333333,4,1,2,90,0,0
177466,-43.4782608695652,4,1,2,90,0,0
177508,-333.333333333333,4,1,2,90,0,0
177633,-43.4782608695652,4,1,2,90,0,0
177675,-333.333333333333,4,1,2,90,0,0
177800,-43.4782608695652,4,1,2,90,0,0
177841,-117.647058823529,4,1,2,90,0,0
178008,-333.333333333333,4,1,2,90,0,0
178133,-43.4782608695652,4,1,2,90,0,0
178175,-333.333333333333,4,1,2,90,0,0
178300,-43.4782608695652,4,1,2,90,0,0
178341,-333.333333333333,4,1,2,90,0,0
178466,-43.4782608695652,4,1,2,90,0,0
178508,-117.647058823529,4,1,2,90,0,0
178591,-333.333333333333,4,1,2,90,0,0
178716,-43.4782608695652,4,1,2,90,0,0
178758,-117.647058823529,4,1,2,90,0,0
178841,-333.333333333333,4,1,2,90,0,0
178966,-43.4782608695652,4,1,2,90,0,0
179008,-117.647058823529,4,1,2,90,0,0
179175,-333.333333333333,4,1,2,90,0,0
179300,-43.4782608695652,4,1,2,90,0,0
179341,-333.333333333333,4,1,2,90,0,0
179466,-43.4782608695652,4,1,2,90,0,0
179508,-117.647058823529,4,1,2,90,0,0
179675,-333.333333333333,4,1,2,90,0,0
179800,-43.4782608695652,4,1,2,90,0,0
179841,-117.647058823529,4,1,2,90,0,0
180008,-333.333333333333,4,1,2,90,0,0
180133,-43.4782608695652,4,1,2,90,0,0
180175,-333.333333333333,4,1,2,90,0,0
180300,-43.4782608695652,4,1,2,90,0,0
180341,-333.333333333333,4,1,2,90,0,0
180466,-43.4782608695652,4,1,2,90,0,0
180508,-333.333333333333,4,1,2,90,0,0
180633,-43.4782608695652,4,1,2,90,0,0
180675,-333.333333333333,4,1,2,90,0,0
180800,-43.4782608695652,4,1,2,90,0,0
180841,-333.333333333333,4,1,2,90,0,0
180966,-43.4782608695652,4,1,2,90,0,0
181008,-117.647058823529,4,1,2,90,0,0
181675,-333.333333333333,4,1,2,90,0,0
181800,-43.4782608695652,4,1,2,90,0,0
181841,-333.333333333333,4,1,2,90,0,0
181966,-43.4782608695652,4,1,2,90,0,0
182008,-333.333333333333,4,1,2,90,0,0
182133,-43.4782608695652,4,1,2,90,0,0
182175,-333.333333333333,4,1,2,90,0,0
182300,-43.4782608695652,4,1,2,90,0,0
182341,-333.333333333333,4,1,2,90,0,0
182466,-43.4782608695652,4,1,2,90,0,0
182508,-333.333333333333,4,1,2,90,0,0
182633,-43.4782608695652,4,1,2,90,0,0
182675,-333.333333333333,4,1,2,90,0,0
182800,-43.4782608695652,4,1,2,90,0,0
182841,-117.647058823529,4,1,2,90,0,0
183008,-333.333333333333,4,1,2,90,0,0
183133,-43.4782608695652,4,1,2,90,0,0
183175,-333.333333333333,4,1,2,90,0,0
183300,-43.4782608695652,4,1,2,90,0,0
183341,-333.333333333333,4,1,2,90,0,0
183466,-43.4782608695652,4,1,2,90,0,0
183508,-333.333333333333,4,1,2,90,0,0
183633,-43.4782608695652,4,1,2,90,0,0
183675,-333.333333333333,4,1,2,90,0,0
183800,-43.4782608695652,4,1,2,90,0,0
183841,-333.333333333333,4,1,2,90,0,0
183966,-43.4782608695652,4,1,2,90,0,0
184008,-333.333333333333,4,1,2,90,0,0
184133,-43.4782608695652,4,1,2,90,0,0
184175,-333.333333333333,4,1,2,90,0,0
184300,-43.4782608695652,4,1,2,90,0,0
184341,-333.333333333333,4,1,2,90,0,0
184466,-43.4782608695652,4,1,2,90,0,0
184508,-333.333333333333,4,1,2,90,0,0
184633,-43.4782608695652,4,1,2,90,0,0
184675,-117.647058823529,4,1,2,90,0,0
184841,-333.333333333333,4,1,2,90,0,0
184966,-43.4782608695652,4,1,2,90,0,0
185008,-333.333333333333,4,1,2,90,0,0
185133,-43.4782608695652,4,1,2,90,0,0
185175,-117.647058823529,4,1,2,90,0,0
185341,-333.333333333333,4,1,2,90,0,0
185466,-43.4782608695652,4,1,2,90,0,0
185508,-333.333333333333,4,1,2,90,0,0
185633,-43.4782608695652,4,1,2,90,0,0
185675,-333.333333333333,4,1,2,90,0,0
185800,-43.4782608695652,4,1,2,90,0,0
185841,-117.647058823529,4,1,2,90,0,0
186008,-333.333333333333,4,1,2,90,0,0
186133,-43.4782608695652,4,1,2,90,0,0
186175,-333.333333333333,4,1,2,90,0,0
186300,-43.4782608695652,4,1,2,90,0,0
186341,-117.647058823529,4,1,2,90,0,0
186508,-333.333333333333,4,1,2,90,0,0
186633,-43.4782608695652,4,1,2,90,0,0
186675,-117.647058823529,4,1,2,90,0,0
187008,-66.6666666666667,4,1,2,90,0,0
187091,-200,4,1,2,90,0,0
187175,-66.6666666666667,4,1,2,90,0,0
187258,-200,4,1,2,90,0,0
187341,-333.333333333333,4,1,2,90,0,0
187466,-43.4782608695652,4,1,2,90,0,0
187508,-117.647058823529,4,1,2,90,0,0
187675,-333.333333333333,4,1,2,90,0,0
187800,-43.4782608695652,4,1,2,90,0,0
187841,-333.333333333333,4,1,2,90,0,0
187966,-43.4782608695652,4,1,2,90,0,0
188008,-333.333333333333,4,1,2,90,0,0
188133,-43.4782608695652,4,1,2,90,0,0
188175,-117.647058823529,4,1,2,90,0,0
188341,-333.333333333333,4,1,2,90,0,0
188466,-43.4782608695652,4,1,2,90,0,0
188508,-117.647058823529,4,1,2,90,0,0
188675,-333.333333333333,4,1,2,90,0,0
188800,-43.4782608695652,4,1,2,90,0,0
188841,-333.333333333333,4,1,2,90,0,0
188966,-43.4782608695652,4,1,2,90,0,0
189008,-333.333333333333,4,1,2,90,0,0
189133,-43.4782608695652,4,1,2,90,0,0
189175,-117.647058823529,4,1,2,90,0,0
189258,-333.333333333333,4,1,2,90,0,0
189383,-43.4782608695652,4,1,2,90,0,0
189425,-117.647058823529,4,1,2,90,0,0
189508,-333.333333333333,4,1,2,90,0,0
189633,-43.4782608695652,4,1,2,90,0,0
189675,-117.647058823529,4,1,2,90,0,0
189841,-333.333333333333,4,1,2,90,0,0
189966,-43.4782608695652,4,1,2,90,0,0
190008,-333.333333333333,4,1,2,90,0,0
190133,-43.4782608695652,4,1,2,90,0,0
190175,-333.333333333333,4,1,2,90,0,0
190300,-43.4782608695652,4,1,2,90,0,0
190341,-117.647058823529,4,1,2,90,0,0
190508,-333.333333333333,4,1,2,90,0,0
190633,-43.4782608695652,4,1,2,90,0,0
190675,-333.333333333333,4,1,2,90,0,0
190800,-43.4782608695652,4,1,2,90,0,0
190841,-117.647058823529,4,1,2,90,0,0
191008,-333.333333333333,4,1,2,90,0,0
191133,-43.4782608695652,4,1,2,90,0,0
191175,-333.333333333333,4,1,2,90,0,0
191300,-43.4782608695652,4,1,2,90,0,0
191341,-117.647058823529,4,1,2,90,0,0
191508,-333.333333333333,4,1,2,90,0,0
191633,-43.4782608695652,4,1,2,90,0,0
191675,-333.333333333333,4,1,2,90,0,0
191800,-43.4782608695652,4,1,2,90,0,0
191841,-117.647058823529,4,1,2,90,0,0
192008,-333.333333333333,4,1,2,90,0,0
192133,-43.4782608695652,4,1,2,90,0,0
192175,-333.333333333333,4,1,2,90,0,0
192300,-43.4782608695652,4,1,2,90,0,0
192341,-100,4,1,2,90,0,0

[HitObjects]
64,192,342,5,4,3:0:0:0:
320,192,508,128,2,841:2:0:0:0:
64,192,841,1,4,3:0:0:0:
320,192,1008,128,2,1341:2:0:0:0:
64,192,1341,1,4,3:0:0:0:
192,192,1508,128,2,1591:2:0:0:0:
320,192,1675,128,4,1841:3:0:0:0:
64,192,1841,1,2,2:0:0:0:
192,192,2008,128,2,2091:2:0:0:0:
320,192,2175,128,4,2341:3:0:0:0:
64,192,2341,1,2,2:0:0:0:
448,192,2508,128,2,2633:2:0:0:0:
64,192,2675,128,4,2800:3:0:0:0:
192,192,2675,128,0,2800:0:0:0:0:
320,192,2841,128,0,2966:0:0:0:0:
448,192,2841,128,2,2966:2:0:0:0:
64,192,3008,1,4,3:0:0:0:
192,192,3175,128,2,3508:2:0:0:0:
448,192,3508,1,4,3:0:0:0:
192,192,3675,128,2,4008:2:0:0:0:
448,192,4008,1,4,3:0:0:0:
320,192,4175,128,2,4258:2:0:0:0:
192,192,4341,128,4,4508:3:0:0:0:
448,192,4508,1,2,2:0:0:0:
320,192,4675,128,2,4758:2:0:0:0:
192,192,4841,128,4,5008:3:0:0:0:
448,192,5008,1,2,2:0:0:0:
64,192,5175,128,2,5300:2:0:0:0:
448,192,5341,128,0,5466:0:0:0:0:
320,192,5341,128,4,5466:3:0:0:0:
64,192,5508,128,0,5633:0:0:0:0:
192,192,5508,128,2,5633:2:0:0:0:
448,192,5675,1,4,3:0:0:0:
320,192,5841,128,2,6175:2:0:0:0:
64,192,6175,1,4,3:0:0:0:
320,192,6341,128,2,6675:2:0:0:0:
64,192,6675,1,4,3:0:0:0:
192,192,6841,128,2,6925:2:0:0:0:
320,192,7008,128,4,7175:3:0:0:0:
64,192,7175,1,0,0:0:0:0:
192,192,7341,128,2,7425:2:0:0:0:
320,192,7508,128,4,7675:3:0:0:0:
64,192,7675,1,0,0:0:0:0:
448,192,7841,128,2,7966:2:0:0:0:
192,192,8008,128,4,8133:3:0:0:0:
64,192,8008,128,0,8133:0:0:0:0:
448,192,8175,128,0,8300:0:0:0:0:
320,192,8175,128,2,8300:2:0:0:0:
64,192,8341,1,4,3:0:0:0:
192,192,8508,128,2,8841:2:0:0:0:
448,192,8841,1,4,3:0:0:0:
192,192,9008,128,2,9341:2:0:0:0:
448,192,9341,1,4,3:0:0:0:
320,192,9508,128,2,9591:2:0:0:0:
64,192,9675,128,0,9841:0:0:0:0:
448,192,9675,1,0,3:0:0:0:
448,192,9841,1,0,3:0:0:0:
192,192,9925,1,0,3:0:0:0:
320,192,10008,1,0,0:0:0:0:
448,192,10008,1,0,3:0:0:0:
448,192,10175,128,0,10341:0:0:0:0:
64,192,10175,1,0,3:0:0:0:
64,192,10341,1,0,3:0:0:0:
192,192,10425,1,0,3:0:0:0:
320,192,10508,128,0,10591:0:0:0:0:
448,192,10508,1,0,3:0:0:0:
192,192,10675,1,0,3:0:0:0:
64,192,10675,1,0,0:0:0:0:
448,192,10758,1,0,3:0:0:0:
320,192,10841,1,0,3:0:0:0:
192,192,10925,1,0,3:0:0:0:
448,192,11008,1,4,3:0:0:0:
320,192,11008,1,2,2:0:0:0:
192,192,11175,1,2,2:0:0:0:
320,192,11258,1,2,2:0:0:0:
448,192,11341,1,8,2:0:0:0:
64,192,11341,1,0,0:0:0:0:
64,192,11508,1,4,3:0:0:0:
192,192,11508,1,0,0:0:0:0:
448,192,11675,1,2,2:0:0:0:
320,192,11758,1,2,2:0:0:0:
64,192,11841,1,0,0:0:0:0:
192,192,11841,1,2,2:0:0:0:
192,192,12008,1,0,0:0:0:0:
448,192,12008,1,8,2:0:0:0:
448,192,12175,1,2,2:0:0:0:
320,192,12258,1,2,2:0:0:0:
192,192,12341,1,2,2:0:0:0:
64,192,12341,1,4,3:0:0:0:
192,192,12508,1,2,2:0:0:0:
448,192,12591,1,2,2:0:0:0:
64,192,12675,1,8,2:0:0:0:
320,192,12675,1,2,2:0:0:0:
320,192,12841,1,0,0:0:0:0:
192,192,12841,1,4,3:0:0:0:
64,192,13008,1,0,0:0:0:0:
192,192,13008,1,2,2:0:0:0:
448,192,13175,128,2,13258:2:0:0:0:
192,192,13258,1,2,2:0:0:0:
320,192,13341,1,2,2:0:0:0:
64,192,13341,1,8,2:0:0:0:
192,192,13508,128,2,13591:2:0:0:0:
64,192,13591,1,2,2:0:0:0:
320,192,13675,1,2,2:0:0:0:
448,192,13675,1,4,3:0:0:0:
192,192,13841,1,2,2:0:0:0:
64,192,13925,1,2,2:0:0:0:
448,192,14008,1,8,2:0:0:0:
192,192,14008,1,2,2:0:0:0:
320,192,14175,1,4,3:0:0:0:
448,192,14175,1,2,2:0:0:0:
448,192,14341,1,2,2:0:0:0:
320,192,14425,1,2,2:0:0:0:
64,192,14508,1,0,0:0:0:0:
192,192,14508,1,2,2:0:0:0:
448,192,14675,1,8,2:0:0:0:
64,192,14675,1,2,2:0:0:0:
192,192,14841,1,2,2:0:0:0:
64,192,14925,1,2,2:0:0:0:
320,192,15008,1,2,2:0:0:0:
448,192,15008,1,4,3:0:0:0:
320,192,15175,1,2,2:0:0:0:
64,192,15258,1,2,2:0:0:0:
448,192,15341,1,8,0:0:0:0:
192,192,15341,1,2,2:0:0:0:
64,192,15508,1,4,3:0:0:0:
192,192,15508,1,2,2:0:0:0:
448,192,15758,1,8,2:0:0:0:
192,192,15758,1,2,2:0:0:0:
320,192,15841,1,0,0:0:0:0:
64,192,15841,1,2,2:0:0:0:
64,192,16008,1,8,2:0:0:0:
448,192,16008,1,0,0:0:0:0:
448,192,16175,1,2,2:0:0:0:
320,192,16258,1,2,2:0:0:0:
64,192,16341,1,4,3:0:0:0:
192,192,16341,1,2,2:0:0:0:
64,192,16508,1,2,2:0:0:0:
448,192,16591,1,2,2:0:0:0:
320,192,16675,1,8,2:0:0:0:
64,192,16675,1,2,2:0:0:0:
320,192,16841,1,4,3:0:0:0:
192,192,16841,1,2,2:0:0:0:
64,192,17008,1,2,2:0:0:0:
192,192,17091,1,2,2:0:0:0:
448,192,17175,1,0,0:0:0:0:
320,192,17175,1,2,2:0:0:0:
448,192,17341,1,8,2:0:0:0:
64,192,17341,1,0,0:0:0:0:
320,192,17508,1,2,2:0:0:0:
192,192,17591,1,2,2:0:0:0:
448,192,17675,1,4,3:0:0:0:
320,192,17675,1,2,2:0:0:0:
64,192,17841,1,2,2:0:0:0:
448,192,17925,1,2,2:0:0:0:
64,192,18008,1,8,2:0:0:0:
320,192,18008,1,2,2:0:0:0:
64,192,18175,1,4,3:0:0:0:
192,192,18175,1,2,2:0:0:0:
448,192,18341,1,2,2:0:0:0:
320,192,18341,1,0,0:0:0:0:
64,192,18508,128,2,18591:2:0:0:0:
320,192,18591,1,2,2:0:0:0:
192,192,18675,1,2,2:0:0:0:
448,192,18675,1,8,2:0:0:0:
448,192,18841,128,2,18925:2:0:0:0:
64,192,18925,1,2,2:0:0:0:
320,192,19008,1,4,3:0:0:0:
192,192,19008,1,2,2:0:0:0:
320,192,19175,1,2,2:0:0:0:
192,192,19258,1,2,2:0:0:0:
448,192,19341,1,8,0:0:0:0:
64,192,19341,1,2,2:0:0:0:
320,192,19508,1,4,3:0:0:0:
192,192,19675,1,2,2:0:0:0:
64,192,19675,1,0,0:0:0:0:
448,192,19758,1,8,2:0:0:0:
320,192,19758,1,0,0:0:0:0:
448,192,20008,1,8,2:0:0:0:
64,192,20008,1,0,0:0:0:0:
320,192,20175,1,2,2:0:0:0:
64,192,20341,1,0,3:0:0:0:
192,192,20341,1,0,0:0:0:0:
448,192,20508,5,0,3:0:0:0:
320,192,20591,1,0,3:0:0:0:
64,192,20675,1,0,3:0:0:0:
448,192,20758,1,0,3:0:0:0:
64,192,20841,1,0,3:0:0:0:
320,192,20925,1,0,3:0:0:0:
448,192,21008,1,0,3:0:0:0:
320,192,21091,1,0,3:0:0:0:
64,192,21175,1,0,3:0:0:0:
448,192,21341,1,0,3:0:0:0:
192,192,21341,1,2,2:0:0:0:
64,192,21508,1,2,2:0:0:0:
320,192,21675,5,2,2:0:0:0:
192,192,21675,1,0,0:0:0:0:
64,192,21758,1,2,2:0:0:0:
320,192,21841,1,2,2:0:0:0:
192,192,21925,1,2,2:0:0:0:
448,192,22008,1,8,2:0:0:0:
64,192,22008,1,2,2:0:0:0:
192,192,22175,1,2,2:0:0:0:
64,192,22175,1,0,0:0:0:0:
448,192,22258,1,2,2:0:0:0:
320,192,22341,1,2,2:0:0:0:
192,192,22341,1,0,0:0:0:0:
448,192,22425,1,2,2:0:0:0:
320,192,22508,1,2,2:0:0:0:
192,192,22591,1,2,2:0:0:0:
448,192,22675,1,8,2:0:0:0:
64,192,22675,1,0,0:0:0:0:
192,192,22841,1,2,2:0:0:0:
320,192,22841,1,0,0:0:0:0:
64,192,22925,1,2,2:0:0:0:
320,192,23008,1,0,0:0:0:0:
448,192,23008,1,2,2:0:0:0:
64,192,23091,1,2,2:0:0:0:
192,192,23175,1,2,2:0:0:0:
320,192,23258,1,2,2:0:0:0:
448,192,23341,1,8,2:0:0:0:
64,192,23341,1,2,2:0:0:0:
64,192,23508,1,2,2:0:0:0:
192,192,23508,1,0,0:0:0:0:
448,192,23591,1,2,2:0:0:0:
192,192,23675,1,2,2:0:0:0:
320,192,23675,1,0,0:0:0:0:
64,192,23758,1,2,2:0:0:0:
320,192,23841,1,2,2:0:0:0:
448,192,23841,1,0,0:0:0:0:
64,192,24008,1,2,2:0:0:0:
448,192,24008,1,8,2:0:0:0:
192,192,24175,1,2,2:0:0:0:
64,192,24175,1,0,0:0:0:0:
448,192,24341,1,2,2:0:0:0:
320,192,24341,1,0,0:0:0:0:
192,192,24425,1,2,2:0:0:0:
448,192,24508,1,2,2:0:0:0:
192,192,24591,1,2,2:0:0:0:
320,192,24675,1,8,2:0:0:0:
64,192,24675,1,2,2:0:0:0:
448,192,24841,1,0,0:0:0:0:
320,192,24841,1,2,2:0:0:0:
192,192,24925,1,2,2:0:0:0:
448,192,25008,1,2,2:0:0:0:
320,192,25008,1,0,0:0:0:0:
192,192,25091,1,2,2:0:0:0:
64,192,25175,1,2,2:0:0:0:
192,192,25258,1,2,2:0:0:0:
448,192,25341,1,2,2:0:0:0:
320,192,25341,1,8,2:0:0:0:
192,192,25508,1,2,2:0:0:0:
448,192,25508,1,0,0:0:0:0:
64,192,25591,1,2,2:0:0:0:
192,192,25675,1,2,2:0:0:0:
320,192,25675,1,0,0:0:0:0:
64,192,25758,1,2,2:0:0:0:
192,192,25841,1,2,2:0:0:0:
320,192,25925,1,2,2:0:0:0:
64,192,26008,1,8,2:0:0:0:
448,192,26008,1,2,2:0:0:0:
192,192,26175,1,2,2:0:0:0:
320,192,26175,1,0,0:0:0:0:
64,192,26258,1,2,2:0:0:0:
320,192,26341,1,2,2:0:0:0:
448,192,26341,1,0,0:0:0:0:
192,192,26425,1,2,2:0:0:0:
64,192,26508,1,2,2:0:0:0:
320,192,26591,1,2,2:0:0:0:
448,192,26675,1,8,2:0:0:0:
64,192,26675,1,2,2:0:0:0:
448,192,26841,1,2,2:0:0:0:
320,192,26925,1,2,2:0:0:0:
192,192,27008,1,2,2:0:0:0:
64,192,27008,1,0,0:0:0:0:
448,192,27091,1,2,2:0:0:0:
192,192,27175,1,2,2:0:0:0:
320,192,27258,1,2,2:0:0:0:
448,192,27341,1,10,2:0:0:0:
64,192,27341,1,8,2:0:0:0:
320,192,27508,1,2,2:0:0:0:
448,192,27508,1,0,0:0:0:0:
192,192,27591,1,2,2:0:0:0:
448,192,27675,1,2,2:0:0:0:
320,192,27675,1,0,0:0:0:0:
64,192,27758,1,2,2:0:0:0:
192,192,27841,1,2,2:0:0:0:
320,192,27925,1,2,2:0:0:0:
64,192,28008,1,2,2:0:0:0:
448,192,28008,1,8,2:0:0:0:
64,192,28175,1,0,0:0:0:0:
192,192,28175,1,2,2:0:0:0:
448,192,28258,1,2,2:0:0:0:
64,192,28341,1,0,0:0:0:0:
192,192,28341,1,2,2:0:0:0:
320,192,28425,1,2,2:0:0:0:
448,192,28508,1,2,2:0:0:0:
64,192,28591,1,2,2:0:0:0:
448,192,28675,1,8,2:0:0:0:
192,192,28675,1,2,2:0:0:0:
448,192,28841,1,2,2:0:0:0:
320,192,28841,1,0,0:0:0:0:
64,192,28925,1,2,2:0:0:0:
192,192,29008,1,0,0:0:0:0:
320,192,29008,1,2,2:0:0:0:
448,192,29091,1,2,2:0:0:0:
320,192,29175,1,2,2:0:0:0:
192,192,29258,1,2,2:0:0:0:
64,192,29341,1,2,2:0:0:0:
320,192,29341,1,8,2:0:0:0:
448,192,29508,1,0,0:0:0:0:
192,192,29508,1,2,2:0:0:0:
64,192,29675,1,2,2:0:0:0:
448,192,29675,1,0,0:0:0:0:
192,192,29758,1,2,2:0:0:0:
320,192,29841,1,2,2:0:0:0:
448,192,29925,1,2,2:0:0:0:
320,192,30008,1,2,2:0:0:0:
64,192,30008,1,8,2:0:0:0:
192,192,30175,1,2,2:0:0:0:
320,192,30175,1,0,0:0:0:0:
448,192,30258,1,2,2:0:0:0:
64,192,30341,1,2,2:0:0:0:
192,192,30341,1,0,0:0:0:0:
320,192,30425,1,2,2:0:0:0:
64,192,30508,1,2,2:0:0:0:
320,192,30591,1,2,2:0:0:0:
448,192,30675,1,8,2:0:0:0:
192,192,30675,1,2,2:0:0:0:
192,192,30841,1,2,2:0:0:0:
320,192,30841,1,0,0:0:0:0:
64,192,30925,1,2,2:0:0:0:
320,192,31008,1,8,2:0:0:0:
448,192,31008,1,2,2:0:0:0:
192,192,31091,1,2,2:0:0:0:
64,192,31175,1,2,2:0:0:0:
320,192,31175,1,8,2:0:0:0:
448,192,31258,1,2,2:0:0:0:
64,192,31341,1,8,2:0:0:0:
320,192,31341,1,2,2:0:0:0:
192,192,31425,1,2,2:0:0:0:
448,192,31508,1,4,3:0:0:0:
320,192,31508,1,2,2:0:0:0:
192,192,31591,1,2,2:0:0:0:
320,192,31675,1,2,2:0:0:0:
64,192,31675,1,8,2:0:0:0:
192,192,31758,1,2,2:0:0:0:
320,192,31841,1,2,2:0:0:0:
192,192,31925,1,2,2:0:0:0:
448,192,32008,1,2,2:0:0:0:
64,192,32008,1,8,2:0:0:0:
320,192,32091,1,2,2:0:0:0:
64,192,32175,1,8,2:0:0:0:
448,192,32175,1,2,2:0:0:0:
192,192,32258,1,2,2:0:0:0:
448,192,32341,128,0,32675:0:0:0:0:
320,192,32341,128,2,32675:2:0:0:0:
64,192,32675,1,8,2:0:0:0:
192,192,32675,1,0,3:0:0:0:
448,192,32841,1,0,0:0:0:0:
64,192,32841,1,0,3:0:0:0:
192,192,32925,1,0,3:0:0:0:
320,192,33008,1,0,3:0:0:0:
192,192,33091,1,0,3:0:0:0:
64,192,33175,1,0,3:0:0:0:
192,192,33258,1,0,3:0:0:0:
320,192,33341,1,0,0:0:0:0:
448,192,33341,1,8,2:0:0:0:
448,192,33508,1,0,3:0:0:0:
192,192,33508,1,0,0:0:0:0:
320,192,33591,1,0,3:0:0:0:
192,192,33675,1,0,3:0:0:0:
64,192,33675,1,0,0:0:0:0:
448,192,33758,1,0,3:0:0:0:
320,192,33841,1,0,3:0:0:0:
192,192,33925,1,0,3:0:0:0:
448,192,34008,1,8,2:0:0:0:
64,192,34008,1,0,0:0:0:0:
448,192,34175,1,0,3:0:0:0:
320,192,34258,1,0,3:0:0:0:
192,192,34341,1,0,3:0:0:0:
448,192,34425,1,0,3:0:0:0:
64,192,34508,1,0,0:0:0:0:
192,192,34508,1,8,2:0:0:0:
448,192,34591,1,0,3:0:0:0:
64,192,34675,1,0,0:0:0:0:
192,192,34675,1,8,2:0:0:0:
320,192,34758,1,0,3:0:0:0:
192,192,34841,1,0,3:0:0:0:
448,192,34925,1,0,3:0:0:0:
320,192,35008,1,0,3:0:0:0:
64,192,35008,1,0,0:0:0:0:
192,192,35091,1,0,3:0:0:0:
64,192,35175,1,0,3:0:0:0:
192,192,35258,1,0,3:0:0:0:
448,192,35341,1,8,2:0:0:0:
320,192,35341,1,0,0:0:0:0:
192,192,35508,1,0,3:0:0:0:
64,192,35591,1,0,3:0:0:0:
192,192,35675,1,0,3:0:0:0:
320,192,35758,1,0,3:0:0:0:
448,192,35841,1,0,3:0:0:0:
64,192,35925,1,0,3:0:0:0:
320,192,36008,1,8,2:0:0:0:
448,192,36008,1,0,0:0:0:0:
64,192,36175,1,0,3:0:0:0:
192,192,36258,1,0,3:0:0:0:
320,192,36341,1,0,3:0:0:0:
448,192,36341,1,0,0:0:0:0:
64,192,36425,1,0,3:0:0:0:
320,192,36508,1,0,3:0:0:0:
64,192,36591,1,0,3:0:0:0:
448,192,36675,1,8,2:0:0:0:
192,192,36675,1,0,0:0:0:0:
320,192,36841,1,0,3:0:0:0:
192,192,36925,1,0,3:0:0:0:
64,192,37008,1,0,3:0:0:0:
192,192,37091,1,0,3:0:0:0:
448,192,37175,1,8,2:0:0:0:
320,192,37175,1,0,0:0:0:0:
64,192,37258,1,0,3:0:0:0:
448,192,37341,1,8,2:0:0:0:
320,192,37341,1,0,0:0:0:0:
64,192,37425,1,0,3:0:0:0:
192,192,37508,1,0,3:0:0:0:
448,192,37591,1,0,3:0:0:0:
320,192,37675,1,0,3:0:0:0:
192,192,37675,1,0,0:0:0:0:
64,192,37758,1,0,3:0:0:0:
192,192,37841,1,0,3:0:0:0:
320,192,37925,1,0,3:0:0:0:
448,192,38008,1,8,2:0:0:0:
192,192,38008,1,0,0:0:0:0:
448,192,38175,1,0,3:0:0:0:
320,192,38258,1,0,3:0:0:0:
192,192,38341,1,0,3:0:0:0:
64,192,38425,1,0,3:0:0:0:
192,192,38508,1,0,3:0:0:0:
448,192,38508,1,0,0:0:0:0:
320,192,38591,1,0,3:0:0:0:
64,192,38675,1,0,0:0:0:0:
192,192,38675,1,8,2:0:0:0:
64,192,38841,1,0,3:0:0:0:
192,192,38925,1,0,3:0:0:0:
320,192,39008,1,0,3:0:0:0:
448,192,39008,1,0,0:0:0:0:
192,192,39091,1,0,3:0:0:0:
448,192,39175,1,0,3:0:0:0:
320,192,39258,1,0,3:0:0:0:
64,192,39341,1,0,0:0:0:0:
192,192,39341,1,8,0:0:0:0:
192,192,39508,1,0,3:0:0:0:
320,192,39591,1,0,3:0:0:0:
448,192,39675,1,0,3:0:0:0:
320,192,39758,1,0,3:0:0:0:
64,192,39841,1,0,0:0:0:0:
192,192,39841,1,8,2:0:0:0:
448,192,39925,1,0,3:0:0:0:
192,192,40008,1,8,2:0:0:0:
64,192,40008,1,0,0:0:0:0:
320,192,40091,1,0,3:0:0:0:
192,192,40175,1,8,2:0:0:0:
64,192,40175,1,0,0:0:0:0:
448,192,40258,1,0,3:0:0:0:
320,192,40258,1,0,0:0:0:0:
192,192,40341,1,8,2:0:0:0:
64,192,40341,1,0,0:0:0:0:
448,192,40675,1,0,0:0:0:0:
320,192,40675,1,8,2:0:0:0:
64,192,41008,1,0,0:0:0:0:
192,192,41008,1,8,2:0:0:0:
448,192,41175,1,0,0:0:0:0:
320,192,41175,1,8,2:0:0:0:
448,192,41508,1,0,0:0:0:0:
320,192,41508,1,8,2:0:0:0:
320,192,41675,1,8,0:0:0:0:
192,192,41675,1,0,0:0:0:0:
64,192,41841,5,0,0:0:0:0:
448,192,41841,1,8,0:0:0:0:
448,192,42008,1,8,0:0:0:0:
192,192,42008,1,0,0:0:0:0:
64,192,42175,1,0,0:0:0:0:
320,192,42175,1,8,0:0:0:0:
448,192,42341,1,8,0:0:0:0:
320,192,42341,1,0,0:0:0:0:
192,192,42341,1,0,0:0:0:0:
64,192,42508,1,8,0:0:0:0:
192,192,42508,1,0,0:0:0:0:
320,192,42508,1,0,0:0:0:0:
448,192,42675,1,2,3:0:0:0:
320,192,42675,1,8,2:0:0:0:
192,192,42675,1,8,0:0:0:0:
64,192,42841,1,2,3:0:0:0:
192,192,42841,1,8,0:0:0:0:
320,192,42841,1,8,2:0:0:0:
448,192,43008,5,6,2:0:0:0:
64,192,43008,128,0,43175:3:0:0:0:
192,192,43175,1,2,2:0:0:0:
192,192,43341,1,2,2:0:0:0:
320,192,43508,128,0,43675:3:0:0:0:
64,192,43508,1,2,2:0:0:0:
192,192,43675,1,2,2:0:0:0:
192,192,43841,1,2,2:0:0:0:
448,192,44008,128,0,44175:3:0:0:0:
320,192,44008,1,2,2:0:0:0:
192,192,44175,1,2,2:0:0:0:
64,192,44341,1,2,2:0:0:0:
320,192,44508,128,0,44675:3:0:0:0:
448,192,44508,1,2,2:0:0:0:
192,192,44675,1,2,2:0:0:0:
320,192,44841,1,2,2:0:0:0:
64,192,45008,128,0,45175:3:0:0:0:
448,192,45008,1,2,2:0:0:0:
448,192,45175,1,2,2:0:0:0:
64,192,45341,128,0,45508:3:0:0:0:
320,192,45341,1,2,2:0:0:0:
192,192,45508,128,0,45675:3:0:0:0:
448,192,45508,1,2,2:0:0:0:
64,192,45675,1,2,2:0:0:0:
192,192,45841,1,2,2:0:0:0:
448,192,46008,128,0,46175:3:0:0:0:
192,192,46008,1,2,2:0:0:0:
448,192,46341,1,2,2:0:0:0:
320,192,46508,128,0,46675:3:0:0:0:
448,192,46508,1,2,2:0:0:0:
64,192,46675,1,2,2:0:0:0:
320,192,46841,1,2,2:0:0:0:
192,192,47008,128,0,47175:3:0:0:0:
448,192,47008,1,2,2:0:0:0:
64,192,47175,1,2,2:0:0:0:
320,192,47341,1,2,2:0:0:0:
448,192,47508,128,0,47675:3:0:0:0:
192,192,47508,1,2,2:0:0:0:
64,192,47675,128,0,47841:3:0:0:0:
320,192,47675,1,2,2:0:0:0:
320,192,47841,1,2,2:0:0:0:
192,192,48008,128,0,48175:3:0:0:0:
64,192,48008,1,2,2:0:0:0:
320,192,48175,1,2,2:0:0:0:
448,192,48341,1,2,2:0:0:0:
320,192,48508,128,0,48675:3:0:0:0:
192,192,48508,1,2,2:0:0:0:
192,192,48675,1,2,2:0:0:0:
64,192,48841,128,0,49008:3:0:0:0:
192,192,49008,128,0,49175:3:0:0:0:
320,192,49008,1,2,2:0:0:0:
320,192,49175,1,2,2:0:0:0:
192,192,49341,1,2,2:0:0:0:
320,192,49508,128,0,49675:3:0:0:0:
64,192,49508,1,2,2:0:0:0:
192,192,49675,1,2,2:0:0:0:
448,192,49841,1,2,2:0:0:0:
192,192,50008,128,0,50175:3:0:0:0:
320,192,50008,1,2,2:0:0:0:
448,192,50175,1,2,2:0:0:0:
192,192,50341,1,2,2:0:0:0:
64,192,50508,128,0,50675:3:0:0:0:
192,192,50508,1,0,0:0:0:0:
320,192,50675,128,0,50841:3:0:0:0:
448,192,50675,1,2,2:0:0:0:
64,192,50841,1,2,2:0:0:0:
192,192,51008,128,0,51175:3:0:0:0:
448,192,51008,1,2,2:0:0:0:
320,192,51175,1,2,2:0:0:0:
320,192,51341,1,2,2:0:0:0:
448,192,51508,128,0,51675:3:0:0:0:
192,192,51508,1,0,0:0:0:0:
64,192,51675,1,2,2:0:0:0:
64,192,51841,1,2,2:0:0:0:
320,192,52008,128,0,52175:3:0:0:0:
448,192,52008,1,2,2:0:0:0:
192,192,52175,1,2,2:0:0:0:
448,192,52341,1,2,2:0:0:0:
64,192,52508,128,0,52675:3:0:0:0:
320,192,52508,1,2,2:0:0:0:
192,192,52675,1,2,2:0:0:0:
448,192,52841,1,2,2:0:0:0:
320,192,52841,1,0,3:0:0:0:
64,192,52925,1,0,0:0:0:0:
320,192,53008,1,0,3:0:0:0:
192,192,53008,1,2,2:0:0:0:
448,192,53091,1,0,0:0:0:0:
64,192,53175,1,2,2:0:0:0:
192,192,53175,1,0,3:0:0:0:
64,192,53341,1,0,3:0:0:0:
320,192,53341,1,0,0:0:0:0:
192,192,53508,1,0,3:0:0:0:
448,192,53508,1,0,0:0:0:0:
448,192,53675,1,4,2:0:0:0:
320,192,53675,1,2,2:0:0:0:
64,192,53675,1,2,3:0:0:0:
192,192,53841,128,0,54008:3:0:0:0:
320,192,53841,1,2,2:0:0:0:
320,192,54008,1,2,2:0:0:0:
64,192,54175,128,0,54341:3:0:0:0:
320,192,54341,128,0,54508:3:0:0:0:
448,192,54341,1,2,2:0:0:0:
448,192,54508,1,2,2:0:0:0:
320,192,54675,1,2,2:0:0:0:
64,192,54841,128,0,55008:3:0:0:0:
448,192,54841,1,2,2:0:0:0:
320,192,55008,1,2,2:0:0:0:
192,192,55175,1,2,2:0:0:0:
192,192,55341,128,0,55508:3:0:0:0:
64,192,55341,1,2,2:0:0:0:
320,192,55508,1,2,2:0:0:0:
192,192,55675,1,2,2:0:0:0:
448,192,55841,128,0,56008:3:0:0:0:
192,192,55841,1,2,2:0:0:0:
64,192,56008,128,0,56175:3:0:0:0:
320,192,56008,1,0,0:0:0:0:
192,192,56175,1,2,2:0:0:0:
448,192,56341,128,0,56508:3:0:0:0:
320,192,56341,1,2,2:0:0:0:
64,192,56508,1,2,2:0:0:0:
64,192,56675,1,2,2:0:0:0:
320,192,56841,128,0,57008:3:0:0:0:
448,192,57008,1,2,2:0:0:0:
448,192,57175,1,2,2:0:0:0:
64,192,57341,128,0,57508:3:0:0:0:
320,192,57341,1,2,2:0:0:0:
192,192,57508,1,2,2:0:0:0:
64,192,57675,1,2,2:0:0:0:
192,192,57841,128,0,58008:3:0:0:0:
320,192,57841,1,2,2:0:0:0:
448,192,58008,1,2,2:0:0:0:
320,192,58175,128,0,58341:3:0:0:0:
192,192,58175,1,2,2:0:0:0:
448,192,58341,128,0,58508:3:0:0:0:
64,192,58341,1,2,2:0:0:0:
64,192,58508,1,2,2:0:0:0:
192,192,58675,128,0,58841:3:0:0:0:
448,192,58675,1,2,2:0:0:0:
320,192,58841,1,2,2:0:0:0:
64,192,59008,1,2,2:0:0:0:
448,192,59175,128,0,59341:3:0:0:0:
320,192,59175,1,2,2:0:0:0:
320,192,59341,1,2,2:0:0:0:
64,192,59508,128,0,59675:3:0:0:0:
192,192,59675,128,0,59841:3:0:0:0:
448,192,59675,1,2,2:0:0:0:
448,192,59841,1,2,2:0:0:0:
64,192,60008,1,2,2:0:0:0:
320,192,60175,128,0,60341:3:0:0:0:
192,192,60175,1,2,2:0:0:0:
64,192,60341,1,2,2:0:0:0:
192,192,60508,1,2,2:0:0:0:
448,192,60675,128,0,60841:3:0:0:0:
320,192,60675,1,2,2:0:0:0:
192,192,60841,1,2,2:0:0:0:
64,192,61008,1,2,2:0:0:0:
192,192,61175,128,0,61341:3:0:0:0:
64,192,61175,1,2,2:0:0:0:
448,192,61341,1,2,2:0:0:0:
320,192,61341,128,0,61508:3:0:0:0:
192,192,61508,128,0,61675:3:0:0:0:
64,192,61508,1,2,2:0:0:0:
448,192,61675,128,0,61841:3:0:0:0:
320,192,61675,1,2,2:0:0:0:
64,192,61841,128,0,62091:3:0:0:0:
192,192,61841,1,2,2:0:0:0:
320,192,62175,128,0,62341:3:0:0:0:
448,192,62175,1,2,2:0:0:0:
64,192,62341,128,0,62591:3:0:0:0:
320,192,62675,128,0,62841:3:0:0:0:
64,192,62675,1,2,2:0:0:0:
192,192,62841,128,0,63008:3:0:0:0:
448,192,62841,1,2,2:0:0:0:
320,192,63008,1,2,2:0:0:0:
320,192,63341,128,0,63508:3:0:0:0:
64,192,63508,128,0,63675:3:0:0:0:
320,192,63841,128,0,64008:3:0:0:0:
64,192,64008,128,0,64175:3:0:0:0:
320,192,64175,128,0,64341:3:0:0:0:
448,192,64341,5,0,0:0:0:0:
192,192,64341,128,0,64841:3:0:0:0:
64,192,64341,1,0,0:0:0:0:
320,192,64508,1,2,2:0:0:0:
320,192,64675,1,2,2:0:0:0:
320,192,64841,128,0,65341:3:0:0:0:
64,192,64841,1,2,2:0:0:0:
192,192,65008,1,2,2:0:0:0:
192,192,65175,1,2,2:0:0:0:
448,192,65341,128,0,65841:3:0:0:0:
64,192,65341,1,2,2:0:0:0:
192,192,65508,1,2,2:0:0:0:
320,192,65675,1,2,2:0:0:0:
64,192,65841,128,0,66341:3:0:0:0:
192,192,65841,1,2,2:0:0:0:
448,192,66008,1,2,2:0:0:0:
320,192,66175,1,2,2:0:0:0:
192,192,66341,128,0,66675:3:0:0:0:
448,192,66341,1,2,2:0:0:0:
448,192,66508,1,2,2:0:0:0:
320,192,66675,128,0,67008:3:0:0:0:
64,192,66675,1,2,2:0:0:0:
192,192,66841,1,2,2:0:0:0:
64,192,67008,128,0,67508:3:0:0:0:
448,192,67008,1,2,2:0:0:0:
192,192,67175,1,2,2:0:0:0:
192,192,67341,1,2,2:0:0:0:
192,192,67508,128,0,67675:3:0:0:0:
448,192,67508,1,2,2:0:0:0:
448,192,67675,128,0,68008:3:0:0:0:
320,192,67675,1,2,2:0:0:0:
320,192,67841,1,2,2:0:0:0:
192,192,68008,128,0,68508:3:0:0:0:
64,192,68008,1,2,2:0:0:0:
448,192,68175,1,2,2:0:0:0:
64,192,68341,1,2,2:0:0:0:
320,192,68508,128,0,69008:3:0:0:0:
448,192,68508,1,2,2:0:0:0:
192,192,68675,1,2,2:0:0:0:
64,192,68841,1,2,2:0:0:0:
448,192,69008,128,0,69341:3:0:0:0:
192,192,69008,1,2,2:0:0:0:
192,192,69175,1,2,2:0:0:0:
320,192,69341,128,0,69841:3:0:0:0:
64,192,69341,1,2,2:0:0:0:
192,192,69508,1,2,2:0:0:0:
64,192,69675,1,2,2:0:0:0:
64,192,69841,128,0,70008:3:0:0:0:
448,192,69841,1,2,2:0:0:0:
192,192,70008,128,0,70341:3:0:0:0:
448,192,70008,1,2,2:0:0:0:
320,192,70175,1,2,2:0:0:0:
64,192,70341,128,0,70675:3:0:0:0:
448,192,70341,1,2,2:0:0:0:
448,192,70508,1,2,2:0:0:0:
192,192,70675,128,0,70841:3:0:0:0:
320,192,70675,1,2,2:0:0:0:
448,192,70841,128,0,71175:3:0:0:0:
64,192,70841,1,2,2:0:0:0:
320,192,71008,1,2,2:0:0:0:
320,192,71175,128,0,71341:3:0:0:0:
192,192,71175,1,2,2:0:0:0:
64,192,71341,128,0,71508:3:0:0:0:
448,192,71341,1,2,2:0:0:0:
192,192,71508,128,0,71675:3:0:0:0:
320,192,71508,1,2,2:0:0:0:
320,192,71675,128,0,72008:3:0:0:0:
64,192,71675,1,2,2:0:0:0:
64,192,71841,1,2,2:0:0:0:
192,192,72008,128,0,72341:3:0:0:0:
448,192,72008,1,2,2:0:0:0:
320,192,72175,1,2,2:0:0:0:
320,192,72341,128,0,72841:3:0:0:0:
64,192,72341,1,2,2:0:0:0:
192,192,72508,1,2,2:0:0:0:
192,192,72675,1,2,2:0:0:0:
64,192,72841,128,0,73008:3:0:0:0:
448,192,72841,1,2,2:0:0:0:
192,192,73008,128,0,73341:3:0:0:0:
320,192,73008,1,2,2:0:0:0:
320,192,73175,1,2,2:0:0:0:
320,192,73341,128,0,73508:3:0:0:0:
64,192,73341,1,2,2:0:0:0:
448,192,73508,128,0,73841:3:0:0:0:
192,192,73508,1,2,2:0:0:0:
320,192,73675,1,2,2:0:0:0:
192,192,73841,128,0,74008:3:0:0:0:
64,192,73841,1,2,2:0:0:0:
320,192,74008,128,0,74175:3:0:0:0:
448,192,74008,1,2,2:0:0:0:
192,192,74175,128,0,74341:3:0:0:0:
64,192,74175,1,2,2:0:0:0:
448,192,74341,128,0,74675:3:0:0:0:
64,192,74341,1,2,2:0:0:0:
64,192,74508,1,8,2:0:0:0:
192,192,74508,1,2,3:0:0:0:
192,192,74675,1,8,2:0:0:0:
320,192,74675,1,2,3:0:0:0:
320,192,74841,1,8,2:0:0:0:
448,192,74841,1,2,3:0:0:0:
64,192,74841,1,0,0:0:0:0:
448,192,75008,1,12,2:0:0:0:
64,192,75008,1,2,2:0:0:0:
192,192,75008,128,0,75508:3:0:0:0:
320,192,75175,1,2,2:0:0:0:
320,192,75341,1,2,2:0:0:0:
448,192,75508,128,0,76008:3:0:0:0:
64,192,75508,1,2,2:0:0:0:
192,192,75675,1,2,2:0:0:0:
192,192,75841,1,2,2:0:0:0:
320,192,76008,128,0,76508:3:0:0:0:
64,192,76008,1,2,2:0:0:0:
192,192,76175,1,2,2:0:0:0:
448,192,76341,1,2,2:0:0:0:
64,192,76508,128,0,77008:3:0:0:0:
192,192,76508,1,2,2:0:0:0:
320,192,76675,1,2,2:0:0:0:
448,192,76841,1,2,2:0:0:0:
192,192,77008,128,0,77341:3:0:0:0:
320,192,77008,1,2,2:0:0:0:
320,192,77175,1,2,2:0:0:0:
448,192,77341,128,0,77675:3:0:0:0:
64,192,77341,1,2,2:0:0:0:
192,192,77508,1,2,2:0:0:0:
64,192,77675,128,0,78175:3:0:0:0:
320,192,77675,1,2,2:0:0:0:
448,192,77841,1,2,2:0:0:0:
448,192,78008,1,2,2:0:0:0:
192,192,78175,128,0,78341:3:0:0:0:
320,192,78175,1,2,2:0:0:0:
320,192,78341,128,0,78675:3:0:0:0:
448,192,78341,1,2,2:0:0:0:
448,192,78508,1,2,2:0:0:0:
192,192,78675,128,0,79175:3:0:0:0:
64,192,78675,1,2,2:0:0:0:
320,192,78841,1,2,2:0:0:0:
448,192,79008,1,2,2:0:0:0:
64,192,79175,128,0,79341:3:0:0:0:
320,192,79175,1,2,2:0:0:0:
192,192,79341,128,0,79508:3:0:0:0:
448,192,79341,1,2,2:0:0:0:
320,192,79508,128,0,79675:3:0:0:0:
64,192,79508,1,2,2:0:0:0:
192,192,79675,128,0,79841:3:0:0:0:
448,192,79675,1,2,2:0:0:0:
64,192,79841,128,0,80008:3:0:0:0:
448,192,79841,1,2,2:0:0:0:
320,192,80008,128,0,80508:3:0:0:0:
192,192,80008,1,2,2:0:0:0:
64,192,80175,1,2,2:0:0:0:
192,192,80341,1,2,2:0:0:0:
64,192,80508,128,0,80675:3:0:0:0:
448,192,80508,1,2,2:0:0:0:
192,192,80675,128,0,81008:3:0:0:0:
448,192,80675,1,2,2:0:0:0:
320,192,80841,1,2,2:0:0:0:
320,192,81008,128,0,81341:3:0:0:0:
64,192,81008,1,2,2:0:0:0:
64,192,81175,1,2,2:0:0:0:
192,192,81341,128,0,81508:3:0:0:0:
448,192,81341,1,2,2:0:0:0:
448,192,81508,128,0,82008:3:0:0:0:
64,192,81508,1,2,2:0:0:0:
320,192,81675,1,2,2:0:0:0:
192,192,81841,1,2,2:0:0:0:
64,192,82008,128,0,82175:3:0:0:0:
320,192,82008,1,2,2:0:0:0:
192,192,82175,128,0,82341:3:0:0:0:
448,192,82175,1,2,2:0:0:0:
320,192,82341,128,0,82675:3:0:0:0:
64,192,82341,1,2,2:0:0:0:
64,192,82508,1,2,2:0:0:0:
192,192,82675,128,0,83008:3:0:0:0:
448,192,82675,1,2,2:0:0:0:
320,192,82841,1,2,2:0:0:0:
64,192,83008,128,0,83341:3:0:0:0:
448,192,83008,1,2,2:0:0:0:
320,192,83175,1,2,2:0:0:0:
192,192,83341,128,0,83508:3:0:0:0:
320,192,83341,1,2,2:0:0:0:
320,192,83508,128,0,83841:3:0:0:0:
64,192,83508,1,2,2:0:0:0:
192,192,83675,1,2,2:0:0:0:
64,192,83841,128,0,84008:3:0:0:0:
192,192,83841,1,2,2:0:0:0:
192,192,84008,128,0,84175:3:0:0:0:
320,192,84008,1,2,2:0:0:0:
320,192,84175,128,0,84341:3:0:0:0:
448,192,84175,1,2,2:0:0:0:
448,192,84341,128,0,85675:3:0:0:0:
64,192,84341,1,2,2:0:0:0:
64,192,84508,5,2,2:0:0:0:
64,192,84675,1,2,2:0:0:0:
64,192,84841,1,2,2:0:0:0:
64,192,85008,1,2,2:0:0:0:
64,192,85175,1,2,2:0:0:0:
64,192,85341,1,2,2:0:0:0:
320,192,85341,1,8,2:0:0:0:
64,192,85508,1,2,2:0:0:0:
64,192,85675,128,2,85841:3:0:0:0:
192,192,85841,128,2,86008:3:0:0:0:
320,192,86008,128,2,86175:3:0:0:0:
64,192,86175,128,2,86341:3:0:0:0:
192,192,86341,128,2,86508:3:0:0:0:
448,192,86508,128,2,86675:3:0:0:0:
64,192,86675,128,2,86841:3:0:0:0:
320,192,86841,128,2,87008:3:0:0:0:
448,192,87008,128,2,87175:3:0:0:0:
64,192,87175,128,2,87341:3:0:0:0:
448,192,87341,128,2,87508:3:0:0:0:
320,192,87508,128,2,87675:3:0:0:0:
64,192,87675,128,2,87841:3:0:0:0:
192,192,87841,128,2,87925:3:0:0:0:
320,192,87925,128,2,88008:3:0:0:0:
448,192,88008,128,2,88175:3:0:0:0:
192,192,88175,128,2,88341:3:0:0:0:
320,192,88341,128,2,88508:3:0:0:0:
448,192,88508,128,2,88675:3:0:0:0:
64,192,88675,128,2,88841:3:0:0:0:
320,192,88841,128,2,89008:3:0:0:0:
192,192,89008,128,2,89175:3:0:0:0:
448,192,89175,128,2,89341:3:0:0:0:
320,192,89341,128,2,89508:3:0:0:0:
192,192,89508,128,2,89675:3:0:0:0:
64,192,89675,128,2,89841:3:0:0:0:
448,192,89841,128,2,90008:3:0:0:0:
192,192,90008,128,2,90175:3:0:0:0:
320,192,90175,128,2,90341:3:0:0:0:
64,192,90341,128,2,90508:3:0:0:0:
192,192,90508,128,2,90675:3:0:0:0:
64,192,90675,128,2,90841:3:0:0:0:
192,192,90841,128,2,90925:3:0:0:0:
320,192,90925,128,2,91008:3:0:0:0:
448,192,91008,128,2,91175:3:0:0:0:
64,192,91175,128,2,91341:3:0:0:0:
448,192,91341,128,2,91508:3:0:0:0:
320,192,91508,128,2,91675:3:0:0:0:
192,192,91675,128,2,91841:3:0:0:0:
320,192,91841,128,2,92008:3:0:0:0:
64,192,92008,128,2,92175:3:0:0:0:
448,192,92175,128,2,92341:3:0:0:0:
320,192,92341,128,2,92425:3:0:0:0:
64,192,92425,128,2,92508:3:0:0:0:
192,192,92508,128,2,92675:3:0:0:0:
320,192,92675,128,2,92841:3:0:0:0:
192,192,92841,128,2,93008:3:0:0:0:
64,192,93008,128,2,93175:3:0:0:0:
448,192,93175,128,2,93341:3:0:0:0:
320,192,93341,128,2,93508:3:0:0:0:
64,192,93508,128,2,93675:3:0:0:0:
448,192,93675,128,2,93841:3:0:0:0:
320,192,93841,128,2,94008:3:0:0:0:
192,192,94008,128,2,94175:3:0:0:0:
320,192,94175,128,2,94341:3:0:0:0:
64,192,94341,128,2,94508:3:0:0:0:
192,192,94508,128,2,94675:3:0:0:0:
320,192,94675,128,2,94841:3:0:0:0:
64,192,94841,128,2,95008:3:0:0:0:
192,192,95008,128,2,95175:3:0:0:0:
320,192,95175,128,2,95341:3:0:0:0:
448,192,95341,128,2,95508:3:0:0:0:
64,192,95508,128,2,95591:3:0:0:0:
192,192,95591,128,2,95675:3:0:0:0:
320,192,95675,128,2,95841:3:0:0:0:
448,192,95841,128,2,96008:3:0:0:0:
64,192,96008,128,2,96175:3:0:0:0:
192,192,96175,128,2,96341:3:0:0:0:
320,192,96341,128,2,96425:3:0:0:0:
448,192,96425,128,2,96508:3:0:0:0:
192,192,96508,128,2,96675:3:0:0:0:
64,192,96675,128,2,96758:3:0:0:0:
320,192,96758,128,2,96841:3:0:0:0:
192,192,96841,128,2,97008:3:0:0:0:
64,192,97008,128,2,97091:3:0:0:0:
320,192,97091,128,2,97175:3:0:0:0:
192,192,97175,128,2,97341:3:0:0:0:
448,192,97341,128,2,97508:3:0:0:0:
192,192,97508,128,2,97675:3:0:0:0:
320,192,97675,128,2,97841:3:0:0:0:
448,192,97841,128,2,98008:3:0:0:0:
64,192,98008,128,2,98175:3:0:0:0:
192,192,98175,128,2,98258:3:0:0:0:
320,192,98258,128,2,98341:3:0:0:0:
64,192,98341,128,2,98508:3:0:0:0:
192,192,98508,128,2,98675:3:0:0:0:
320,192,98675,128,2,98841:3:0:0:0:
448,192,98841,128,2,99008:3:0:0:0:
64,192,99008,128,2,99175:3:0:0:0:
192,192,99175,128,2,99341:3:0:0:0:
448,192,99341,128,2,99508:3:0:0:0:
64,192,99508,128,2,99675:3:0:0:0:
320,192,99675,128,2,99841:3:0:0:0:
448,192,99841,128,2,100008:3:0:0:0:
64,192,100008,128,2,100175:3:0:0:0:
192,192,100175,128,2,100258:3:0:0:0:
320,192,100258,128,2,100341:3:0:0:0:
448,192,100341,128,2,100508:3:0:0:0:
64,192,100508,128,2,100675:3:0:0:0:
192,192,100675,128,2,100841:3:0:0:0:
64,192,100841,128,2,100925:3:0:0:0:
320,192,100925,128,2,101008:3:0:0:0:
448,192,101008,128,2,101175:3:0:0:0:
320,192,101175,128,2,101258:3:0:0:0:
192,192,101258,128,2,101341:3:0:0:0:
320,192,101341,128,2,101508:3:0:0:0:
64,192,101508,128,2,101675:3:0:0:0:
320,192,101675,1,4,3:0:0:0:
448,192,101675,128,2,101841:3:0:0:0:
192,192,101841,128,2,102008:3:0:0:0:
320,192,102008,128,2,102175:3:0:0:0:
64,192,102008,1,4,3:0:0:0:
64,192,102175,128,2,102341:3:0:0:0:
448,192,102341,128,2,102508:3:0:0:0:
192,192,102341,1,4,3:0:0:0:
192,192,102508,128,2,102675:3:0:0:0:
320,192,102675,128,2,102841:3:0:0:0:
448,192,102675,1,4,3:0:0:0:
64,192,102841,128,2,102925:3:0:0:0:
192,192,102925,128,2,103008:3:0:0:0:
320,192,103008,128,2,103175:3:0:0:0:
448,192,103008,1,4,3:0:0:0:
64,192,103175,128,2,103341:3:0:0:0:
192,192,103341,128,2,103508:3:0:0:0:
320,192,103341,1,4,3:0:0:0:
320,192,103508,128,2,103675:3:0:0:0:
64,192,103675,128,2,103841:3:0:0:0:
192,192,103675,1,4,3:0:0:0:
448,192,103841,128,2,104008:3:0:0:0:
64,192,104008,128,2,104091:3:0:0:0:
320,192,104008,1,4,3:0:0:0:
192,192,104091,128,2,104175:3:0:0:0:
320,192,104175,128,2,104341:3:0:0:0:
448,192,104341,128,2,104508:3:0:0:0:
64,192,104341,1,4,3:0:0:0:
192,192,104508,128,2,104675:3:0:0:0:
320,192,104675,128,2,104841:3:0:0:0:
64,192,104675,1,4,3:0:0:0:
448,192,104841,128,2,105008:3:0:0:0:
64,192,105008,128,2,105175:3:0:0:0:
320,192,105008,1,4,3:0:0:0:
192,192,105175,128,2,105341:3:0:0:0:
320,192,105341,128,2,105508:3:0:0:0:
64,192,105341,1,4,3:0:0:0:
448,192,105508,128,2,105591:3:0:0:0:
64,192,105591,128,2,105675:3:0:0:0:
192,192,105675,128,2,105841:3:0:0:0:
320,192,105675,1,4,3:0:0:0:
320,192,105841,128,2,106008:3:0:0:0:
64,192,105841,1,4,3:0:0:0:
64,192,106008,128,2,106175:3:0:0:0:
192,192,106008,1,4,3:0:0:0:
192,192,106175,128,2,106341:3:0:0:0:
448,192,106258,1,4,3:0:0:0:
320,192,106341,128,2,106508:3:0:0:0:
64,192,106341,1,4,3:0:0:0:
448,192,106508,128,2,106675:3:0:0:0:
64,192,106508,1,4,3:0:0:0:
320,192,106675,128,2,106758:3:0:0:0:
64,192,106675,1,4,3:0:0:0:
192,192,106758,128,2,106841:3:0:0:0:
320,192,106841,128,2,106925:3:0:0:0:
192,192,106925,128,2,107008:3:0:0:0:
448,192,107008,5,4,2:0:0:0:
64,192,107008,1,2,2:0:0:0:
320,192,107175,1,0,0:0:0:0:
192,192,107175,1,0,0:0:0:0:
64,192,107341,1,10,2:0:0:0:
448,192,107508,1,2,2:0:0:0:
320,192,107591,1,2,2:0:0:0:
192,192,107675,1,2,2:0:0:0:
64,192,107675,1,0,0:0:0:0:
64,192,107841,1,2,2:0:0:0:
192,192,107925,1,2,2:0:0:0:
448,192,108008,1,10,2:0:0:0:
320,192,108008,1,2,2:0:0:0:
320,192,108175,1,2,2:0:0:0:
192,192,108175,1,0,0:0:0:0:
64,192,108341,1,0,0:0:0:0:
192,192,108341,1,2,2:0:0:0:
448,192,108508,1,2,2:0:0:0:
320,192,108508,1,0,0:0:0:0:
64,192,108675,1,2,2:0:0:0:
192,192,108675,1,10,2:0:0:0:
320,192,108841,1,2,2:0:0:0:
192,192,108925,1,2,2:0:0:0:
448,192,109008,1,2,2:0:0:0:
64,192,109008,1,0,0:0:0:0:
320,192,109175,1,2,2:0:0:0:
448,192,109258,1,2,2:0:0:0:
192,192,109341,1,10,2:0:0:0:
64,192,109341,1,2,2:0:0:0:
448,192,109508,1,2,2:0:0:0:
192,192,109508,1,0,0:0:0:0:
448,192,109675,1,2,2:0:0:0:
64,192,109675,1,0,0:0:0:0:
320,192,109841,1,2,2:0:0:0:
64,192,109841,1,0,0:0:0:0:
192,192,110008,1,10,2:0:0:0:
64,192,110008,1,2,2:0:0:0:
448,192,110175,1,0,0:0:0:0:
192,192,110175,1,2,2:0:0:0:
448,192,110341,1,0,0:0:0:0:
64,192,110341,1,2,2:0:0:0:
192,192,110508,1,2,2:0:0:0:
320,192,110591,1,2,2:0:0:0:
448,192,110675,1,10,2:0:0:0:
64,192,110675,1,2,2:0:0:0:
320,192,110841,1,0,0:0:0:0:
192,192,110841,1,2,2:0:0:0:
64,192,111008,1,2,2:0:0:0:
192,192,111008,1,0,0:0:0:0:
64,192,111175,1,2,2:0:0:0:
192,192,111175,1,0,0:0:0:0:
448,192,111341,1,10,2:0:0:0:
192,192,111341,1,2,2:0:0:0:
64,192,111508,1,0,0:0:0:0:
320,192,111508,1,2,2:0:0:0:
64,192,111675,1,0,0:0:0:0:
192,192,111675,1,2,2:0:0:0:
192,192,111841,1,2,2:0:0:0:
64,192,111925,1,2,2:0:0:0:
448,192,112008,128,2,112133:2:0:0:0:
320,192,112008,1,10,2:0:0:0:
448,192,112175,128,2,112300:2:0:0:0:
320,192,112175,1,0,0:0:0:0:
64,192,112341,1,2,2:0:0:0:
192,192,112425,1,2,2:0:0:0:
448,192,112508,1,2,2:0:0:0:
320,192,112508,1,0,0:0:0:0:
320,192,112675,1,10,2:0:0:0:
192,192,112675,1,2,2:0:0:0:
64,192,112841,1,2,2:0:0:0:
192,192,112841,1,0,0:0:0:0:
448,192,113008,1,2,2:0:0:0:
320,192,113008,1,0,0:0:0:0:
448,192,113175,1,2,2:0:0:0:
320,192,113258,1,2,2:0:0:0:
64,192,113341,1,2,2:0:0:0:
192,192,113341,1,10,2:0:0:0:
448,192,113508,1,2,2:0:0:0:
64,192,113508,1,0,0:0:0:0:
320,192,113675,1,2,2:0:0:0:
192,192,113675,1,0,0:0:0:0:
448,192,113841,1,2,2:0:0:0:
320,192,113925,1,2,2:0:0:0:
64,192,114008,1,10,2:0:0:0:
192,192,114008,1,2,2:0:0:0:
320,192,114091,1,2,2:0:0:0:
448,192,114175,1,2,2:0:0:0:
192,192,114175,1,0,0:0:0:0:
64,192,114341,1,2,2:0:0:0:
192,192,114341,1,0,0:0:0:0:
448,192,114508,1,2,2:0:0:0:
320,192,114508,1,0,0:0:0:0:
64,192,114675,1,10,2:0:0:0:
192,192,114758,1,2,2:0:0:0:
448,192,114841,1,0,0:0:0:0:
320,192,114841,1,2,2:0:0:0:
320,192,115008,1,0,0:0:0:0:
192,192,115008,1,2,2:0:0:0:
448,192,115175,1,2,2:0:0:0:
320,192,115175,1,0,0:0:0:0:
64,192,115341,1,2,2:0:0:0:
448,192,115341,1,10,2:0:0:0:
64,192,115508,1,2,2:0:0:0:
192,192,115508,1,0,0:0:0:0:
448,192,115675,1,2,2:0:0:0:
320,192,115675,1,0,0:0:0:0:
192,192,115841,1,2,2:0:0:0:
64,192,115925,1,2,2:0:0:0:
448,192,116008,1,2,2:0:0:0:
192,192,116008,1,10,2:0:0:0:
320,192,116175,1,0,0:0:0:0:
64,192,116175,1,2,2:0:0:0:
320,192,116341,1,0,0:0:0:0:
192,192,116341,1,2,2:0:0:0:
64,192,116508,1,2,2:0:0:0:
448,192,116508,1,0,0:0:0:0:
64,192,116675,1,10,2:0:0:0:
192,192,116758,1,2,2:0:0:0:
320,192,116841,128,2,116925:2:0:0:0:
192,192,116925,128,2,117008:2:0:0:0:
320,192,117008,128,2,117091:2:0:0:0:
192,192,117091,128,2,117175:2:0:0:0:
320,192,117175,128,2,117258:2:0:0:0:
192,192,117258,128,2,117341:2:0:0:0:
448,192,117341,128,8,117425:2:0:0:0:
320,192,117341,1,2,2:0:0:0:
64,192,117425,128,2,117508:2:0:0:0:
192,192,117425,1,0,0:0:0:0:
448,192,117508,128,2,117591:2:0:0:0:
320,192,117508,1,0,0:0:0:0:
64,192,117591,128,2,117675:2:0:0:0:
192,192,117591,1,0,0:0:0:0:
448,192,117675,128,4,117841:2:0:0:0:
320,192,117675,1,2,2:0:0:0:
320,192,117841,1,2,2:0:0:0:
192,192,117925,1,2,2:0:0:0:
64,192,118008,1,10,2:0:0:0:
448,192,118091,1,2,2:0:0:0:
320,192,118175,1,2,2:0:0:0:
64,192,118341,1,2,2:0:0:0:
448,192,118341,1,0,0:0:0:0:
448,192,118508,1,2,2:0:0:0:
320,192,118591,1,2,2:0:0:0:
64,192,118675,1,2,2:0:0:0:
192,192,118675,1,10,2:0:0:0:
448,192,118841,1,2,2:0:0:0:
320,192,118925,1,2,2:0:0:0:
192,192,119008,1,2,2:0:0:0:
320,192,119175,1,2,2:0:0:0:
64,192,119258,1,2,2:0:0:0:
320,192,119425,1,2,2:0:0:0:
64,192,119508,1,2,2:0:0:0:
64,192,119675,1,0,0:0:0:0:
192,192,119675,1,2,2:0:0:0:
448,192,119841,1,2,2:0:0:0:
192,192,119841,1,0,0:0:0:0:
320,192,120008,1,10,2:0:0:0:
192,192,120091,1,2,2:0:0:0:
448,192,120175,1,0,0:0:0:0:
64,192,120175,1,2,2:0:0:0:
64,192,120341,1,2,2:0:0:0:
192,192,120341,1,0,0:0:0:0:
448,192,120508,1,2,2:0:0:0:
320,192,120508,1,0,0:0:0:0:
64,192,120675,1,10,2:0:0:0:
192,192,120758,1,2,2:0:0:0:
448,192,120841,1,0,0:0:0:0:
64,192,120841,1,2,2:0:0:0:
320,192,121008,1,0,0:0:0:0:
192,192,121008,1,2,2:0:0:0:
448,192,121175,1,0,0:0:0:0:
192,192,121258,1,2,2:0:0:0:
320,192,121341,1,10,2:0:0:0:
64,192,121341,1,2,2:0:0:0:
192,192,121508,1,2,2:0:0:0:
320,192,121508,1,0,0:0:0:0:
448,192,121675,1,2,2:0:0:0:
64,192,121758,1,2,2:0:0:0:
448,192,121841,1,2,2:0:0:0:
192,192,121841,1,0,0:0:0:0:
320,192,122008,1,10,2:0:0:0:
64,192,122008,1,2,2:0:0:0:
192,192,122175,1,2,2:0:0:0:
320,192,122175,1,0,0:0:0:0:
320,192,122341,1,0,0:0:0:0:
192,192,122425,1,2,2:0:0:0:
64,192,122508,1,2,2:0:0:0:
320,192,122508,1,0,0:0:0:0:
64,192,122675,1,2,2:0:0:0:
192,192,122675,1,8,2:0:0:0:
448,192,122758,1,2,2:0:0:0:
320,192,122758,1,0,0:0:0:0:
192,192,122841,1,2,2:0:0:0:
64,192,122841,1,0,0:0:0:0:
320,192,122925,1,2,2:0:0:0:
448,192,122925,1,0,0:0:0:0:
192,192,123008,1,2,2:0:0:0:
64,192,123008,1,10,2:0:0:0:
64,192,123175,1,2,2:0:0:0:
320,192,123175,1,0,0:0:0:0:
448,192,123341,1,10,2:0:0:0:
320,192,123341,1,2,2:0:0:0:
448,192,123508,1,2,2:0:0:0:
320,192,123591,1,2,2:0:0:0:
192,192,123675,1,0,0:0:0:0:
64,192,123675,1,2,2:0:0:0:
64,192,123841,1,2,2:0:0:0:
320,192,123841,1,0,0:0:0:0:
192,192,124008,1,2,2:0:0:0:
320,192,124008,1,10,2:0:0:0:
448,192,124175,1,2,2:0:0:0:
320,192,124258,1,2,2:0:0:0:
64,192,124341,1,0,0:0:0:0:
192,192,124341,1,2,2:0:0:0:
320,192,124425,1,2,2:0:0:0:
192,192,124508,1,2,2:0:0:0:
448,192,124591,1,2,2:0:0:0:
320,192,124675,1,10,2:0:0:0:
192,192,124758,1,2,2:0:0:0:
64,192,124841,1,2,2:0:0:0:
192,192,124925,1,2,2:0:0:0:
448,192,125008,1,2,2:0:0:0:
320,192,125091,1,2,2:0:0:0:
192,192,125175,1,2,2:0:0:0:
64,192,125258,1,2,2:0:0:0:
192,192,125341,1,10,2:0:0:0:
448,192,125425,1,2,2:0:0:0:
64,192,125508,1,2,2:0:0:0:
320,192,125591,1,2,2:0:0:0:
448,192,125675,1,2,2:0:0:0:
64,192,125758,1,2,2:0:0:0:
192,192,125841,1,2,2:0:0:0:
320,192,125925,1,2,2:0:0:0:
448,192,126008,1,10,2:0:0:0:
192,192,126091,1,2,2:0:0:0:
448,192,126175,1,2,2:0:0:0:
320,192,126258,1,2,2:0:0:0:
64,192,126341,1,2,2:0:0:0:
448,192,126425,1,2,2:0:0:0:
64,192,126508,1,2,2:0:0:0:
192,192,126591,1,2,2:0:0:0:
320,192,126675,1,10,2:0:0:0:
192,192,126758,1,2,2:0:0:0:
448,192,126841,1,2,2:0:0:0:
192,192,126925,1,2,2:0:0:0:
448,192,127008,1,2,2:0:0:0:
320,192,127091,1,2,2:0:0:0:
64,192,127175,1,2,2:0:0:0:
448,192,127258,1,2,2:0:0:0:
64,192,127341,1,10,2:0:0:0:
192,192,127383,1,2,2:0:0:0:
320,192,127425,1,2,2:0:0:0:
448,192,127466,1,2,2:0:0:0:
64,192,127508,1,2,2:0:0:0:
192,192,127550,1,2,2:0:0:0:
320,192,127591,1,2,2:0:0:0:
448,192,127633,1,2,2:0:0:0:
64,192,127675,128,2,127758:2:0:0:0:
448,192,127758,128,2,127841:2:0:0:0:
64,192,127841,128,2,127925:2:0:0:0:
448,192,127925,128,2,128008:2:0:0:0:
192,192,128008,128,10,128341:2:0:0:0:
320,192,128341,128,2,128508:3:0:0:0:
448,192,128341,1,4,2:0:0:0:
64,192,128508,128,2,128675:3:0:0:0:
448,192,128675,128,2,128841:3:0:0:0:
320,192,128675,1,0,0:0:0:0:
192,192,128675,1,8,0:0:0:0:
320,192,128841,128,2,129008:3:0:0:0:
64,192,129008,128,2,129175:3:0:0:0:
320,192,129175,128,2,129341:3:0:0:0:
448,192,129341,128,2,129508:3:0:0:0:
64,192,129341,1,8,0:0:0:0:
192,192,129341,1,0,0:0:0:0:
192,192,129508,128,2,129675:3:0:0:0:
64,192,129675,128,2,129841:3:0:0:0:
448,192,129675,1,0,0:0:0:0:
320,192,129841,128,2,130008:3:0:0:0:
448,192,130008,128,0,130175:0:0:0:0:
64,192,130008,1,8,0:0:0:0:
192,192,130008,1,2,3:0:0:0:
64,192,130175,128,2,130341:3:0:0:0:
192,192,130341,128,2,130508:3:0:0:0:
448,192,130508,128,2,130675:3:0:0:0:
64,192,130675,128,2,130841:3:0:0:0:
320,192,130675,1,0,0:0:0:0:
192,192,130675,1,8,0:0:0:0:
192,192,130841,128,2,131008:3:0:0:0:
320,192,131008,128,2,131175:3:0:0:0:
64,192,131008,1,0,0:0:0:0:
192,192,131175,128,2,131341:3:0:0:0:
64,192,131341,128,2,131508:3:0:0:0:
320,192,131341,1,0,0:0:0:0:
448,192,131341,1,8,0:0:0:0:
448,192,131508,128,2,131675:3:0:0:0:
192,192,131675,128,2,131841:3:0:0:0:
320,192,131841,128,2,132008:3:0:0:0:
64,192,132008,128,2,132175:3:0:0:0:
192,192,132008,1,0,0:0:0:0:
448,192,132008,1,8,0:0:0:0:
192,192,132175,128,2,132341:3:0:0:0:
320,192,132341,128,2,132508:3:0:0:0:
448,192,132341,1,0,0:0:0:0:
64,192,132508,128,2,132675:3:0:0:0:
192,192,132675,128,2,132841:3:0:0:0:
448,192,132675,1,8,0:0:0:0:
320,192,132675,1,0,0:0:0:0:
448,192,132841,128,2,133008:3:0:0:0:
192,192,133008,128,2,133175:3:0:0:0:
320,192,133175,128,2,133341:3:0:0:0:
64,192,133341,1,0,0:0:0:0:
192,192,133341,1,8,2:0:0:0:
448,192,133425,1,0,0:0:0:0:
320,192,133425,1,8,2:0:0:0:
64,192,133508,1,0,0:0:0:0:
192,192,133508,1,8,2:0:0:0:
448,192,133591,1,0,0:0:0:0:
320,192,133591,1,8,2:0:0:0:
192,192,133675,128,8,133841:2:0:0:0:
64,192,133675,1,2,3:0:0:0:
64,192,133841,128,2,134008:3:0:0:0:
448,192,134008,128,2,134175:3:0:0:0:
320,192,134008,1,0,0:0:0:0:
192,192,134008,1,8,0:0:0:0:
320,192,134175,128,2,134341:3:0:0:0:
192,192,134341,128,2,134508:3:0:0:0:
320,192,134508,128,2,134675:3:0:0:0:
64,192,134675,128,2,134841:3:0:0:0:
192,192,134675,1,0,0:0:0:0:
448,192,134675,1,8,0:0:0:0:
192,192,134841,128,2,135008:3:0:0:0:
320,192,135008,128,2,135175:3:0:0:0:
448,192,135008,1,0,0:0:0:0:
64,192,135175,128,2,135341:3:0:0:0:
448,192,135341,128,2,135508:3:0:0:0:
320,192,135341,1,0,0:0:0:0:
192,192,135341,1,8,0:0:0:0:
320,192,135508,128,2,135675:3:0:0:0:
192,192,135675,128,2,135841:3:0:0:0:
320,192,135841,128,2,136008:3:0:0:0:
64,192,136008,128,2,136175:3:0:0:0:
448,192,136008,1,0,0:0:0:0:
192,192,136175,1,8,0:0:0:0:
448,192,136175,128,2,136341:3:0:0:0:
320,192,136341,128,2,136508:3:0:0:0:
64,192,136341,1,0,0:0:0:0:
64,192,136508,128,2,136675:3:0:0:0:
192,192,136675,128,2,136841:3:0:0:0:
448,192,136675,1,8,0:0:0:0:
320,192,136675,1,0,0:0:0:0:
320,192,136841,128,2,137008:3:0:0:0:
192,192,137008,128,2,137175:3:0:0:0:
448,192,137175,128,2,137341:3:0:0:0:
320,192,137341,128,0,137508:0:0:0:0:
64,192,137341,1,2,3:0:0:0:
192,192,137341,1,8,0:0:0:0:
64,192,137508,128,2,137675:3:0:0:0:
448,192,137591,1,0,3:0:0:0:
192,192,137675,128,0,137841:0:0:0:0:
320,192,137675,1,2,3:0:0:0:
64,192,137841,128,2,138008:3:0:0:0:
192,192,138008,128,0,138175:0:0:0:0:
320,192,138008,1,2,3:0:0:0:
448,192,138008,1,8,0:0:0:0:
320,192,138175,128,2,138341:3:0:0:0:
448,192,138341,128,2,138425:3:0:0:0:
64,192,138425,128,2,138508:3:0:0:0:
448,192,138508,128,2,138591:3:0:0:0:
64,192,138591,128,2,138675:3:0:0:0:
320,192,138675,128,8,138758:2:0:0:0:
448,192,138675,1,0,0:0:0:0:
192,192,138758,128,8,138841:2:0:0:0:
64,192,138758,1,0,0:0:0:0:
320,192,138841,128,8,138925:2:0:0:0:
448,192,138841,1,0,0:0:0:0:
192,192,138925,128,8,139008:2:0:0:0:
64,192,138925,1,0,0:0:0:0:
448,192,139008,128,8,139341:2:0:0:0:
320,192,139341,128,0,139508:0:0:0:0:
192,192,139341,1,8,0:0:0:0:
64,192,139341,1,2,3:0:0:0:
192,192,139508,128,2,139675:3:0:0:0:
64,192,139675,128,2,139841:3:0:0:0:
320,192,139841,128,2,140008:3:0:0:0:
64,192,140008,128,0,140175:0:0:0:0:
448,192,140008,1,2,3:0:0:0:
192,192,140008,1,8,0:0:0:0:
192,192,140175,128,2,140341:3:0:0:0:
320,192,140341,128,2,140508:3:0:0:0:
448,192,140341,1,0,0:0:0:0:
64,192,140508,128,2,140675:3:0:0:0:
448,192,140675,128,0,140841:0:0:0:0:
320,192,140675,1,2,3:0:0:0:
192,192,140675,1,8,0:0:0:0:
320,192,140841,128,2,141008:3:0:0:0:
64,192,141008,128,2,141175:3:0:0:0:
320,192,141175,128,2,141341:3:0:0:0:
192,192,141341,128,0,141508:0:0:0:0:
64,192,141341,1,8,0:0:0:0:
448,192,141341,1,2,3:0:0:0:
320,192,141508,128,2,141675:3:0:0:0:
448,192,141675,128,0,141841:0:0:0:0:
192,192,141675,1,2,3:0:0:0:
64,192,141841,128,2,142008:3:0:0:0:
192,192,142008,128,0,142175:0:0:0:0:
448,192,142008,1,2,3:0:0:0:
320,192,142008,1,8,0:0:0:0:
64,192,142175,128,2,142341:3:0:0:0:
320,192,142341,128,2,142508:3:0:0:0:
448,192,142508,128,2,142675:3:0:0:0:
320,192,142675,128,0,142841:0:0:0:0:
192,192,142675,1,8,0:0:0:0:
64,192,142675,1,2,3:0:0:0:
64,192,142841,128,2,143008:3:0:0:0:
448,192,143008,128,0,143175:0:0:0:0:
320,192,143008,1,2,3:0:0:0:
64,192,143175,128,2,143341:3:0:0:0:
192,192,143341,128,0,143508:0:0:0:0:
448,192,143341,1,2,3:0:0:0:
320,192,143341,1,8,0:0:0:0:
320,192,143508,128,2,143675:3:0:0:0:
192,192,143675,128,2,143841:3:0:0:0:
448,192,143841,128,2,144008:3:0:0:0:
320,192,144008,1,0,0:0:0:0:
192,192,144008,1,8,2:0:0:0:
64,192,144091,1,8,2:0:0:0:
448,192,144091,1,0,0:0:0:0:
192,192,144175,1,8,2:0:0:0:
320,192,144175,1,0,0:0:0:0:
448,192,144258,1,0,0:0:0:0:
64,192,144258,1,8,2:0:0:0:
320,192,144341,128,0,144508:0:0:0:0:
192,192,144341,1,8,2:0:0:0:
64,192,144508,128,2,144675:3:0:0:0:
448,192,144675,128,0,144841:0:0:0:0:
192,192,144675,1,2,3:0:0:0:
320,192,144675,1,8,0:0:0:0:
320,192,144841,128,2,145008:3:0:0:0:
64,192,145008,128,2,145175:3:0:0:0:
320,192,145175,128,2,145341:3:0:0:0:
192,192,145341,128,0,145508:0:0:0:0:
64,192,145341,1,8,0:0:0:0:
448,192,145341,1,2,3:0:0:0:
64,192,145508,128,2,145675:3:0:0:0:
448,192,145675,128,0,145841:0:0:0:0:
192,192,145675,1,2,3:0:0:0:
64,192,145841,128,2,146008:3:0:0:0:
320,192,146008,128,0,146175:0:0:0:0:
448,192,146008,1,8,0:0:0:0:
192,192,146008,1,2,3:0:0:0:
192,192,146175,128,2,146341:3:0:0:0:
320,192,146341,128,2,146508:3:0:0:0:
448,192,146508,128,2,146675:3:0:0:0:
64,192,146675,128,0,146841:0:0:0:0:
320,192,146675,1,8,0:0:0:0:
192,192,146675,1,2,3:0:0:0:
192,192,146841,128,2,147008:3:0:0:0:
320,192,147008,128,0,147175:0:0:0:0:
64,192,147008,1,2,3:0:0:0:
64,192,147175,128,2,147341:3:0:0:0:
320,192,147341,128,0,147508:0:0:0:0:
448,192,147341,1,8,0:0:0:0:
192,192,147341,1,2,3:0:0:0:
192,192,147508,128,2,147675:3:0:0:0:
320,192,147675,128,2,147841:3:0:0:0:
448,192,147841,128,2,148008:3:0:0:0:
64,192,148008,128,0,148175:0:0:0:0:
192,192,148008,1,2,3:0:0:0:
320,192,148008,1,8,0:0:0:0:
192,192,148175,128,2,148341:3:0:0:0:
320,192,148341,128,2,148508:3:0:0:0:
448,192,148341,1,0,0:0:0:0:
64,192,148508,128,2,148675:3:0:0:0:
448,192,148675,128,0,148841:0:0:0:0:
320,192,148675,1,2,3:0:0:0:
192,192,148675,1,8,0:0:0:0:
320,192,148841,128,2,149008:3:0:0:0:
64,192,149008,128,2,149175:3:0:0:0:
192,192,149008,1,0,0:0:0:0:
448,192,149008,1,8,2:0:0:0:
192,192,149175,128,0,149341:0:0:0:0:
448,192,149258,1,8,2:0:0:0:
64,192,149258,1,0,3:0:0:0:
320,192,149341,128,2,149508:3:0:0:0:
448,192,149508,128,0,150008:0:0:0:0:
64,192,149508,1,2,3:0:0:0:
192,192,149508,1,8,2:0:0:0:
320,192,149675,128,0,149841:3:0:0:0:
192,192,149675,1,0,0:0:0:0:
64,192,149841,128,0,150008:3:0:0:0:
192,192,150008,128,0,150341:3:0:0:0:
320,192,150008,128,8,150175:2:0:0:0:
448,192,150175,128,0,150341:3:0:0:0:
320,192,150341,128,0,150508:0:0:0:0:
64,192,150341,128,0,150675:3:0:0:0:
192,192,150508,128,0,150675:3:0:0:0:
320,192,150675,128,8,151008:2:0:0:0:
448,192,150675,128,0,150841:3:0:0:0:
64,192,150841,128,0,151008:3:0:0:0:
448,192,151008,128,0,151175:3:0:0:0:
192,192,151008,128,0,151341:0:0:0:0:
64,192,151175,128,0,151341:3:0:0:0:
448,192,151341,128,0,151508:3:0:0:0:
320,192,151341,128,8,151675:2:0:0:0:
192,192,151508,128,0,151675:3:0:0:0:
64,192,151675,128,0,151841:3:0:0:0:
448,192,151675,128,0,152008:0:0:0:0:
192,192,151841,128,0,152008:3:0:0:0:
320,192,152008,128,8,152175:2:0:0:0:
64,192,152008,128,0,152341:3:0:0:0:
192,192,152175,128,0,152341:3:0:0:0:
320,192,152341,128,0,152508:0:0:0:0:
448,192,152341,128,0,152675:3:0:0:0:
64,192,152508,128,0,152675:3:0:0:0:
192,192,152675,128,8,153008:2:0:0:0:
320,192,152675,128,0,152841:3:0:0:0:
64,192,152841,128,0,153008:3:0:0:0:
320,192,153008,128,0,153341:0:0:0:0:
448,192,153008,128,0,153175:3:0:0:0:
192,192,153175,128,0,153341:3:0:0:0:
448,192,153341,128,8,153508:2:0:0:0:
64,192,153341,128,0,153675:3:0:0:0:
320,192,153508,128,0,153675:3:0:0:0:
448,192,153675,128,0,153841:3:0:0:0:
192,192,153675,128,0,154008:0:0:0:0:
320,192,153841,128,0,154008:3:0:0:0:
64,192,154008,128,0,154175:3:0:0:0:
448,192,154008,128,8,154341:2:0:0:0:
192,192,154175,128,0,154341:3:0:0:0:
320,192,154341,128,0,154508:3:0:0:0:
64,192,154341,128,0,154675:0:0:0:0:
448,192,154508,128,8,154675:2:0:0:0:
320,192,154675,1,0,0:0:0:0:
192,192,154675,1,8,2:0:0:0:
64,192,154758,1,8,2:0:0:0:
448,192,154758,1,0,0:0:0:0:
320,192,154841,1,0,0:0:0:0:
192,192,154841,1,8,2:0:0:0:
64,192,154925,1,8,2:0:0:0:
448,192,154925,1,0,0:0:0:0:
320,192,155008,128,0,155175:0:0:0:0:
192,192,155008,128,8,155341:2:0:0:0:
64,192,155175,128,0,155341:3:0:0:0:
448,192,155341,128,0,155508:3:0:0:0:
320,192,155341,128,8,155675:2:0:0:0:
192,192,155508,128,0,155675:3:0:0:0:
64,192,155675,128,0,155841:3:0:0:0:
448,192,155675,128,0,156008:0:0:0:0:
192,192,155841,128,0,156008:3:0:0:0:
64,192,156008,128,0,156175:3:0:0:0:
320,192,156008,128,8,156341:2:0:0:0:
192,192,156175,128,0,156341:3:0:0:0:
448,192,156341,128,0,156508:3:0:0:0:
64,192,156341,128,0,156675:0:0:0:0:
192,192,156508,128,0,156675:3:0:0:0:
448,192,156675,128,8,157008:2:0:0:0:
320,192,156675,128,0,156841:3:0:0:0:
64,192,156841,128,0,157008:3:0:0:0:
320,192,157008,128,0,157175:3:0:0:0:
192,192,157008,128,0,157341:0:0:0:0:
448,192,157175,128,8,157341:2:0:0:0:
64,192,157341,128,0,157508:3:0:0:0:
320,192,157341,128,0,157675:0:0:0:0:
192,192,157508,128,0,157675:3:0:0:0:
448,192,157675,128,0,157841:3:0:0:0:
64,192,157675,128,4,158008:3:0:0:0:
192,192,157841,128,0,158008:3:0:0:0:
320,192,158008,128,0,158175:3:0:0:0:
448,192,158008,128,8,158341:2:0:0:0:
192,192,158175,128,0,158341:3:0:0:0:
64,192,158341,128,0,158508:3:0:0:0:
320,192,158341,128,0,158675:0:0:0:0:
192,192,158508,128,0,158675:3:0:0:0:
448,192,158675,128,0,158841:3:0:0:0:
64,192,158675,128,8,159008:2:0:0:0:
192,192,158841,128,0,159008:3:0:0:0:
320,192,159008,128,0,159175:3:0:0:0:
448,192,159008,128,0,159341:0:0:0:0:
64,192,159175,128,0,159341:3:0:0:0:
192,192,159341,128,0,159508:3:0:0:0:
320,192,159341,128,8,159675:2:0:0:0:
64,192,159508,128,0,159675:3:0:0:0:
192,192,159675,128,0,159841:3:0:0:0:
448,192,159675,128,0,160008:0:0:0:0:
320,192,159841,128,0,160008:3:0:0:0:
64,192,160008,1,0,0:0:0:0:
192,192,160008,1,8,2:0:0:0:
448,192,160091,1,0,0:0:0:0:
320,192,160091,1,8,2:0:0:0:
64,192,160175,1,0,0:0:0:0:
192,192,160175,1,8,2:0:0:0:
448,192,160258,1,0,0:0:0:0:
320,192,160258,1,8,2:0:0:0:
192,192,160341,128,8,160675:2:0:0:0:
64,192,160341,128,0,160508:0:0:0:0:
448,192,160508,128,0,160675:3:0:0:0:
64,192,160675,128,0,160841:3:0:0:0:
320,192,160675,128,8,161008:2:0:0:0:
192,192,160841,128,0,161008:3:0:0:0:
448,192,161008,128,0,161175:3:0:0:0:
64,192,161008,128,0,161341:0:0:0:0:
320,192,161175,128,0,161341:3:0:0:0:
192,192,161341,128,0,161508:3:0:0:0:
448,192,161341,128,8,161675:2:0:0:0:
64,192,161508,128,0,161675:3:0:0:0:
192,192,161675,128,0,161841:3:0:0:0:
320,192,161675,128,0,162008:0:0:0:0:
64,192,161841,128,0,162008:3:0:0:0:
192,192,162008,128,8,162341:2:0:0:0:
448,192,162008,128,0,162175:3:0:0:0:
320,192,162175,128,0,162341:3:0:0:0:
64,192,162341,128,0,162508:3:0:0:0:
448,192,162341,128,0,162675:0:0:0:0:
320,192,162508,128,0,162675:3:0:0:0:
64,192,162675,128,0,162841:3:0:0:0:
192,192,162675,128,8,163008:2:0:0:0:
448,192,162841,128,0,163008:3:0:0:0:
320,192,163008,128,0,163175:3:0:0:0:
64,192,163008,128,0,163341:0:0:0:0:
192,192,163175,128,0,163341:3:0:0:0:
320,192,163341,128,8,163675:2:0:0:0:
448,192,163341,128,0,163508:3:0:0:0:
64,192,163508,128,0,163675:3:0:0:0:
192,192,163675,128,0,163841:3:0:0:0:
448,192,163675,128,0,164008:0:0:0:0:
320,192,163841,128,0,164008:3:0:0:0:
64,192,164008,128,8,164341:2:0:0:0:
192,192,164008,128,0,164175:3:0:0:0:
320,192,164175,128,0,164341:3:0:0:0:
448,192,164341,128,0,164508:3:0:0:0:
192,192,164341,128,4,164675:3:0:0:0:
64,192,164508,128,0,164675:3:0:0:0:
320,192,164675,128,8,164841:2:0:0:0:
448,192,164675,128,0,165008:0:0:0:0:
192,192,164841,128,0,165008:3:0:0:0:
64,192,165008,128,0,165175:3:0:0:0:
320,192,165008,128,0,165341:0:0:0:0:
192,192,165175,128,8,165341:2:0:0:0:
64,192,165341,1,8,2:0:0:0:
448,192,165341,1,0,0:0:0:0:
320,192,165425,1,0,0:0:0:0:
192,192,165425,1,8,2:0:0:0:
64,192,165508,1,8,2:0:0:0:
448,192,165508,1,0,0:0:0:0:
320,192,165591,1,0,0:0:0:0:
192,192,165591,1,8,2:0:0:0:
64,192,165675,128,8,166008:2:0:0:0:
448,192,165675,128,0,165841:0:0:0:0:
320,192,165841,128,0,166008:3:0:0:0:
192,192,166008,128,0,166175:3:0:0:0:
448,192,166008,128,8,166341:2:0:0:0:
320,192,166175,128,0,166341:3:0:0:0:
64,192,166341,128,0,166508:3:0:0:0:
192,192,166341,128,0,166675:1:0:0:0:
448,192,166508,128,0,166675:3:0:0:0:
320,192,166675,128,0,166841:3:0:0:0:
64,192,166675,128,8,167008:2:0:0:0:
192,192,166841,128,0,167008:3:0:0:0:
320,192,167008,128,0,167175:3:0:0:0:
448,192,167008,128,0,167341:0:0:0:0:
64,192,167175,128,0,167341:3:0:0:0:
192,192,167341,128,0,167508:3:0:0:0:
320,192,167341,128,8,167675:2:0:0:0:
448,192,167508,128,0,167675:3:0:0:0:
64,192,167675,128,0,167841:3:0:0:0:
192,192,167675,128,0,168008:0:0:0:0:
448,192,167841,128,0,168008:3:0:0:0:
64,192,168008,128,0,168175:3:0:0:0:
320,192,168008,128,8,168341:2:0:0:0:
192,192,168175,128,0,168341:3:0:0:0:
448,192,168341,128,0,168508:3:0:0:0:
64,192,168341,128,0,168675:0:0:0:0:
320,192,168508,128,0,168675:3:0:0:0:
192,192,168675,128,8,169008:2:0:0:0:
448,192,168675,128,0,168841:3:0:0:0:
64,192,168841,128,0,169008:3:0:0:0:
448,192,169008,128,0,169175:3:0:0:0:
320,192,169008,128,0,169341:0:0:0:0:
192,192,169175,128,0,169341:3:0:0:0:
448,192,169341,128,0,169508:3:0:0:0:
64,192,169341,128,8,169675:2:0:0:0:
192,192,169508,128,0,169675:3:0:0:0:
448,192,169675,128,0,170008:0:0:0:0:
320,192,169675,128,0,169841:3:0:0:0:
192,192,169841,128,0,170008:3:0:0:0:
64,192,170008,128,0,170175:3:0:0:0:
320,192,170008,128,8,170341:2:0:0:0:
192,192,170175,128,0,170341:3:0:0:0:
64,192,170341,128,0,170675:0:0:0:0:
448,192,170341,128,0,170508:3:0:0:0:
192,192,170508,128,4,170675:3:0:0:0:
320,192,170675,128,8,170758:2:0:0:0:
448,192,170675,128,0,170758:0:0:0:0:
192,192,170758,128,8,170841:2:0:0:0:
64,192,170758,128,0,170841:0:0:0:0:
448,192,170841,128,0,170925:0:0:0:0:
320,192,170841,128,8,170925:2:0:0:0:
64,192,170925,128,0,171008:0:0:0:0:
192,192,170925,128,8,171008:2:0:0:0:
448,192,171008,1,4,0:0:0:0:
320,192,171091,1,0,0:0:0:0:
192,192,171175,1,0,0:0:0:0:
448,192,171341,1,2,2:0:0:0:
320,192,171341,1,8,2:0:0:0:
320,192,171508,1,0,0:0:0:0:
192,192,171508,1,2,2:0:0:0:
64,192,171675,1,2,2:0:0:0:
192,192,171675,1,0,0:0:0:0:
448,192,171841,1,2,2:0:0:0:
192,192,171841,1,0,0:0:0:0:
64,192,172008,1,2,2:0:0:0:
320,192,172008,1,8,2:0:0:0:
64,192,172175,1,2,2:0:0:0:
192,192,172258,1,2,2:0:0:0:
448,192,172341,1,2,2:0:0:0:
320,192,172341,1,0,0:0:0:0:
448,192,172508,1,0,0:0:0:0:
64,192,172508,1,2,2:0:0:0:
192,192,172675,1,2,2:0:0:0:
320,192,172675,1,8,2:0:0:0:
448,192,172841,1,2,2:0:0:0:
320,192,172841,1,0,0:0:0:0:
64,192,173008,1,2,2:0:0:0:
448,192,173008,1,0,0:0:0:0:
320,192,173175,1,0,0:0:0:0:
192,192,173175,1,2,2:0:0:0:
64,192,173341,1,2,2:0:0:0:
192,192,173341,1,8,2:0:0:0:
448,192,173508,1,2,2:0:0:0:
192,192,173508,1,0,0:0:0:0:
64,192,173675,1,2,2:0:0:0:
192,192,173675,1,0,0:0:0:0:
448,192,173841,1,2,2:0:0:0:
320,192,173841,1,0,0:0:0:0:
64,192,174008,1,2,2:0:0:0:
320,192,174008,1,8,2:0:0:0:
448,192,174175,1,2,2:0:0:0:
320,192,174258,1,2,2:0:0:0:
64,192,174341,1,2,2:0:0:0:
192,192,174341,1,0,0:0:0:0:
64,192,174508,1,2,2:0:0:0:
192,192,174591,1,2,2:0:0:0:
448,192,174675,1,8,2:0:0:0:
320,192,174675,1,2,2:0:0:0:
448,192,174841,1,2,2:0:0:0:
192,192,174841,1,0,0:0:0:0:
320,192,175008,1,2,2:0:0:0:
64,192,175008,1,0,0:0:0:0:
448,192,175175,1,2,2:0:0:0:
192,192,175175,1,0,0:0:0:0:
320,192,175341,1,8,2:0:0:0:
192,192,175341,1,2,2:0:0:0:
64,192,175508,1,2,2:0:0:0:
448,192,175591,1,2,2:0:0:0:
320,192,175675,1,2,2:0:0:0:
192,192,175675,1,0,0:0:0:0:
320,192,175841,1,2,2:0:0:0:
64,192,175841,1,0,0:0:0:0:
320,192,176008,1,10,2:0:0:0:
192,192,176091,1,2,2:0:0:0:
320,192,176175,1,2,2:0:0:0:
192,192,176258,1,2,2:0:0:0:
320,192,176341,1,0,0:0:0:0:
448,192,176341,1,2,2:0:0:0:
320,192,176508,1,0,0:0:0:0:
448,192,176508,1,2,2:0:0:0:
64,192,176675,1,2,2:0:0:0:
192,192,176675,1,8,2:0:0:0:
320,192,176841,1,2,2:0:0:0:
192,192,176925,1,2,2:0:0:0:
448,192,177008,1,2,2:0:0:0:
64,192,177008,1,0,0:0:0:0:
320,192,177175,1,2,2:0:0:0:
192,192,177175,1,0,0:0:0:0:
448,192,177341,1,8,2:0:0:0:
320,192,177341,1,2,2:0:0:0:
64,192,177508,1,0,0:0:0:0:
192,192,177508,1,2,2:0:0:0:
448,192,177675,1,2,2:0:0:0:
192,192,177675,1,0,0:0:0:0:
192,192,177841,1,2,2:0:0:0:
320,192,177925,1,2,2:0:0:0:
448,192,178008,1,2,2:0:0:0:
64,192,178008,1,8,2:0:0:0:
320,192,178175,1,0,0:0:0:0:
192,192,178175,1,2,2:0:0:0:
448,192,178341,1,2,2:0:0:0:
192,192,178508,1,2,2:0:0:0:
448,192,178591,1,2,2:0:0:0:
192,192,178758,1,2,2:0:0:0:
448,192,178841,1,2,2:0:0:0:
320,192,179008,1,2,2:0:0:0:
192,192,179091,1,2,2:0:0:0:
64,192,179175,1,2,2:0:0:0:
320,192,179175,1,0,0:0:0:0:
192,192,179341,1,2,2:0:0:0:
320,192,179341,1,8,2:0:0:0:
64,192,179508,1,2,2:0:0:0:
192,192,179591,1,2,2:0:0:0:
448,192,179675,1,2,2:0:0:0:
320,192,179675,1,0,0:0:0:0:
64,192,179841,1,2,2:0:0:0:
192,192,179925,1,2,2:0:0:0:
448,192,180008,1,8,2:0:0:0:
320,192,180008,1,2,2:0:0:0:
448,192,180175,1,0,0:0:0:0:
192,192,180175,1,2,2:0:0:0:
64,192,180341,1,2,2:0:0:0:
192,192,180341,1,0,0:0:0:0:
448,192,180508,1,2,2:0:0:0:
192,192,180675,1,2,2:0:0:0:
320,192,180675,1,8,2:0:0:0:
64,192,180841,1,2,2:0:0:0:
192,192,180841,1,0,0:0:0:0:
448,192,181008,1,2,2:0:0:0:
64,192,181091,1,2,2:0:0:0:
448,192,181175,1,2,2:0:0:0:
64,192,181258,1,2,2:0:0:0:
448,192,181341,1,8,2:0:0:0:
320,192,181341,1,2,2:0:0:0:
64,192,181425,1,0,0:0:0:0:
192,192,181425,1,2,2:0:0:0:
448,192,181508,1,0,0:0:0:0:
320,192,181508,1,2,2:0:0:0:
64,192,181591,1,0,0:0:0:0:
192,192,181591,1,2,2:0:0:0:
448,192,181675,1,2,2:0:0:0:
320,192,181675,1,4,2:0:0:0:
320,192,181841,1,2,2:0:0:0:
192,192,182008,1,2,2:0:0:0:
448,192,182175,1,0,0:0:0:0:
320,192,182175,1,2,2:0:0:0:
64,192,182341,1,2,2:0:0:0:
448,192,182508,1,0,0:0:0:0:
320,192,182508,1,2,2:0:0:0:
64,192,182675,1,10,2:0:0:0:
64,192,182841,1,2,2:0:0:0:
192,192,182925,1,2,2:0:0:0:
448,192,183008,1,0,0:0:0:0:
64,192,183008,1,2,2:0:0:0:
320,192,183175,1,0,0:0:0:0:
192,192,183175,1,2,2:0:0:0:
64,192,183341,1,2,2:0:0:0:
192,192,183341,1,8,2:0:0:0:
448,192,183508,1,0,0:0:0:0:
192,192,183508,1,2,2:0:0:0:
320,192,183675,1,0,0:0:0:0:
192,192,183675,1,2,2:0:0:0:
448,192,183841,1,2,2:0:0:0:
64,192,183841,1,0,0:0:0:0:
192,192,184008,1,2,2:0:0:0:
448,192,184008,1,8,2:0:0:0:
320,192,184175,1,0,0:0:0:0:
448,192,184175,1,2,2:0:0:0:
64,192,184341,1,2,2:0:0:0:
192,192,184341,1,0,0:0:0:0:
320,192,184508,1,2,2:0:0:0:
192,192,184508,1,0,0:0:0:0:
320,192,184675,1,10,2:0:0:0:
192,192,184758,1,2,2:0:0:0:
448,192,184841,1,0,0:0:0:0:
320,192,184841,1,2,2:0:0:0:
64,192,185008,1,0,0:0:0:0:
320,192,185008,1,2,2:0:0:0:
448,192,185175,1,2,2:0:0:0:
320,192,185258,1,2,2:0:0:0:
64,192,185341,1,2,2:0:0:0:
192,192,185341,1,8,2:0:0:0:
320,192,185508,1,0,0:0:0:0:
64,192,185508,1,2,2:0:0:0:
192,192,185675,1,2,2:0:0:0:
320,192,185675,1,0,0:0:0:0:
448,192,185841,1,2,2:0:0:0:
320,192,185925,1,2,2:0:0:0:
448,192,186008,1,8,2:0:0:0:
64,192,186008,1,2,2:0:0:0:
320,192,186175,1,0,0:0:0:0:
192,192,186175,1,2,2:0:0:0:
64,192,186341,1,2,2:0:0:0:
192,192,186425,1,2,2:0:0:0:
448,192,186508,1,2,2:0:0:0:
320,192,186508,1,0,0:0:0:0:
448,192,186675,1,10,2:0:0:0:
64,192,186758,1,2,2:0:0:0:
448,192,186841,1,2,2:0:0:0:
320,192,186841,1,0,0:0:0:0:
64,192,186925,1,2,2:0:0:0:
192,192,186925,1,0,0:0:0:0:
320,192,187008,1,0,0:0:0:0:
448,192,187008,128,2,187133:2:0:0:0:
448,192,187175,128,2,187300:2:0:0:0:
320,192,187175,1,0,0:0:0:0:
64,192,187341,1,8,2:0:0:0:
192,192,187341,1,2,2:0:0:0:
320,192,187508,1,2,2:0:0:0:
192,192,187591,1,2,2:0:0:0:
64,192,187675,1,0,0:0:0:0:
448,192,187675,1,2,2:0:0:0:
192,192,187841,1,2,2:0:0:0:
448,192,188008,1,8,2:0:0:0:
320,192,188008,1,2,2:0:0:0:
64,192,188175,1,2,2:0:0:0:
192,192,188258,1,2,2:0:0:0:
448,192,188341,1,2,2:0:0:0:
320,192,188341,1,0,0:0:0:0:
448,192,188508,1,2,2:0:0:0:
320,192,188591,1,2,2:0:0:0:
64,192,188675,1,2,2:0:0:0:
192,192,188675,1,8,2:0:0:0:
448,192,188841,1,2,2:0:0:0:
320,192,188841,1,0,0:0:0:0:
64,192,189008,1,2,2:0:0:0:
448,192,189175,1,2,2:0:0:0:
64,192,189258,1,2,2:0:0:0:
448,192,189425,1,2,2:0:0:0:
64,192,189508,1,2,2:0:0:0:
192,192,189675,1,2,2:0:0:0:
320,192,189758,1,2,2:0:0:0:
64,192,189841,1,0,0:0:0:0:
192,192,189841,1,2,2:0:0:0:
192,192,190008,1,2,2:0:0:0:
320,192,190008,1,8,2:0:0:0:
448,192,190175,1,2,2:0:0:0:
64,192,190175,1,0,0:0:0:0:
64,192,190341,1,2,2:0:0:0:
448,192,190425,1,2,2:0:0:0:
192,192,190508,1,0,0:0:0:0:
64,192,190508,1,2,2:0:0:0:
320,192,190675,1,8,2:0:0:0:
192,192,190675,1,2,2:0:0:0:
448,192,190841,1,2,2:0:0:0:
320,192,190925,1,2,2:0:0:0:
64,192,191008,1,0,0:0:0:0:
448,192,191008,1,2,2:0:0:0:
192,192,191175,1,0,0:0:0:0:
320,192,191175,1,2,2:0:0:0:
64,192,191341,1,10,2:0:0:0:
192,192,191425,1,2,2:0:0:0:
448,192,191508,1,0,0:0:0:0:
64,192,191508,1,2,2:0:0:0:
320,192,191675,1,0,0:0:0:0:
192,192,191675,1,2,2:0:0:0:
448,192,191841,1,2,2:0:0:0:
320,192,191925,1,2,2:0:0:0:
64,192,192008,1,2,2:0:0:0:
192,192,192008,1,8,2:0:0:0:
448,192,192175,1,2,2:0:0:0:
320,192,192175,1,0,0:0:0:0:
64,192,192341,1,4,2:0:0:0:
192,192,192341,1,2,2:0:0:0:
320,192,192341,1,4,0:0:0:0:
448,192,192341,1,8,2:0:0:0:
