osu file format v14

[General]
AudioFilename: audio.mp3
AudioLeadIn: 0
PreviewTime: 107010
Countdown: 0
SampleSet: Normal
StackLeniency: 0.7
Mode: 3
LetterboxInBreaks: 0
SpecialStyle: 0
WidescreenStoryboard: 0

[Editor]
Bookmarks: 21708,32708,64374,85708
DistanceSpacing: 1
BeatDivisor: 4
GridSize: 32
TimelineZoom: 2.699999

[Metadata]
Title:perthed again (yambabom remix)
TitleUnicode:perthed again (yambabom remix)
Artist:Hitori Tori
ArtistUnicode:Hitori Tori
Creator:TheToaphster
Version:Extreme
Source:
Tags:SV breakcore
BeatmapID:1207006
BeatmapSetID:569392

[Difficulty]
HPDrainRate:8
CircleSize:4
OverallDifficulty:8
ApproachRate:5
SliderMultiplier:1.4
SliderTickRate:1

[Events]
//Background and Video events
0,0,"perthed.jpg",0,0
//Break Periods
//Storyboard Layer 0 (Background)
//Storyboard Layer 1 (Fail)
//Storyboard Layer 2 (Pass)
//Storyboard Layer 3 (Foreground)
//Storyboard Sound Samples

[TimingPoints]
342,333.333333333333,4,1,2,90,1,0
353,-2000,4,1,2,90,0,0
383,-83.3333333333333,4,1,2,90,0,0
582,-125,4,1,2,90,0,0
645,-166.666666666667,4,1,2,90,0,0
687,-250,4,1,2,90,0,0
749,-500,4,1,2,90,0,0
791,-1000,4,1,2,90,0,0
812,-2000,4,1,2,90,0,0
826,-90.9090909090909,4,1,2,90,0,0
853,-2000,4,1,2,90,0,0
883,-83.3333333333333,4,1,2,90,0,0
1082,-125,4,1,2,90,0,0
1145,-166.666666666667,4,1,2,90,0,0
1187,-250,4,1,2,90,0,0
1249,-500,4,1,2,90,0,0
1291,-1000,4,1,2,90,0,0
1312,-2000,4,1,2,90,0,0
1326,-90.9090909090909,4,1,2,90,0,0
1353,-2000,4,1,2,90,0,0
1374,-100,4,1,2,90,0,0
1383,-83.3333333333333,4,1,2,90,0,0
1520,-1000,4,1,2,90,0,0
1582,-83.3333333333333,4,1,2,90,0,0
1749,-125,4,1,2,90,0,0
1812,-166.666666666667,4,1,2,90,0,0
1853,-250,4,1,2,90,0,0
1916,-500,4,1,2,90,0,0
1957,-1000,4,1,2,90,0,0
1978,-2000,4,1,2,90,0,0
1988,-33.3333333333333,4,1,2,90,0,0
2020,-2000,4,1,2,90,0,0
2050,-83.3333333333333,4,1,2,90,0,0
2249,-125,4,1,2,90,0,0
2312,-166.666666666667,4,1,2,90,0,0
2353,-250,4,1,2,90,0,0
2416,-500,4,1,2,90,0,0
2457,-1000,4,1,2,90,0,0
2468,-58.8235294117647,4,1,2,90,0,0
2520,-2000,4,1,2,90,0,0
2547,-86.9565217391304,4,1,2,90,0,0
2558,-83.3333333333333,4,1,2,90,0,0
2687,-2000,4,1,2,90,0,0
2722,-83.3333333333333,4,1,2,90,0,0
2853,-2000,4,1,2,90,0,0
2888,-83.3333333333333,4,1,2,90,0,0
3020,-2000,4,1,2,90,0,0
3055,-83.3333333333333,4,1,2,90,0,0
3249,-125,4,1,2,90,0,0
3312,-166.666666666667,4,1,2,90,0,0
3353,-250,4,1,2,90,0,0
3416,-500,4,1,2,90,0,0
3457,-1000,4,1,2,90,0,0
3478,-2000,4,1,2,90,0,0
3493,-50,4,1,2,90,0,0
3520,-2000,4,1,2,90,0,0
3552,-83.3333333333333,4,1,2,90,0,0
3749,-125,4,1,2,90,0,0
3812,-166.666666666667,4,1,2,90,0,0
3853,-250,4,1,2,90,0,0
3916,-500,4,1,2,90,0,0
3957,-1000,4,1,2,90,0,0
3978,-2000,4,1,2,90,0,0
3994,-50,4,1,2,90,0,0
4020,-2000,4,1,2,90,0,0
4053,-83.3333333333333,4,1,2,90,0,0
4187,-2000,4,1,2,90,0,0
4222,-83.3333333333333,4,1,2,90,0,0
4416,-125,4,1,2,90,0,0
4478,-166.666666666667,4,1,2,90,0,0
4520,-250,4,1,2,90,0,0
4582,-500,4,1,2,90,0,0
4624,-1000,4,1,2,90,0,0
4638,-33.3333333333333,4,1,2,90,0,0
4687,-2000,4,1,2,90,0,0
4723,-83.3333333333333,4,1,2,90,0,0
4916,-125,4,1,2,90,0,0
4978,-166.666666666667,4,1,2,90,0,0
5020,-250,4,1,2,90,0,0
5082,-500,4,1,2,90,0,0
5124,-1000,4,1,2,90,0,0
5137,-50,4,1,2,90,0,0
5187,-2000,4,1,2,90,0,0
5228,-83.3333333333333,4,1,2,90,0,0
5353,-2000,4,1,2,90,0,0
5391,-83.3333333333333,4,1,2,90,0,0
5520,-2000,4,1,2,90,0,0
5560,-83.3333333333333,4,1,2,90,0,0
5687,-2000,4,1,2,90,0,0
5722,-83.3333333333333,4,1,2,90,0,0
5916,-125,4,1,2,90,0,0
5978,-166.666666666667,4,1,2,90,0,0
6020,-250,4,1,2,90,0,0
6082,-500,4,1,2,90,0,0
6124,-1000,4,1,2,90,0,0
6153,-83.3333333333333,4,1,2,90,0,0
6187,-2000,4,1,2,90,0,0
6222,-83.3333333333333,4,1,2,90,0,0
6416,-125,4,1,2,90,0,0
6478,-166.666666666667,4,1,2,90,0,0
6520,-250,4,1,2,90,0,0
6582,-500,4,1,2,90,0,0
6624,-1000,4,1,2,90,0,0
6653,-83.3333333333333,4,1,2,90,0,0
6687,-2000,4,1,2,90,0,0
6722,-83.3333333333333,4,1,2,90,0,0
6853,-2000,4,1,2,90,0,0
6887,-83.3333333333333,4,1,2,90,0,0
7082,-125,4,1,2,90,0,0
7145,-166.666666666667,4,1,2,90,0,0
7187,-250,4,1,2,90,0,0
7249,-500,4,1,2,90,0,0
7291,-1000,4,1,2,90,0,0
7303,-40,4,1,2,90,0,0
7353,-2000,4,1,2,90,0,0
7386,-83.3333333333333,4,1,2,90,0,0
7582,-125,4,1,2,90,0,0
7645,-166.666666666667,4,1,2,90,0,0
7687,-250,4,1,2,90,0,0
7749,-500,4,1,2,90,0,0
7791,-1000,4,1,2,90,0,0
7800,-40,4,1,2,90,0,0
7853,-2000,4,1,2,90,0,0
7888,-83.3333333333333,4,1,2,90,0,0
8020,-2000,4,1,2,90,0,0
8057,-83.3333333333333,4,1,2,90,0,0
8187,-2000,4,1,2,90,0,0
8220,-83.3333333333333,4,1,2,90,0,0
8353,-2000,4,1,2,90,0,0
8387,-83.3333333333333,4,1,2,90,0,0
8582,-125,4,1,2,90,0,0
8645,-166.666666666667,4,1,2,90,0,0
8687,-250,4,1,2,90,0,0
8749,-500,4,1,2,90,0,0
8791,-1000,4,1,2,90,0,0
8812,-71.4285714285714,4,1,2,90,0,0
8853,-2000,4,1,2,90,0,0
8888,-83.3333333333333,4,1,2,90,0,0
9082,-125,4,1,2,90,0,0
9145,-166.666666666667,4,1,2,90,0,0
9187,-250,4,1,2,90,0,0
9249,-500,4,1,2,90,0,0
9291,-1000,4,1,2,90,0,0
9312,-71.4285714285714,4,1,2,90,0,0
9353,-2000,4,1,2,90,0,0
9387,-83.3333333333333,4,1,2,90,0,0
9520,-2000,4,1,2,90,0,0
9552,-83.3333333333333,4,1,2,90,0,0
9727,-125,4,1,2,90,0,0
9769,-200,4,1,2,90,0,0
9811,-500,4,1,2,90,0,0
9832,-66.6666666666667,4,1,2,90,0,0
9873,-1000,4,1,2,90,0,0
9908,-66.6666666666667,4,1,2,90,0,0
9957,-1000,4,1,2,90,0,0
9987,-66.6666666666667,4,1,2,90,0,0
10040,-2000,4,1,2,90,0,0
10073,-83.3333333333333,4,1,2,90,0,0
10227,-125,4,1,2,90,0,0
10269,-200,4,1,2,90,0,0
10311,-500,4,1,2,90,0,0
10332,-71.4285714285714,4,1,2,90,0,0
10373,-1000,4,1,2,90,0,0
10408,-71.4285714285714,4,1,2,90,0,0
10457,-1000,4,1,2,90,0,0
10487,-71.4285714285714,4,1,2,90,0,0
10540,-2000,4,1,2,90,0,0
10573,-83.3333333333333,4,1,2,90,0,0
10707,-333.333333333333,4,1,2,90,0,0
10738,-64.5161290322581,4,1,2,90,0,0
10790,-333.333333333333,4,1,2,90,0,0
10826,-64.5161290322581,4,1,2,90,0,0
10873,-333.333333333333,4,1,2,90,0,0
10905,-64.5161290322581,4,1,2,90,0,0
10957,-333.333333333333,4,1,2,90,0,0
10987,-64.5161290322581,4,1,2,90,0,0
11008,-200,4,1,2,90,0,0
11091,-66.6666666666667,4,1,2,90,0,0
11170,-100,4,1,2,90,0,0
11258,-200,4,1,2,90,0,0
11321,-50,4,1,2,90,0,0
11383,-200,4,1,2,90,0,0
11446,-100,4,1,2,90,0,0
11508,-200,4,1,2,90,0,0
11591,-66.6666666666667,4,1,2,90,0,0
11669,-100,4,1,2,90,0,0
11841,-200,4,1,2,90,0,0
11966,-50,4,1,2,90,0,0
12050,-200,4,1,2,90,0,0
12112,-100,4,1,2,90,0,0
12341,-200,4,1,2,90,0,0
12425,-66.6666666666667,4,1,2,90,0,0
12502,-100,4,1,2,90,0,0
12591,-200,4,1,2,90,0,0
12654,-50,4,1,2,90,0,0
12716,-200,4,1,2,90,0,0
12779,-100,4,1,2,90,0,0
13008,-200,4,1,2,90,0,0
13091,-66.6666666666667,4,1,2,90,0,0
13186,-2000,4,1,2,90,0,0
13216,-83.3333333333333,4,1,2,90,0,0
13353,-2000,4,1,2,90,0,0
13383,-83.3333333333333,4,1,2,90,0,0
13520,-2000,4,1,2,90,0,0
13550,-83.3333333333333,4,1,2,90,0,0
13654,-100,4,1,2,90,0,0
13675,-200,4,1,2,90,0,0
13758,-66.6666666666667,4,1,2,90,0,0
13835,-100,4,1,2,90,0,0
13925,-200,4,1,2,90,0,0
13987,-50,4,1,2,90,0,0
14050,-200,4,1,2,90,0,0
14112,-100,4,1,2,90,0,0
14175,-200,4,1,2,90,0,0
14258,-66.6666666666667,4,1,2,90,0,0
14335,-100,4,1,2,90,0,0
14508,-200,4,1,2,90,0,0
14633,-50,4,1,2,90,0,0
14716,-200,4,1,2,90,0,0
14779,-100,4,1,2,90,0,0
15008,-200,4,1,2,90,0,0
15091,-66.6666666666667,4,1,2,90,0,0
15169,-100,4,1,2,90,0,0
15258,-200,4,1,2,90,0,0
15321,-50,4,1,2,90,0,0
15383,-200,4,1,2,90,0,0
15446,-100,4,1,2,90,0,0
15675,-200,4,1,2,90,0,0
15737,-50,4,1,2,90,0,0
15758,-100,4,1,2,90,0,0
15841,-200,4,1,2,90,0,0
15925,-66.6666666666667,4,1,2,90,0,0
16050,-200,4,1,2,90,0,0
16133,-100,4,1,2,90,0,0
16341,-200,4,1,2,90,0,0
16425,-66.6666666666667,4,1,2,90,0,0
16508,-100,4,1,2,90,0,0
16591,-200,4,1,2,90,0,0
16654,-50,4,1,2,90,0,0
16716,-200,4,1,2,90,0,0
16779,-100,4,1,2,90,0,0
16841,-200,4,1,2,90,0,0
16925,-66.6666666666667,4,1,2,90,0,0
17008,-100,4,1,2,90,0,0
17175,-200,4,1,2,90,0,0
17300,-50,4,1,2,90,0,0
17383,-200,4,1,2,90,0,0
17446,-100,4,1,2,90,0,0
17675,-200,4,1,2,90,0,0
17758,-66.6666666666667,4,1,2,90,0,0
17841,-100,4,1,2,90,0,0
17925,-200,4,1,2,90,0,0
17987,-50,4,1,2,90,0,0
18050,-200,4,1,2,90,0,0
18112,-100,4,1,2,90,0,0
18341,-200,4,1,2,90,0,0
18425,-66.6666666666667,4,1,2,90,0,0
18519,-2000,4,1,2,90,0,0
18550,-83.3333333333333,4,1,2,90,0,0
18686,-2000,4,1,2,90,0,0
18716,-83.3333333333333,4,1,2,90,0,0
18852,-2000,4,1,2,90,0,0
18883,-83.3333333333333,4,1,2,90,0,0
18987,-100,4,1,2,90,0,0
19008,-200,4,1,2,90,0,0
19091,-66.6666666666667,4,1,2,90,0,0
19175,-100,4,1,2,90,0,0
19258,-200,4,1,2,90,0,0
19321,-50,4,1,2,90,0,0
19383,-200,4,1,2,90,0,0
19446,-100,4,1,2,90,0,0
19675,-200,4,1,2,90,0,0
19737,-50,4,1,2,90,0,0
19758,-100,4,1,2,90,0,0
19841,-200,4,1,2,90,0,0
19966,-50,4,1,2,90,0,0
20050,-200,4,1,2,90,0,0
20112,-100,4,1,2,90,0,0
21675,-100,4,1,2,90,0,0
21957,-133.333333333333,4,1,2,90,0,0
21998,-52.6315789473684,4,1,2,90,0,0
22061,-100,4,1,2,90,0,0
22623,-133.333333333333,4,1,2,90,0,0
22665,-52.6315789473684,4,1,2,90,0,0
22727,-100,4,1,2,90,0,0
23290,-133.333333333333,4,1,2,90,0,0
23332,-52.6315789473684,4,1,2,90,0,0
23394,-100,4,1,2,90,0,0
23957,-133.333333333333,4,1,2,90,0,0
23998,-52.6315789473684,4,1,2,90,0,0
24061,-100,4,1,2,90,0,0
24623,-133.333333333333,4,1,2,90,0,0
24665,-52.6315789473684,4,1,2,90,0,0
24727,-100,4,1,2,90,0,0
25290,-133.333333333333,4,1,2,90,0,0
25332,-52.6315789473684,4,1,2,90,0,0
25394,-100,4,1,2,90,0,0
25957,-133.333333333333,4,1,2,90,0,0
25998,-52.6315789473684,4,1,2,90,0,0
26061,-100,4,1,2,90,0,0
26623,-133.333333333333,4,1,2,90,0,0
26665,-52.6315789473684,4,1,2,90,0,0
26727,-100,4,1,2,90,0,0
27290,-133.333333333333,4,1,2,90,0,0
27332,-52.6315789473684,4,1,2,90,0,0
27394,-100,4,1,2,90,0,0
27957,-133.333333333333,4,1,2,90,0,0
27998,-52.6315789473684,4,1,2,90,0,0
28061,-100,4,1,2,90,0,0
28623,-133.333333333333,4,1,2,90,0,0
28665,-52.6315789473684,4,1,2,90,0,0
28727,-100,4,1,2,90,0,0
29290,-133.333333333333,4,1,2,90,0,0
29332,-52.6315789473684,4,1,2,90,0,0
29394,-100,4,1,2,90,0,0
29957,-133.333333333333,4,1,2,90,0,0
29998,-52.6315789473684,4,1,2,90,0,0
30061,-100,4,1,2,90,0,0
30623,-133.333333333333,4,1,2,90,0,0
30665,-52.6315789473684,4,1,2,90,0,0
30727,-100,4,1,2,90,0,0
32332,-50,4,1,2,90,0,0
32511,-66.6666666666667,4,1,2,90,0,0
32552,-100,4,1,2,90,0,0
32594,-200,4,1,2,90,0,0
32623,-400,4,1,2,90,0,0
32644,-1000,4,1,2,90,0,0
32665,-80,4,1,2,90,0,0
32707,-1000,4,1,2,90,0,0
32737,-100,4,1,2,90,0,0
33271,-2000,4,1,2,90,0,0
33313,-47.6190476190476,4,1,2,90,0,0
33354,-100,4,1,2,90,0,0
33938,-2000,4,1,2,90,0,0
33979,-47.6190476190476,4,1,2,90,0,0
34021,-100,4,1,2,90,0,0
34438,-2000,4,1,2,90,0,0
34479,-47.6190476190476,4,1,2,90,0,0
34521,-100,4,1,2,90,0,0
34604,-2000,4,1,2,90,0,0
34646,-47.6190476190476,4,1,2,90,0,0
34688,-100,4,1,2,90,0,0
35271,-2000,4,1,2,90,0,0
35313,-47.6190476190476,4,1,2,90,0,0
35354,-100,4,1,2,90,0,0
35938,-2000,4,1,2,90,0,0
35979,-47.6190476190476,4,1,2,90,0,0
36021,-100,4,1,2,90,0,0
36604,-2000,4,1,2,90,0,0
36646,-47.6190476190476,4,1,2,90,0,0
36688,-100,4,1,2,90,0,0
37104,-2000,4,1,2,90,0,0
37146,-47.6190476190476,4,1,2,90,0,0
37188,-100,4,1,2,90,0,0
37271,-2000,4,1,2,90,0,0
37313,-47.6190476190476,4,1,2,90,0,0
37354,-100,4,1,2,90,0,0
37938,-2000,4,1,2,90,0,0
37979,-47.6190476190476,4,1,2,90,0,0
38021,-100,4,1,2,90,0,0
38604,-1000,4,1,2,90,0,0
38646,-47.6190476190476,4,1,2,90,0,0
38688,-100,4,1,2,90,0,0
39271,-2000,4,1,2,90,0,0
39313,-47.6190476190476,4,1,2,90,0,0
39354,-100,4,1,2,90,0,0
39771,-2000,4,1,2,90,0,0
39813,-50,4,1,2,90,0,0
39854,-100,4,1,2,90,0,0
39938,-2000,4,1,2,90,0,0
39979,-50,4,1,2,90,0,0
40021,-100,4,1,2,90,0,0
40104,-2000,4,1,2,90,0,0
40146,-50,4,1,2,90,0,0
40188,-100,4,1,2,90,0,0
40271,-2000,4,1,2,90,0,0
40313,-50,4,1,2,90,0,0
40354,-100,4,1,2,90,0,0
40375,-10000,4,1,2,90,0,0
40623,-50,4,1,2,90,0,0
40707,-10000,4,1,2,90,0,0
40957,-50,4,1,2,90,0,0
41040,-10000,4,1,2,90,0,0
41123,-50,4,1,2,90,0,0
41207,-10000,4,1,2,90,0,0
41457,-76.9230769230769,4,1,2,90,0,0
41540,-100,4,1,2,90,0,0
41644,-71.4285714285714,4,1,2,90,0,0
41707,-100,4,1,2,90,0,0
41811,-62.5,4,1,2,90,0,0
41873,-100,4,1,2,90,0,0
41977,-55.5555555555556,4,1,2,90,0,0
42040,-100,4,1,2,90,0,0
42144,-71.4285714285714,4,1,2,90,0,0
42207,-100,4,1,2,90,0,0
42311,-66.6666666666667,4,1,2,90,0,0
42373,-100,4,1,2,90,0,0
42477,-62.5,4,1,2,90,0,0
42540,-100,4,1,2,90,0,0
42644,-58.8235294117647,4,1,2,90,0,0
42707,-100,4,1,2,90,0,0
42811,-55.5555555555556,4,1,2,90,0,0
42873,-100,4,1,2,90,0,0
42977,-52.6315789473684,4,1,2,90,0,0
43040,-200,4,1,2,90,0,0
43102,-66.6666666666667,4,1,2,90,0,0
43207,-100,4,1,2,90,0,0
43540,-200,4,1,2,90,0,0
43602,-66.6666666666667,4,1,2,90,0,0
43707,-100,4,1,2,90,0,0
44040,-200,4,1,2,90,0,0
44102,-66.6666666666667,4,1,2,90,0,0
44207,-100,4,1,2,90,0,0
44540,-200,4,1,2,90,0,0
44602,-66.6666666666667,4,1,2,90,0,0
44707,-100,4,1,2,90,0,0
45040,-200,4,1,2,90,0,0
45102,-66.6666666666667,4,1,2,90,0,0
45207,-100,4,1,2,90,0,0
45373,-200,4,1,2,90,0,0
45436,-66.6666666666667,4,1,2,90,0,0
45540,-200,4,1,2,90,0,0
45602,-66.6666666666667,4,1,2,90,0,0
45707,-100,4,1,2,90,0,0
46040,-200,4,1,2,90,0,0
46102,-66.6666666666667,4,1,2,90,0,0
46207,-100,4,1,2,90,0,0
46540,-200,4,1,2,90,0,0
46602,-66.6666666666667,4,1,2,90,0,0
46707,-100,4,1,2,90,0,0
47040,-200,4,1,2,90,0,0
47102,-66.6666666666667,4,1,2,90,0,0
47207,-100,4,1,2,90,0,0
47540,-200,4,1,2,90,0,0
47602,-66.6666666666667,4,1,2,90,0,0
47707,-200,4,1,2,90,0,0
47769,-66.6666666666667,4,1,2,90,0,0
47873,-100,4,1,2,90,0,0
48040,-200,4,1,2,90,0,0
48102,-66.6666666666667,4,1,2,90,0,0
48207,-100,4,1,2,90,0,0
48540,-200,4,1,2,90,0,0
48602,-66.6666666666667,4,1,2,90,0,0
48707,-100,4,1,2,90,0,0
48873,-200,4,1,2,90,0,0
48936,-66.6666666666667,4,1,2,90,0,0
49040,-200,4,1,2,90,0,0
49102,-66.6666666666667,4,1,2,90,0,0
49207,-100,4,1,2,90,0,0
49540,-200,4,1,2,90,0,0
49602,-66.6666666666667,4,1,2,90,0,0
49707,-100,4,1,2,90,0,0
50040,-200,4,1,2,90,0,0
50102,-66.6666666666667,4,1,2,90,0,0
50207,-100,4,1,2,90,0,0
50540,-200,4,1,2,90,0,0
50602,-66.6666666666667,4,1,2,90,0,0
50707,-200,4,1,2,90,0,0
50769,-66.6666666666667,4,1,2,90,0,0
50873,-100,4,1,2,90,0,0
51040,-200,4,1,2,90,0,0
51102,-66.6666666666667,4,1,2,90,0,0
51207,-100,4,1,2,90,0,0
51540,-200,4,1,2,90,0,0
51602,-66.6666666666667,4,1,2,90,0,0
51707,-100,4,1,2,90,0,0
52040,-200,4,1,2,90,0,0
52102,-66.6666666666667,4,1,2,90,0,0
52207,-100,4,1,2,90,0,0
52540,-200,4,1,2,90,0,0
52602,-66.6666666666667,4,1,2,90,0,0
52707,-100,4,1,2,90,0,0
52977,-66.6666666666667,4,1,2,90,0,0
53040,-100,4,1,2,90,0,0
53144,-57.1428571428571,4,1,2,90,0,0
53207,-100,4,1,2,90,0,0
53311,-50,4,1,2,90,0,0
53373,-100,4,1,2,90,0,0
53477,-44.4444444444445,4,1,2,90,0,0
53540,-100,4,1,2,90,0,0
53644,-40,4,1,2,90,0,0
53707,-100,4,1,2,90,0,0
53873,-200,4,1,2,90,0,0
53936,-66.6666666666667,4,1,2,90,0,0
54040,-100,4,1,2,90,0,0
54207,-200,4,1,2,90,0,0
54269,-66.6666666666667,4,1,2,90,0,0
54373,-200,4,1,2,90,0,0
54436,-66.6666666666667,4,1,2,90,0,0
54540,-100,4,1,2,90,0,0
54873,-200,4,1,2,90,0,0
54936,-66.6666666666667,4,1,2,90,0,0
55040,-100,4,1,2,90,0,0
55373,-200,4,1,2,90,0,0
55436,-66.6666666666667,4,1,2,90,0,0
55540,-100,4,1,2,90,0,0
55873,-200,4,1,2,90,0,0
55936,-66.6666666666667,4,1,2,90,0,0
56040,-200,4,1,2,90,0,0
56102,-66.6666666666667,4,1,2,90,0,0
56207,-100,4,1,2,90,0,0
56373,-200,4,1,2,90,0,0
56436,-66.6666666666667,4,1,2,90,0,0
56540,-100,4,1,2,90,0,0
56873,-200,4,1,2,90,0,0
56936,-66.6666666666667,4,1,2,90,0,0
57040,-100,4,1,2,90,0,0
57373,-200,4,1,2,90,0,0
57436,-66.6666666666667,4,1,2,90,0,0
57540,-100,4,1,2,90,0,0
57873,-200,4,1,2,90,0,0
57936,-66.6666666666667,4,1,2,90,0,0
58040,-100,4,1,2,90,0,0
58207,-200,4,1,2,90,0,0
58269,-66.6666666666667,4,1,2,90,0,0
58373,-200,4,1,2,90,0,0
58436,-66.6666666666667,4,1,2,90,0,0
58540,-100,4,1,2,90,0,0
58707,-200,4,1,2,90,0,0
58769,-66.6666666666667,4,1,2,90,0,0
58873,-100,4,1,2,90,0,0
59207,-200,4,1,2,90,0,0
59269,-66.6666666666667,4,1,2,90,0,0
59373,-100,4,1,2,90,0,0
59540,-200,4,1,2,90,0,0
59602,-66.6666666666667,4,1,2,90,0,0
59707,-200,4,1,2,90,0,0
59769,-66.6666666666667,4,1,2,90,0,0
59873,-100,4,1,2,90,0,0
60207,-200,4,1,2,90,0,0
60269,-66.6666666666667,4,1,2,90,0,0
60373,-100,4,1,2,90,0,0
60707,-200,4,1,2,90,0,0
60769,-66.6666666666667,4,1,2,90,0,0
60873,-100,4,1,2,90,0,0
61207,-200,4,1,2,90,0,0
61269,-66.6666666666667,4,1,2,90,0,0
61373,-200,4,1,2,90,0,0
61436,-66.6666666666667,4,1,2,90,0,0
61540,-200,4,1,2,90,0,0
61602,-66.6666666666667,4,1,2,90,0,0
61707,-400,4,1,2,90,0,0
61811,-50,4,1,2,90,0,0
61873,-200,4,1,2,90,0,0
62082,-66.6666666666667,4,1,2,90,0,0
62207,-400,4,1,2,90,0,0
62311,-50,4,1,2,90,0,0
62373,-200,4,1,2,90,0,0
62561,-66.6666666666667,4,1,2,90,0,0
62707,-400,4,1,2,90,0,0
62811,-50,4,1,2,90,0,0
62873,-400,4,1,2,90,0,0
62977,-50,4,1,2,90,0,0
63040,-400,4,1,2,90,0,0
63332,-71.4285714285714,4,1,2,90,0,0
63540,-100,4,1,2,90,0,0
63707,-400,4,1,2,90,0,0
63811,-50,4,1,2,90,0,0
63873,-400,4,1,2,90,0,0
63977,-50,4,1,2,90,0,0
64040,-400,4,1,2,90,0,0
64144,-50,4,1,2,90,0,0
64207,-400,4,1,2,90,0,0
64311,-50,4,1,2,90,0,0
64373,-100,4,1,2,90,0,0
74144,-90.9090909090909,4,1,2,90,0,0
74207,-133.333333333333,4,1,2,90,0,0
74311,-76.9230769230769,4,1,2,90,0,0
74373,-133.333333333333,4,1,2,90,0,0
74477,-66.6666666666667,4,1,2,90,0,0
74540,-133.333333333333,4,1,2,90,0,0
74644,-58.8235294117647,4,1,2,90,0,0
74707,-133.333333333333,4,1,2,90,0,0
74811,-52.6315789473684,4,1,2,90,0,0
74873,-133.333333333333,4,1,2,90,0,0
74977,-50,4,1,2,90,0,0
75040,-100,4,1,2,90,0,0
84341,-50,4,1,2,90,0,0
84383,-151.515151515152,4,1,2,90,0,0
84508,-50,4,1,2,90,0,0
84550,-151.515151515152,4,1,2,90,0,0
84675,-50,4,1,2,90,0,0
84717,-151.515151515152,4,1,2,90,0,0
84841,-50,4,1,2,90,0,0
84883,-151.515151515152,4,1,2,90,0,0
85008,-50,4,1,2,90,0,0
85050,-151.515151515152,4,1,2,90,0,0
85175,-50,4,1,2,90,0,0
85217,-151.515151515152,4,1,2,90,0,0
85341,-50,4,1,2,90,0,0
85383,-151.515151515152,4,1,2,90,0,0
85508,-50,4,1,2,90,0,0
85550,-151.515151515152,4,1,2,90,0,0
85693,-117.647058823529,4,1,2,90,0,0
96311,-108.695652173913,4,1,2,90,0,0
101602,-200,4,1,2,90,0,0
101644,-50,4,1,2,90,0,0
101686,-111.111111111111,4,1,2,90,0,0
101936,-200,4,1,2,90,0,0
101977,-50,4,1,2,90,0,0
102019,-111.111111111111,4,1,2,90,0,0
102269,-200,4,1,2,90,0,0
102311,-50,4,1,2,90,0,0
102352,-111.111111111111,4,1,2,90,0,0
102602,-200,4,1,2,90,0,0
102644,-50,4,1,2,90,0,0
102686,-111.111111111111,4,1,2,90,0,0
102936,-200,4,1,2,90,0,0
102977,-50,4,1,2,90,0,0
103019,-111.111111111111,4,1,2,90,0,0
103269,-200,4,1,2,90,0,0
103311,-50,4,1,2,90,0,0
103352,-111.111111111111,4,1,2,90,0,0
103602,-200,4,1,2,90,0,0
103644,-50,4,1,2,90,0,0
103686,-111.111111111111,4,1,2,90,0,0
103936,-200,4,1,2,90,0,0
103977,-50,4,1,2,90,0,0
104019,-111.111111111111,4,1,2,90,0,0
104269,-200,4,1,2,90,0,0
104311,-50,4,1,2,90,0,0
104352,-111.111111111111,4,1,2,90,0,0
104602,-200,4,1,2,90,0,0
104644,-50,4,1,2,90,0,0
104686,-111.111111111111,4,1,2,90,0,0
104936,-200,4,1,2,90,0,0
104977,-50,4,1,2,90,0,0
105019,-111.111111111111,4,1,2,90,0,0
105269,-200,4,1,2,90,0,0
105311,-50,4,1,2,90,0,0
105352,-111.111111111111,4,1,2,90,0,0
105602,-200,4,1,2,90,0,0
105644,-50,4,1,2,90,0,0
105686,-111.111111111111,4,1,2,90,0,0
105936,-200,4,1,2,90,0,0
105977,-50,4,1,2,90,0,0
106014,-111.111111111111,4,1,2,90,0,0
106264,-200,4,1,2,90,0,0
106306,-50,4,1,2,90,0,0
106347,-111.111111111111,4,1,2,90,0,0
106597,-200,4,1,2,90,0,0
106639,-100,4,1,2,90,0,0
106702,-66.6666666666667,4,1,2,90,0,0
106768,-200,4,1,2,90,0,0
106785,-66.6666666666667,4,1,2,90,0,0
106852,-200,4,1,2,90,0,0
106868,-66.6666666666667,4,1,2,90,0,0
106935,-200,4,1,2,90,0,0
106952,-66.6666666666667,4,1,2,90,0,0
107016,-2000,4,1,2,90,0,0
107120,-62.5,4,1,2,90,0,0
107183,-2000,4,1,2,90,0,0
107287,-62.5,4,1,2,90,0,0
107349,-2000,4,1,2,90,0,0
107453,-62.5,4,1,2,90,0,0
107516,-1000,4,1,2,90,0,0
107558,-57.1428571428571,4,1,2,90,0,0
107599,-1000,4,1,2,90,0,0
107640,-57.1428571428571,4,1,2,90,0,0
107683,-2000,4,1,2,90,0,0
107787,-62.5,4,1,2,90,0,0
107849,-1000,4,1,2,90,0,0
107890,-57.1428571428571,4,1,2,90,0,0
107933,-1000,4,1,2,90,0,0
107973,-57.1428571428571,4,1,2,90,0,0
108016,-2000,4,1,2,90,0,0
108108,-62.5,4,1,2,90,0,0
108181,-100,4,1,2,90,0,0
108183,-2000,4,1,2,90,0,0
108275,-62.5,4,1,2,90,0,0
108348,-100,4,1,2,90,0,0
108349,-2000,4,1,2,90,0,0
108442,-62.5,4,1,2,90,0,0
108512,-100,4,1,2,90,0,0
108516,-2000,4,1,2,90,0,0
108608,-62.5,4,1,2,90,0,0
108681,-100,4,1,2,90,0,0
108683,-2000,4,1,2,90,0,0
108775,-62.5,4,1,2,90,0,0
108848,-100,4,1,2,90,0,0
108849,-1000,4,1,2,90,0,0
108896,-57.1428571428571,4,1,2,90,0,0
108923,-1000,4,1,2,90,0,0
108978,-57.1428571428571,4,1,2,90,0,0
109016,-2000,4,1,2,90,0,0
109098,-62.5,4,1,2,90,0,0
109183,-1000,4,1,2,90,0,0
109227,-57.1428571428571,4,1,2,90,0,0
109256,-1000,4,1,2,90,0,0
109311,-57.1428571428571,4,1,2,90,0,0
109349,-2000,4,1,2,90,0,0
109443,-62.5,4,1,2,90,0,0
109512,-100,4,1,2,90,0,0
109516,-2000,4,1,2,90,0,0
109619,-62.5,4,1,2,90,0,0
109681,-100,4,1,2,90,0,0
109683,-2000,4,1,2,90,0,0
109775,-62.5,4,1,2,90,0,0
109849,-2000,4,1,2,90,0,0
109953,-62.5,4,1,2,90,0,0
110016,-2000,4,1,2,90,0,0
110120,-62.5,4,1,2,90,0,0
110183,-2000,4,1,2,90,0,0
110287,-62.5,4,1,2,90,0,0
110349,-2000,4,1,2,90,0,0
110453,-62.5,4,1,2,90,0,0
110516,-1000,4,1,2,90,0,0
110568,-57.1428571428571,4,1,2,90,0,0
110599,-1000,4,1,2,90,0,0
110651,-57.1428571428571,4,1,2,90,0,0
110683,-2000,4,1,2,90,0,0
110787,-62.5,4,1,2,90,0,0
110849,-2000,4,1,2,90,0,0
110953,-62.5,4,1,2,90,0,0
111016,-2000,4,1,2,90,0,0
111120,-62.5,4,1,2,90,0,0
111183,-2000,4,1,2,90,0,0
111287,-62.5,4,1,2,90,0,0
111349,-2000,4,1,2,90,0,0
111453,-62.5,4,1,2,90,0,0
111516,-2000,4,1,2,90,0,0
111620,-62.5,4,1,2,90,0,0
111683,-2000,4,1,2,90,0,0
111787,-62.5,4,1,2,90,0,0
111849,-1000,4,1,2,90,0,0
111901,-57.1428571428571,4,1,2,90,0,0
111933,-1000,4,1,2,90,0,0
111984,-57.1428571428571,4,1,2,90,0,0
112016,-2000,4,1,2,90,0,0
112070,-62.5,4,1,2,90,0,0
112183,-2000,4,1,2,90,0,0
112237,-62.5,4,1,2,90,0,0
112349,-1000,4,1,2,90,0,0
112401,-57.1428571428571,4,1,2,90,0,0
112433,-1000,4,1,2,90,0,0
112484,-57.1428571428571,4,1,2,90,0,0
112516,-2000,4,1,2,90,0,0
112620,-62.5,4,1,2,90,0,0
112683,-2000,4,1,2,90,0,0
112787,-62.5,4,1,2,90,0,0
112849,-2000,4,1,2,90,0,0
112953,-62.5,4,1,2,90,0,0
113016,-2000,4,1,2,90,0,0
113120,-62.5,4,1,2,90,0,0
113183,-1000,4,1,2,90,0,0
113234,-57.1428571428571,4,1,2,90,0,0
113266,-1000,4,1,2,90,0,0
113318,-57.1428571428571,4,1,2,90,0,0
113349,-2000,4,1,2,90,0,0
113453,-62.5,4,1,2,90,0,0
113516,-2000,4,1,2,90,0,0
113620,-62.5,4,1,2,90,0,0
113683,-2000,4,1,2,90,0,0
113787,-62.5,4,1,2,90,0,0
113849,-1000,4,1,2,90,0,0
113901,-55.5555555555556,4,1,2,90,0,0
113933,-1000,4,1,2,90,0,0
113984,-55.5555555555556,4,1,2,90,0,0
114016,-1000,4,1,2,90,0,0
114068,-55.5555555555556,4,1,2,90,0,0
114099,-1000,4,1,2,90,0,0
114151,-55.5555555555556,4,1,2,90,0,0
114183,-2000,4,1,2,90,0,0
114287,-62.5,4,1,2,90,0,0
114349,-2000,4,1,2,90,0,0
114453,-62.5,4,1,2,90,0,0
114516,-2000,4,1,2,90,0,0
114620,-62.5,4,1,2,90,0,0
114683,-1000,4,1,2,90,0,0
114734,-57.1428571428571,4,1,2,90,0,0
114766,-1000,4,1,2,90,0,0
114818,-57.1428571428571,4,1,2,90,0,0
114849,-2000,4,1,2,90,0,0
114953,-62.5,4,1,2,90,0,0
115016,-2000,4,1,2,90,0,0
115120,-62.5,4,1,2,90,0,0
115183,-2000,4,1,2,90,0,0
115287,-62.5,4,1,2,90,0,0
115349,-2000,4,1,2,90,0,0
115453,-62.5,4,1,2,90,0,0
115516,-2000,4,1,2,90,0,0
115620,-62.5,4,1,2,90,0,0
115683,-2000,4,1,2,90,0,0
115787,-62.5,4,1,2,90,0,0
115849,-1000,4,1,2,90,0,0
115901,-57.1428571428571,4,1,2,90,0,0
115933,-1000,4,1,2,90,0,0
115984,-57.1428571428571,4,1,2,90,0,0
116016,-2000,4,1,2,90,0,0
116120,-62.5,4,1,2,90,0,0
116183,-2000,4,1,2,90,0,0
116287,-62.5,4,1,2,90,0,0
116349,-2000,4,1,2,90,0,0
116453,-62.5,4,1,2,90,0,0
116516,-1000,4,1,2,90,0,0
116568,-57.1428571428571,4,1,2,90,0,0
116599,-1000,4,1,2,90,0,0
116651,-57.1428571428571,4,1,2,90,0,0
116698,-1000,4,1,2,90,0,0
116749,-57.1428571428571,4,1,2,90,0,0
116790,-1000,4,1,2,90,0,0
116832,-57.1428571428571,4,1,2,90,0,0
116873,-1000,4,1,2,90,0,0
116905,-54.9450549450549,4,1,2,90,0,0
116957,-1000,4,1,2,90,0,0
116988,-52.9100529100529,4,1,2,90,0,0
117040,-1000,4,1,2,90,0,0
117072,-51.0204081632653,4,1,2,90,0,0
117123,-1000,4,1,2,90,0,0
117155,-49.2610837438424,4,1,2,90,0,0
117207,-1000,4,1,2,90,0,0
117238,-47.6190476190476,4,1,2,90,0,0
117290,-1000,4,1,2,90,0,0
117322,-46.0829493087558,4,1,2,90,0,0
117373,-1000,4,1,2,90,0,0
117405,-44.6428571428571,4,1,2,90,0,0
117457,-1000,4,1,2,90,0,0
117488,-43.2900432900433,4,1,2,90,0,0
117540,-1000,4,1,2,90,0,0
117572,-42.0168067226891,4,1,2,90,0,0
117623,-1000,4,1,2,90,0,0
117655,-40.8163265306122,4,1,2,90,0,0
117703,-58.8235294117647,4,1,2,90,0,0
117723,-100,4,1,2,90,0,0
117744,-125,4,1,2,90,0,0
117765,-200,4,1,2,90,0,0
117786,-500,4,1,2,90,0,0
117807,-500,4,1,2,90,0,0
117828,-83.3333333333333,4,1,2,90,0,0
117864,-1000,4,1,2,90,0,0
117891,-55.5555555555556,4,1,2,90,0,0
117933,-1000,4,1,2,90,0,0
117974,-55.5555555555556,4,1,2,90,0,0
118016,-1000,4,1,2,90,0,0
118058,-55.5555555555556,4,1,2,90,0,0
118099,-1000,4,1,2,90,0,0
118141,-55.5555555555556,4,1,2,90,0,0
118183,-2000,4,1,2,90,0,0
118287,-62.5,4,1,2,90,0,0
118328,-2000,4,1,2,90,0,0
118422,-62.5,4,1,2,90,0,0
118516,-1000,4,1,2,90,0,0
118572,-57.1428571428571,4,1,2,90,0,0
118599,-1000,4,1,2,90,0,0
118653,-57.1428571428571,4,1,2,90,0,0
118683,-2000,4,1,2,90,0,0
118787,-62.5,4,1,2,90,0,0
118849,-1000,4,1,2,90,0,0
118891,-55.5555555555556,4,1,2,90,0,0
118933,-1000,4,1,2,90,0,0
118974,-57.1428571428571,4,1,2,90,0,0
119016,-2000,4,1,2,90,0,0
119093,-55.5555555555556,4,1,2,90,0,0
119183,-1000,4,1,2,90,0,0
119224,-57.1428571428571,4,1,2,90,0,0
119266,-2000,4,1,2,90,0,0
119343,-52.6315789473684,4,1,2,90,0,0
119433,-1000,4,1,2,90,0,0
119474,-57.1428571428571,4,1,2,90,0,0
119516,-2000,4,1,2,90,0,0
119620,-62.5,4,1,2,90,0,0
119683,-2000,4,1,2,90,0,0
119787,-62.5,4,1,2,90,0,0
119849,-2000,4,1,2,90,0,0
119919,-62.5,4,1,2,90,0,0
120016,-1000,4,1,2,90,0,0
120072,-57.1428571428571,4,1,2,90,0,0
120099,-1000,4,1,2,90,0,0
120154,-57.1428571428571,4,1,2,90,0,0
120183,-2000,4,1,2,90,0,0
120287,-62.5,4,1,2,90,0,0
120349,-2000,4,1,2,90,0,0
120453,-62.5,4,1,2,90,0,0
120516,-2000,4,1,2,90,0,0
120620,-62.5,4,1,2,90,0,0
120683,-1000,4,1,2,90,0,0
120739,-57.1428571428571,4,1,2,90,0,0
120766,-1000,4,1,2,90,0,0
120822,-57.1428571428571,4,1,2,90,0,0
120849,-2000,4,1,2,90,0,0
120953,-62.5,4,1,2,90,0,0
121016,-2000,4,1,2,90,0,0
121120,-62.5,4,1,2,90,0,0
121183,-1000,4,1,2,90,0,0
121237,-57.1428571428571,4,1,2,90,0,0
121266,-1000,4,1,2,90,0,0
121321,-57.1428571428571,4,1,2,90,0,0
121349,-2000,4,1,2,90,0,0
121453,-62.5,4,1,2,90,0,0
121516,-2000,4,1,2,90,0,0
121620,-62.5,4,1,2,90,0,0
121683,-1000,4,1,2,90,0,0
121736,-57.1428571428571,4,1,2,90,0,0
121766,-1000,4,1,2,90,0,0
121820,-57.1428571428571,4,1,2,90,0,0
121849,-1000,4,1,2,90,0,0
121904,-57.1428571428571,4,1,2,90,0,0
121933,-1000,4,1,2,90,0,0
121987,-57.1428571428571,4,1,2,90,0,0
122016,-2000,4,1,2,90,0,0
122120,-62.5,4,1,2,90,0,0
122183,-2000,4,1,2,90,0,0
122287,-62.5,4,1,2,90,0,0
122349,-1000,4,1,2,90,0,0
122403,-57.1428571428571,4,1,2,90,0,0
122433,-1000,4,1,2,90,0,0
122486,-57.1428571428571,4,1,2,90,0,0
122516,-2000,4,1,2,90,0,0
122620,-62.5,4,1,2,90,0,0
122683,-2000,4,1,2,90,0,0
122736,-55.5555555555556,4,1,2,90,0,0
122766,-2000,4,1,2,90,0,0
122820,-55.5555555555556,4,1,2,90,0,0
122849,-2000,4,1,2,90,0,0
122903,-55.5555555555556,4,1,2,90,0,0
122933,-2000,4,1,2,90,0,0
122986,-55.5555555555556,4,1,2,90,0,0
123037,-2000,4,1,2,90,0,0
123120,-62.5,4,1,2,90,0,0
123203,-2000,4,1,2,90,0,0
123287,-62.5,4,1,2,90,0,0
123370,-2000,4,1,2,90,0,0
123453,-62.5,4,1,2,90,0,0
123516,-1000,4,1,2,90,0,0
123558,-57.1428571428571,4,1,2,90,0,0
123599,-1000,4,1,2,90,0,0
123641,-57.1428571428571,4,1,2,90,0,0
123683,-2000,4,1,2,90,0,0
123787,-62.5,4,1,2,90,0,0
123849,-2000,4,1,2,90,0,0
123953,-62.5,4,1,2,90,0,0
124016,-2000,4,1,2,90,0,0
124120,-62.5,4,1,2,90,0,0
124188,-1000,4,1,2,90,0,0
124241,-57.1428571428571,4,1,2,90,0,0
124271,-1000,4,1,2,90,0,0
124329,-57.1428571428571,4,1,2,90,0,0
124373,-1000,4,1,2,90,0,0
124425,-57.1428571428571,4,1,2,90,0,0
124457,-1000,4,1,2,90,0,0
124506,-57.1428571428571,4,1,2,90,0,0
124540,-1000,4,1,2,90,0,0
124588,-57.1428571428571,4,1,2,90,0,0
124623,-1000,4,1,2,90,0,0
124669,-57.1428571428571,4,1,2,90,0,0
124707,-1000,4,1,2,90,0,0
124750,-57.1428571428571,4,1,2,90,0,0
124790,-1000,4,1,2,90,0,0
124832,-57.1428571428571,4,1,2,90,0,0
124873,-1000,4,1,2,90,0,0
124915,-56.8181818181818,4,1,2,90,0,0
124957,-1000,4,1,2,90,0,0
124998,-56.4971751412429,4,1,2,90,0,0
125040,-1000,4,1,2,90,0,0
125082,-56.1797752808989,4,1,2,90,0,0
125123,-1000,4,1,2,90,0,0
125165,-55.8659217877095,4,1,2,90,0,0
125207,-1000,4,1,2,90,0,0
125248,-55.5555555555556,4,1,2,90,0,0
125290,-1000,4,1,2,90,0,0
125332,-55.2486187845304,4,1,2,90,0,0
125373,-1000,4,1,2,90,0,0
125415,-54.9450549450549,4,1,2,90,0,0
125457,-1000,4,1,2,90,0,0
125498,-54.6448087431694,4,1,2,90,0,0
125540,-1000,4,1,2,90,0,0
125582,-54.3478260869565,4,1,2,90,0,0
125623,-1000,4,1,2,90,0,0
125665,-54.054054054054,4,1,2,90,0,0
125707,-1000,4,1,2,90,0,0
125748,-53.763440860215,4,1,2,90,0,0
125790,-1000,4,1,2,90,0,0
125832,-53.475935828877,4,1,2,90,0,0
125873,-1000,4,1,2,90,0,0
125915,-53.1914893617021,4,1,2,90,0,0
125957,-1000,4,1,2,90,0,0
125998,-52.9100529100529,4,1,2,90,0,0
126034,-1000,4,1,2,90,0,0
126053,-52.6315789473684,4,1,2,90,0,0
126076,-1000,4,1,2,90,0,0
126096,-52.6315789473684,4,1,2,90,0,0
126123,-1000,4,1,2,90,0,0
126165,-52.3560209424084,4,1,2,90,0,0
126207,-1000,4,1,2,90,0,0
126248,-52.0833333333333,4,1,2,90,0,0
126290,-1000,4,1,2,90,0,0
126332,-51.8134715025907,4,1,2,90,0,0
126373,-1000,4,1,2,90,0,0
126415,-51.5463917525773,4,1,2,90,0,0
126457,-1000,4,1,2,90,0,0
126508,-49.7512437810945,4,1,2,90,0,0
126544,-1000,4,1,2,90,0,0
126563,-49.5049504950495,4,1,2,90,0,0
126586,-1000,4,1,2,90,0,0
126606,-49.5049504950495,4,1,2,90,0,0
126633,-1000,4,1,2,90,0,0
126675,-49.2610837438424,4,1,2,90,0,0
126717,-1000,4,1,2,90,0,0
126748,-50.5050505050505,4,1,2,90,0,0
126790,-1000,4,1,2,90,0,0
126832,-50.251256281407,4,1,2,90,0,0
126873,-1000,4,1,2,90,0,0
126915,-50,4,1,2,90,0,0
126957,-1000,4,1,2,90,0,0
126998,-49.7512437810945,4,1,2,90,0,0
127034,-1000,4,1,2,90,0,0
127053,-49.5049504950495,4,1,2,90,0,0
127076,-1000,4,1,2,90,0,0
127096,-49.5049504950495,4,1,2,90,0,0
127123,-1000,4,1,2,90,0,0
127165,-49.2610837438424,4,1,2,90,0,0
127207,-1000,4,1,2,90,0,0
127248,-49.0196078431373,4,1,2,90,0,0
127290,-1000,4,1,2,90,0,0
127332,-48.780487804878,4,1,2,90,0,0
127366,-1000,4,1,2,90,0,0
127405,-48.5436893203883,4,1,2,90,0,0
127408,-1000,4,1,2,90,0,0
127428,-48.5436893203883,4,1,2,90,0,0
127450,-1000,4,1,2,90,0,0
127471,-48.5436893203883,4,1,2,90,0,0
127491,-1000,4,1,2,90,0,0
127513,-48.5436893203883,4,1,2,90,0,0
127533,-1000,4,1,2,90,0,0
127553,-48.5436893203883,4,1,2,90,0,0
127575,-1000,4,1,2,90,0,0
127595,-48.5436893203883,4,1,2,90,0,0
127616,-1000,4,1,2,90,0,0
127637,-48.5436893203883,4,1,2,90,0,0
127658,-1000,4,1,2,90,0,0
127678,-48.5436893203883,4,1,2,90,0,0
127707,-1000,4,1,2,90,0,0
127748,-47.6190476190476,4,1,2,90,0,0
127790,-1000,4,1,2,90,0,0
127832,-46.5116279069767,4,1,2,90,0,0
127873,-1000,4,1,2,90,0,0
127915,-45.4545454545455,4,1,2,90,0,0
127957,-1000,4,1,2,90,0,0
127998,-20,4,1,2,90,0,0
128061,-25,4,1,2,90,0,0
128102,-50,4,1,2,90,0,0
128144,-100,4,1,2,90,0,0
128186,-133.333333333333,4,1,2,90,0,0
128227,-200,4,1,2,90,0,0
128269,-400,4,1,2,90,0,0
128311,-2000,4,1,2,90,0,0
128333,-90.9090909090909,4,1,2,90,0,0
128373,-2000,4,1,2,90,0,0
128403,-90.9090909090909,4,1,2,90,0,0
128540,-2000,4,1,2,90,0,0
128570,-90.9090909090909,4,1,2,90,0,0
128707,-2000,4,1,2,90,0,0
128737,-90.9090909090909,4,1,2,90,0,0
128873,-2000,4,1,2,90,0,0
128903,-90.9090909090909,4,1,2,90,0,0
129040,-2000,4,1,2,90,0,0
129070,-90.9090909090909,4,1,2,90,0,0
129207,-2000,4,1,2,90,0,0
129237,-90.9090909090909,4,1,2,90,0,0
129373,-2000,4,1,2,90,0,0
129403,-90.9090909090909,4,1,2,90,0,0
129540,-2000,4,1,2,90,0,0
129570,-90.9090909090909,4,1,2,90,0,0
129707,-2000,4,1,2,90,0,0
129737,-90.9090909090909,4,1,2,90,0,0
129873,-2000,4,1,2,90,0,0
129903,-90.9090909090909,4,1,2,90,0,0
130040,-2000,4,1,2,90,0,0
130070,-90.9090909090909,4,1,2,90,0,0
130207,-2000,4,1,2,90,0,0
130237,-90.9090909090909,4,1,2,90,0,0
130373,-2000,4,1,2,90,0,0
130403,-90.9090909090909,4,1,2,90,0,0
130540,-2000,4,1,2,90,0,0
130570,-90.9090909090909,4,1,2,90,0,0
130707,-2000,4,1,2,90,0,0
130737,-90.9090909090909,4,1,2,90,0,0
130873,-2000,4,1,2,90,0,0
130903,-90.9090909090909,4,1,2,90,0,0
131040,-2000,4,1,2,90,0,0
131070,-90.9090909090909,4,1,2,90,0,0
131207,-2000,4,1,2,90,0,0
131237,-90.9090909090909,4,1,2,90,0,0
131373,-2000,4,1,2,90,0,0
131403,-90.9090909090909,4,1,2,90,0,0
131540,-2000,4,1,2,90,0,0
131570,-90.9090909090909,4,1,2,90,0,0
131707,-2000,4,1,2,90,0,0
131737,-90.9090909090909,4,1,2,90,0,0
131873,-2000,4,1,2,90,0,0
131903,-90.9090909090909,4,1,2,90,0,0
132040,-2000,4,1,2,90,0,0
132070,-90.9090909090909,4,1,2,90,0,0
132207,-2000,4,1,2,90,0,0
132237,-90.9090909090909,4,1,2,90,0,0
132373,-2000,4,1,2,90,0,0
132403,-90.9090909090909,4,1,2,90,0,0
132540,-2000,4,1,2,90,0,0
132570,-90.9090909090909,4,1,2,90,0,0
132707,-2000,4,1,2,90,0,0
132737,-90.9090909090909,4,1,2,90,0,0
132873,-2000,4,1,2,90,0,0
132903,-90.9090909090909,4,1,2,90,0,0
133040,-2000,4,1,2,90,0,0
133070,-90.9090909090909,4,1,2,90,0,0
133207,-2000,4,1,2,90,0,0
133237,-90.9090909090909,4,1,2,90,0,0
133373,-2000,4,1,2,90,0,0
133413,-60.6060606060606,4,1,2,90,0,0
133457,-2000,4,1,2,90,0,0
133497,-60.6060606060606,4,1,2,90,0,0
133540,-2000,4,1,2,90,0,0
133580,-60.6060606060606,4,1,2,90,0,0
133623,-2000,4,1,2,90,0,0
133663,-60.6060606060606,4,1,2,90,0,0
133707,-2000,4,1,2,90,0,0
133737,-90.9090909090909,4,1,2,90,0,0
133873,-2000,4,1,2,90,0,0
133903,-90.9090909090909,4,1,2,90,0,0
134040,-2000,4,1,2,90,0,0
134070,-90.9090909090909,4,1,2,90,0,0
134207,-2000,4,1,2,90,0,0
134237,-90.9090909090909,4,1,2,90,0,0
134373,-2000,4,1,2,90,0,0
134403,-90.9090909090909,4,1,2,90,0,0
134540,-2000,4,1,2,90,0,0
134570,-90.9090909090909,4,1,2,90,0,0
134707,-2000,4,1,2,90,0,0
134737,-90.9090909090909,4,1,2,90,0,0
134873,-2000,4,1,2,90,0,0
134903,-90.9090909090909,4,1,2,90,0,0
135040,-2000,4,1,2,90,0,0
135070,-90.9090909090909,4,1,2,90,0,0
135207,-2000,4,1,2,90,0,0
135237,-90.9090909090909,4,1,2,90,0,0
135373,-2000,4,1,2,90,0,0
135403,-90.9090909090909,4,1,2,90,0,0
135540,-2000,4,1,2,90,0,0
135570,-90.9090909090909,4,1,2,90,0,0
135707,-2000,4,1,2,90,0,0
135737,-90.9090909090909,4,1,2,90,0,0
135873,-2000,4,1,2,90,0,0
135903,-90.9090909090909,4,1,2,90,0,0
136040,-2000,4,1,2,90,0,0
136070,-90.9090909090909,4,1,2,90,0,0
136207,-2000,4,1,2,90,0,0
136237,-90.9090909090909,4,1,2,90,0,0
136373,-2000,4,1,2,90,0,0
136403,-90.9090909090909,4,1,2,90,0,0
136540,-2000,4,1,2,90,0,0
136570,-90.9090909090909,4,1,2,90,0,0
136707,-2000,4,1,2,90,0,0
136737,-90.9090909090909,4,1,2,90,0,0
136873,-2000,4,1,2,90,0,0
136903,-90.9090909090909,4,1,2,90,0,0
137040,-2000,4,1,2,90,0,0
137070,-90.9090909090909,4,1,2,90,0,0
137207,-2000,4,1,2,90,0,0
137237,-90.9090909090909,4,1,2,90,0,0
137373,-2000,4,1,2,90,0,0
137403,-90.9090909090909,4,1,2,90,0,0
137540,-2000,4,1,2,90,0,0
137570,-90.9090909090909,4,1,2,90,0,0
137707,-2000,4,1,2,90,0,0
137737,-90.9090909090909,4,1,2,90,0,0
137873,-2000,4,1,2,90,0,0
137903,-90.9090909090909,4,1,2,90,0,0
138040,-2000,4,1,2,90,0,0
138070,-90.9090909090909,4,1,2,90,0,0
138207,-2000,4,1,2,90,0,0
138237,-90.9090909090909,4,1,2,90,0,0
138373,-2000,4,1,2,90,0,0
138403,-90.9090909090909,4,1,2,90,0,0
138457,-2000,4,1,2,90,0,0
138487,-90.9090909090909,4,1,2,90,0,0
138540,-2000,4,1,2,90,0,0
138570,-90.9090909090909,4,1,2,90,0,0
138623,-2000,4,1,2,90,0,0
138663,-60.6060606060606,4,1,2,90,0,0
138707,-2000,4,1,2,90,0,0
138747,-60.6060606060606,4,1,2,90,0,0
138790,-2000,4,1,2,90,0,0
138830,-60.6060606060606,4,1,2,90,0,0
138873,-2000,4,1,2,90,0,0
138913,-60.6060606060606,4,1,2,90,0,0
138957,-2000,4,1,2,90,0,0
139040,-33.3333333333333,4,1,2,90,0,0
139144,-66.6666666666667,4,1,2,90,0,0
139207,-100,4,1,2,90,0,0
139248,-200,4,1,2,90,0,0
139269,-400,4,1,2,90,0,0
139311,-80,4,1,2,90,0,0
139373,-2000,4,1,2,90,0,0
139403,-90.9090909090909,4,1,2,90,0,0
139540,-2000,4,1,2,90,0,0
139570,-90.9090909090909,4,1,2,90,0,0
139707,-2000,4,1,2,90,0,0
139737,-90.9090909090909,4,1,2,90,0,0
139873,-2000,4,1,2,90,0,0
139903,-90.9090909090909,4,1,2,90,0,0
140040,-2000,4,1,2,90,0,0
140070,-90.9090909090909,4,1,2,90,0,0
140207,-2000,4,1,2,90,0,0
140237,-90.9090909090909,4,1,2,90,0,0
140373,-2000,4,1,2,90,0,0
140403,-90.9090909090909,4,1,2,90,0,0
140540,-2000,4,1,2,90,0,0
140570,-90.9090909090909,4,1,2,90,0,0
140707,-2000,4,1,2,90,0,0
140737,-90.9090909090909,4,1,2,90,0,0
140873,-2000,4,1,2,90,0,0
140903,-90.9090909090909,4,1,2,90,0,0
141040,-2000,4,1,2,90,0,0
141070,-90.9090909090909,4,1,2,90,0,0
141207,-2000,4,1,2,90,0,0
141237,-90.9090909090909,4,1,2,90,0,0
141373,-2000,4,1,2,90,0,0
141403,-90.9090909090909,4,1,2,90,0,0
141540,-2000,4,1,2,90,0,0
141570,-90.9090909090909,4,1,2,90,0,0
141707,-2000,4,1,2,90,0,0
141737,-90.9090909090909,4,1,2,90,0,0
141873,-2000,4,1,2,90,0,0
141903,-90.9090909090909,4,1,2,90,0,0
142040,-2000,4,1,2,90,0,0
142070,-90.9090909090909,4,1,2,90,0,0
142207,-2000,4,1,2,90,0,0
142237,-90.9090909090909,4,1,2,90,0,0
142373,-2000,4,1,2,90,0,0
142403,-90.9090909090909,4,1,2,90,0,0
142540,-2000,4,1,2,90,0,0
142570,-90.9090909090909,4,1,2,90,0,0
142707,-2000,4,1,2,90,0,0
142737,-90.9090909090909,4,1,2,90,0,0
142873,-2000,4,1,2,90,0,0
142903,-90.9090909090909,4,1,2,90,0,0
143040,-2000,4,1,2,90,0,0
143070,-90.9090909090909,4,1,2,90,0,0
143207,-2000,4,1,2,90,0,0
143237,-90.9090909090909,4,1,2,90,0,0
143373,-2000,4,1,2,90,0,0
143403,-90.9090909090909,4,1,2,90,0,0
143540,-2000,4,1,2,90,0,0
143570,-90.9090909090909,4,1,2,90,0,0
143707,-2000,4,1,2,90,0,0
143737,-90.9090909090909,4,1,2,90,0,0
143873,-2000,4,1,2,90,0,0
143903,-90.9090909090909,4,1,2,90,0,0
144031,-2000,4,1,2,90,0,0
144073,-60.6060606060606,4,1,2,90,0,0
144114,-2000,4,1,2,90,0,0
144156,-60.6060606060606,4,1,2,90,0,0
144198,-2000,4,1,2,90,0,0
144239,-60.6060606060606,4,1,2,90,0,0
144281,-2000,4,1,2,90,0,0
144323,-60.6060606060606,4,1,2,90,0,0
144364,-2000,4,1,2,90,0,0
144394,-90.9090909090909,4,1,2,90,0,0
144540,-2000,4,1,2,90,0,0
144570,-90.9090909090909,4,1,2,90,0,0
144707,-2000,4,1,2,90,0,0
144717,-90.9090909090909,4,1,2,90,0,0
144873,-2000,4,1,2,90,0,0
144903,-90.9090909090909,4,1,2,90,0,0
145040,-2000,4,1,2,90,0,0
145070,-90.9090909090909,4,1,2,90,0,0
145207,-2000,4,1,2,90,0,0
145237,-90.9090909090909,4,1,2,90,0,0
145373,-2000,4,1,2,90,0,0
145403,-90.9090909090909,4,1,2,90,0,0
145540,-2000,4,1,2,90,0,0
145570,-90.9090909090909,4,1,2,90,0,0
145707,-2000,4,1,2,90,0,0
145737,-90.9090909090909,4,1,2,90,0,0
145873,-2000,4,1,2,90,0,0
145903,-90.9090909090909,4,1,2,90,0,0
146040,-2000,4,1,2,90,0,0
146070,-90.9090909090909,4,1,2,90,0,0
146207,-2000,4,1,2,90,0,0
146237,-90.9090909090909,4,1,2,90,0,0
146373,-2000,4,1,2,90,0,0
146403,-90.9090909090909,4,1,2,90,0,0
146540,-2000,4,1,2,90,0,0
146570,-90.9090909090909,4,1,2,90,0,0
146707,-2000,4,1,2,90,0,0
146737,-90.9090909090909,4,1,2,90,0,0
146873,-2000,4,1,2,90,0,0
146903,-90.9090909090909,4,1,2,90,0,0
147040,-2000,4,1,2,90,0,0
147070,-90.9090909090909,4,1,2,90,0,0
147207,-2000,4,1,2,90,0,0
147237,-90.9090909090909,4,1,2,90,0,0
147373,-2000,4,1,2,90,0,0
147403,-90.9090909090909,4,1,2,90,0,0
147540,-2000,4,1,2,90,0,0
147570,-90.9090909090909,4,1,2,90,0,0
147707,-2000,4,1,2,90,0,0
147737,-90.9090909090909,4,1,2,90,0,0
147873,-2000,4,1,2,90,0,0
147903,-90.9090909090909,4,1,2,90,0,0
148040,-2000,4,1,2,90,0,0
148070,-90.9090909090909,4,1,2,90,0,0
148207,-2000,4,1,2,90,0,0
148237,-90.9090909090909,4,1,2,90,0,0
148373,-2000,4,1,2,90,0,0
148403,-90.9090909090909,4,1,2,90,0,0
148540,-2000,4,1,2,90,0,0
148570,-90.9090909090909,4,1,2,90,0,0
148707,-2000,4,1,2,90,0,0
148737,-90.9090909090909,4,1,2,90,0,0
148873,-2000,4,1,2,90,0,0
148903,-90.9090909090909,4,1,2,90,0,0
149040,-2000,4,1,2,90,0,0
149070,-90.9090909090909,4,1,2,90,0,0
149207,-2000,4,1,2,90,0,0
149237,-90.9090909090909,4,1,2,90,0,0
149373,-2000,4,1,2,90,0,0
149403,-90.9090909090909,4,1,2,90,0,0
149544,-2000,4,1,2,90,0,0
149654,-20,4,1,2,90,0,0
149716,-10000,4,1,2,90,0,0
149837,-25,4,1,2,90,0,0
149883,-10000,4,1,2,90,0,0
150005,-25,4,1,2,90,0,0
150050,-10000,4,1,2,90,0,0
150172,-25,4,1,2,90,0,0
150216,-10000,4,1,2,90,0,0
150337,-25,4,1,2,90,0,0
150383,-10000,4,1,2,90,0,0
150505,-25,4,1,2,90,0,0
150550,-10000,4,1,2,90,0,0
150672,-25,4,1,2,90,0,0
150717,-10000,4,1,2,90,0,0
150837,-25,4,1,2,90,0,0
150884,-10000,4,1,2,90,0,0
151006,-25,4,1,2,90,0,0
151051,-10000,4,1,2,90,0,0
151177,-25,4,1,2,90,0,0
151216,-10000,4,1,2,90,0,0
151337,-25,4,1,2,90,0,0
151383,-10000,4,1,2,90,0,0
151504,-25,4,1,2,90,0,0
151550,-10000,4,1,2,90,0,0
151671,-25,4,1,2,90,0,0
151716,-10000,4,1,2,90,0,0
151837,-25,4,1,2,90,0,0
151883,-10000,4,1,2,90,0,0
152004,-25,4,1,2,90,0,0
152050,-10000,4,1,2,90,0,0
152171,-25,4,1,2,90,0,0
152216,-10000,4,1,2,90,0,0
152337,-25,4,1,2,90,0,0
152383,-10000,4,1,2,90,0,0
152504,-25,4,1,2,90,0,0
152550,-10000,4,1,2,90,0,0
152671,-25,4,1,2,90,0,0
152716,-10000,4,1,2,90,0,0
152837,-25,4,1,2,90,0,0
152883,-10000,4,1,2,90,0,0
153004,-25,4,1,2,90,0,0
153050,-10000,4,1,2,90,0,0
153171,-25,4,1,2,90,0,0
153216,-10000,4,1,2,90,0,0
153337,-25,4,1,2,90,0,0
153383,-10000,4,1,2,90,0,0
153504,-25,4,1,2,90,0,0
153550,-10000,4,1,2,90,0,0
153671,-25,4,1,2,90,0,0
153716,-10000,4,1,2,90,0,0
153837,-25,4,1,2,90,0,0
153883,-10000,4,1,2,90,0,0
154004,-25,4,1,2,90,0,0
154050,-10000,4,1,2,90,0,0
154171,-25,4,1,2,90,0,0
154216,-10000,4,1,2,90,0,0
154337,-25,4,1,2,90,0,0
154383,-10000,4,1,2,90,0,0
154504,-25,4,1,2,90,0,0
154550,-10000,4,1,2,90,0,0
154671,-25,4,1,2,90,0,0
154696,-2000,4,1,2,90,0,0
154736,-50,4,1,2,90,0,0
154779,-2000,4,1,2,90,0,0
154819,-50,4,1,2,90,0,0
154862,-2000,4,1,2,90,0,0
154902,-50,4,1,2,90,0,0
154946,-2000,4,1,2,90,0,0
154986,-50,4,1,2,90,0,0
155050,-10000,4,1,2,90,0,0
155171,-25,4,1,2,90,0,0
155216,-10000,4,1,2,90,0,0
155337,-25,4,1,2,90,0,0
155383,-10000,4,1,2,90,0,0
155504,-25,4,1,2,90,0,0
155550,-10000,4,1,2,90,0,0
155671,-25,4,1,2,90,0,0
155716,-10000,4,1,2,90,0,0
155837,-25,4,1,2,90,0,0
155883,-10000,4,1,2,90,0,0
156004,-25,4,1,2,90,0,0
156050,-10000,4,1,2,90,0,0
156171,-25,4,1,2,90,0,0
156216,-10000,4,1,2,90,0,0
156337,-25,4,1,2,90,0,0
156383,-10000,4,1,2,90,0,0
156504,-25,4,1,2,90,0,0
156550,-10000,4,1,2,90,0,0
156671,-25,4,1,2,90,0,0
156716,-10000,4,1,2,90,0,0
156837,-25,4,1,2,90,0,0
156883,-10000,4,1,2,90,0,0
157004,-25,4,1,2,90,0,0
157050,-10000,4,1,2,90,0,0
157171,-25,4,1,2,90,0,0
157216,-10000,4,1,2,90,0,0
157337,-25,4,1,2,90,0,0
157383,-10000,4,1,2,90,0,0
157504,-25,4,1,2,90,0,0
157550,-10000,4,1,2,90,0,0
157671,-25,4,1,2,90,0,0
157716,-10000,4,1,2,90,0,0
157837,-25,4,1,2,90,0,0
157883,-10000,4,1,2,90,0,0
158004,-25,4,1,2,90,0,0
158050,-10000,4,1,2,90,0,0
158171,-25,4,1,2,90,0,0
158216,-10000,4,1,2,90,0,0
158337,-25,4,1,2,90,0,0
158383,-10000,4,1,2,90,0,0
158504,-25,4,1,2,90,0,0
158550,-10000,4,1,2,90,0,0
158671,-25,4,1,2,90,0,0
158716,-10000,4,1,2,90,0,0
158837,-25,4,1,2,90,0,0
158883,-10000,4,1,2,90,0,0
159004,-25,4,1,2,90,0,0
159050,-10000,4,1,2,90,0,0
159171,-25,4,1,2,90,0,0
159216,-10000,4,1,2,90,0,0
159337,-25,4,1,2,90,0,0
159383,-10000,4,1,2,90,0,0
159504,-25,4,1,2,90,0,0
159550,-10000,4,1,2,90,0,0
159671,-25,4,1,2,90,0,0
159716,-10000,4,1,2,90,0,0
159837,-25,4,1,2,90,0,0
159883,-10000,4,1,2,90,0,0
160004,-25,4,1,2,90,0,0
160029,-2000,4,1,2,90,0,0
160069,-50,4,1,2,90,0,0
160112,-2000,4,1,2,90,0,0
160152,-50,4,1,2,90,0,0
160196,-2000,4,1,2,90,0,0
160236,-50,4,1,2,90,0,0
160279,-2000,4,1,2,90,0,0
160329,-50,4,1,2,90,0,0
160383,-10000,4,1,2,90,0,0
160504,-25,4,1,2,90,0,0
160550,-10000,4,1,2,90,0,0
160671,-25,4,1,2,90,0,0
160716,-10000,4,1,2,90,0,0
160837,-25,4,1,2,90,0,0
160883,-10000,4,1,2,90,0,0
161004,-25,4,1,2,90,0,0
161050,-10000,4,1,2,90,0,0
161171,-25,4,1,2,90,0,0
161216,-10000,4,1,2,90,0,0
161337,-25,4,1,2,90,0,0
161383,-10000,4,1,2,90,0,0
161504,-25,4,1,2,90,0,0
161550,-10000,4,1,2,90,0,0
161671,-25,4,1,2,90,0,0
161716,-10000,4,1,2,90,0,0
161837,-25,4,1,2,90,0,0
161883,-10000,4,1,2,90,0,0
162004,-25,4,1,2,90,0,0
162050,-10000,4,1,2,90,0,0
162171,-25,4,1,2,90,0,0
162216,-10000,4,1,2,90,0,0
162337,-25,4,1,2,90,0,0
162383,-10000,4,1,2,90,0,0
162504,-25,4,1,2,90,0,0
162550,-10000,4,1,2,90,0,0
162671,-25,4,1,2,90,0,0
162716,-10000,4,1,2,90,0,0
162837,-25,4,1,2,90,0,0
162883,-10000,4,1,2,90,0,0
163004,-25,4,1,2,90,0,0
163050,-10000,4,1,2,90,0,0
163171,-25,4,1,2,90,0,0
163216,-10000,4,1,2,90,0,0
163337,-25,4,1,2,90,0,0
163383,-10000,4,1,2,90,0,0
163504,-25,4,1,2,90,0,0
163550,-10000,4,1,2,90,0,0
163671,-25,4,1,2,90,0,0
163716,-10000,4,1,2,90,0,0
163837,-25,4,1,2,90,0,0
163883,-10000,4,1,2,90,0,0
164004,-25,4,1,2,90,0,0
164050,-10000,4,1,2,90,0,0
164171,-25,4,1,2,90,0,0
164216,-10000,4,1,2,90,0,0
164337,-25,4,1,2,90,0,0
164383,-10000,4,1,2,90,0,0
164504,-25,4,1,2,90,0,0
164550,-10000,4,1,2,90,0,0
164671,-25,4,1,2,90,0,0
164716,-10000,4,1,2,90,0,0
164837,-25,4,1,2,90,0,0
164883,-10000,4,1,2,90,0,0
165004,-25,4,1,2,90,0,0
165050,-10000,4,1,2,90,0,0
165171,-25,4,1,2,90,0,0
165216,-10000,4,1,2,90,0,0
165337,-25,4,1,2,90,0,0
165362,-2000,4,1,2,90,0,0
165404,-50,4,1,2,90,0,0
165446,-2000,4,1,2,90,0,0
165487,-50,4,1,2,90,0,0
165529,-2000,4,1,2,90,0,0
165571,-50,4,1,2,90,0,0
165612,-2000,4,1,2,90,0,0
165654,-50,4,1,2,90,0,0
165716,-10000,4,1,2,90,0,0
165837,-25,4,1,2,90,0,0
165883,-10000,4,1,2,90,0,0
166004,-25,4,1,2,90,0,0
166050,-10000,4,1,2,90,0,0
166171,-25,4,1,2,90,0,0
166216,-10000,4,1,2,90,0,0
166337,-25,4,1,2,90,0,0
166383,-10000,4,1,2,90,0,0
166504,-25,4,1,2,90,0,0
166550,-10000,4,1,2,90,0,0
166671,-25,4,1,2,90,0,0
166716,-10000,4,1,2,90,0,0
166837,-25,4,1,2,90,0,0
166883,-10000,4,1,2,90,0,0
167004,-25,4,1,2,90,0,0
167050,-10000,4,1,2,90,0,0
167171,-25,4,1,2,90,0,0
167216,-10000,4,1,2,90,0,0
167337,-25,4,1,2,90,0,0
167383,-10000,4,1,2,90,0,0
167504,-25,4,1,2,90,0,0
167550,-10000,4,1,2,90,0,0
167671,-25,4,1,2,90,0,0
167716,-10000,4,1,2,90,0,0
167837,-25,4,1,2,90,0,0
167883,-10000,4,1,2,90,0,0
168004,-25,4,1,2,90,0,0
168050,-10000,4,1,2,90,0,0
168171,-25,4,1,2,90,0,0
168216,-10000,4,1,2,90,0,0
168337,-25,4,1,2,90,0,0
168383,-10000,4,1,2,90,0,0
168504,-25,4,1,2,90,0,0
168550,-10000,4,1,2,90,0,0
168671,-25,4,1,2,90,0,0
168716,-10000,4,1,2,90,0,0
168837,-25,4,1,2,90,0,0
168883,-10000,4,1,2,90,0,0
169004,-25,4,1,2,90,0,0
169050,-10000,4,1,2,90,0,0
169171,-25,4,1,2,90,0,0
169216,-10000,4,1,2,90,0,0
169337,-25,4,1,2,90,0,0
169383,-10000,4,1,2,90,0,0
169504,-25,4,1,2,90,0,0
169550,-10000,4,1,2,90,0,0
169671,-25,4,1,2,90,0,0
169716,-10000,4,1,2,90,0,0
169837,-25,4,1,2,90,0,0
169883,-10000,4,1,2,90,0,0
170004,-33.3333333333333,4,1,2,90,0,0
170050,-10000,4,1,2,90,0,0
170171,-33.3333333333333,4,1,2,90,0,0
170216,-10000,4,1,2,90,0,0
170337,-33.3333333333333,4,1,2,90,0,0
170383,-10000,4,1,2,90,0,0
170504,-33.3333333333333,4,1,2,90,0,0
170550,-10000,4,1,2,90,0,0
170675,-55.5555555555556,4,1,2,90,0,0
170716,-250,4,1,2,90,0,0
170758,-55.5555555555556,4,1,2,90,0,0
170800,-250,4,1,2,90,0,0
170841,-55.5555555555556,4,1,2,90,0,0
170883,-250,4,1,2,90,0,0
170925,-55.5555555555556,4,1,2,90,0,0
170966,-250,4,1,2,90,0,0
171020,-1000,4,1,2,90,0,0
171073,-57.1428571428571,4,1,2,90,0,0
171114,-1000,4,1,2,90,0,0
171136,-57.1428571428571,4,1,2,90,0,0
171178,-2000,4,1,2,90,0,0
171282,-62.5,4,1,2,90,0,0
171344,-2000,4,1,2,90,0,0
171448,-62.5,4,1,2,90,0,0
171511,-2000,4,1,2,90,0,0
171615,-62.5,4,1,2,90,0,0
171678,-2000,4,1,2,90,0,0
171782,-62.5,4,1,2,90,0,0
171841,-1000,4,1,2,90,0,0
171897,-57.1428571428571,4,1,2,90,0,0
171924,-1000,4,1,2,90,0,0
171982,-57.1428571428571,4,1,2,90,0,0
172008,-1000,4,1,2,90,0,0
172115,-62.5,4,1,2,90,0,0
172178,-1000,4,1,2,90,0,0
172234,-57.1428571428571,4,1,2,90,0,0
172261,-1000,4,1,2,90,0,0
172319,-57.1428571428571,4,1,2,90,0,0
172344,-2000,4,1,2,90,0,0
172448,-62.5,4,1,2,90,0,0
172511,-2000,4,1,2,90,0,0
172615,-62.5,4,1,2,90,0,0
172678,-2000,4,1,2,90,0,0
172782,-62.5,4,1,2,90,0,0
172844,-2000,4,1,2,90,0,0
172948,-62.5,4,1,2,90,0,0
173011,-2000,4,1,2,90,0,0
173115,-62.5,4,1,2,90,0,0
173178,-2000,4,1,2,90,0,0
173282,-62.5,4,1,2,90,0,0
173344,-2000,4,1,2,90,0,0
173448,-62.5,4,1,2,90,0,0
173511,-2000,4,1,2,90,0,0
173615,-62.5,4,1,2,90,0,0
173678,-2000,4,1,2,90,0,0
173782,-62.5,4,1,2,90,0,0
173844,-2000,4,1,2,90,0,0
173948,-62.5,4,1,2,90,0,0
174011,-2000,4,1,2,90,0,0
174115,-62.5,4,1,2,90,0,0
174178,-1000,4,1,2,90,0,0
174234,-57.1428571428571,4,1,2,90,0,0
174261,-1000,4,1,2,90,0,0
174319,-57.1428571428571,4,1,2,90,0,0
174344,-2000,4,1,2,90,0,0
174448,-62.5,4,1,2,90,0,0
174511,-1000,4,1,2,90,0,0
174568,-57.1428571428571,4,1,2,90,0,0
174594,-1000,4,1,2,90,0,0
174651,-57.1428571428571,4,1,2,90,0,0
174678,-2000,4,1,2,90,0,0
174782,-62.5,4,1,2,90,0,0
174844,-2000,4,1,2,90,0,0
174948,-62.5,4,1,2,90,0,0
175011,-2000,4,1,2,90,0,0
175115,-62.5,4,1,2,90,0,0
175178,-2000,4,1,2,90,0,0
175282,-62.5,4,1,2,90,0,0
175344,-2000,4,1,2,90,0,0
175448,-62.5,4,1,2,90,0,0
175511,-1000,4,1,2,90,0,0
175569,-57.1428571428571,4,1,2,90,0,0
175594,-1000,4,1,2,90,0,0
175651,-57.1428571428571,4,1,2,90,0,0
175678,-2000,4,1,2,90,0,0
175782,-62.5,4,1,2,90,0,0
175844,-2000,4,1,2,90,0,0
175948,-62.5,4,1,2,90,0,0
176011,-1000,4,1,2,90,0,0
176067,-57.1428571428571,4,1,2,90,0,0
176094,-1000,4,1,2,90,0,0
176151,-57.1428571428571,4,1,2,90,0,0
176178,-1000,4,1,2,90,0,0
176234,-57.1428571428571,4,1,2,90,0,0
176261,-1000,4,1,2,90,0,0
176317,-57.1428571428571,4,1,2,90,0,0
176344,-2000,4,1,2,90,0,0
176448,-62.5,4,1,2,90,0,0
176511,-2000,4,1,2,90,0,0
176615,-62.5,4,1,2,90,0,0
176678,-2000,4,1,2,90,0,0
176782,-62.5,4,1,2,90,0,0
176844,-1000,4,1,2,90,0,0
176901,-57.1428571428571,4,1,2,90,0,0
176928,-1000,4,1,2,90,0,0
176984,-57.1428571428571,4,1,2,90,0,0
177011,-2000,4,1,2,90,0,0
177115,-62.5,4,1,2,90,0,0
177178,-2000,4,1,2,90,0,0
177282,-62.5,4,1,2,90,0,0
177344,-2000,4,1,2,90,0,0
177448,-62.5,4,1,2,90,0,0
177511,-2000,4,1,2,90,0,0
177615,-62.5,4,1,2,90,0,0
177678,-2000,4,1,2,90,0,0
177782,-62.5,4,1,2,90,0,0
177844,-1000,4,1,2,90,0,0
177901,-57.1428571428571,4,1,2,90,0,0
177928,-1000,4,1,2,90,0,0
177984,-57.1428571428571,4,1,2,90,0,0
178011,-2000,4,1,2,90,0,0
178115,-62.5,4,1,2,90,0,0
178178,-2000,4,1,2,90,0,0
178282,-62.5,4,1,2,90,0,0
178344,-1000,4,1,2,90,0,0
178428,-52.6315789473684,4,1,2,90,0,0
178511,-1000,4,1,2,90,0,0
178553,-57.1428571428571,4,1,2,90,0,0
178594,-1000,4,1,2,90,0,0
178678,-52.6315789473684,4,1,2,90,0,0
178761,-1000,4,1,2,90,0,0
178803,-57.1428571428571,4,1,2,90,0,0
178844,-2000,4,1,2,90,0,0
178948,-62.5,4,1,2,90,0,0
179011,-1000,4,1,2,90,0,0
179067,-57.1428571428571,4,1,2,90,0,0
179094,-1000,4,1,2,90,0,0
179151,-57.1428571428571,4,1,2,90,0,0
179178,-2000,4,1,2,90,0,0
179282,-62.5,4,1,2,90,0,0
179344,-2000,4,1,2,90,0,0
179448,-62.5,4,1,2,90,0,0
179511,-1000,4,1,2,90,0,0
179567,-57.1428571428571,4,1,2,90,0,0
179594,-1000,4,1,2,90,0,0
179651,-57.1428571428571,4,1,2,90,0,0
179678,-2000,4,1,2,90,0,0
179782,-62.5,4,1,2,90,0,0
179844,-1000,4,1,2,90,0,0
179901,-57.1428571428571,4,1,2,90,0,0
179928,-1000,4,1,2,90,0,0
179984,-57.1428571428571,4,1,2,90,0,0
180011,-2000,4,1,2,90,0,0
180115,-62.5,4,1,2,90,0,0
180178,-2000,4,1,2,90,0,0
180282,-62.5,4,1,2,90,0,0
180344,-2000,4,1,2,90,0,0
180448,-62.5,4,1,2,90,0,0
180511,-2000,4,1,2,90,0,0
180615,-62.5,4,1,2,90,0,0
180678,-2000,4,1,2,90,0,0
180782,-62.5,4,1,2,90,0,0
180844,-2000,4,1,2,90,0,0
180948,-62.5,4,1,2,90,0,0
181011,-1000,4,1,2,90,0,0
181053,-57.1428571428571,4,1,2,90,0,0
181094,-1000,4,1,2,90,0,0
181136,-55.5555555555556,4,1,2,90,0,0
181178,-1000,4,1,2,90,0,0
181219,-54.054054054054,4,1,2,90,0,0
181261,-1000,4,1,2,90,0,0
181303,-52.6315789473684,4,1,2,90,0,0
181344,-1000,4,1,2,90,0,0
181386,-51.2820512820513,4,1,2,90,0,0
181428,-1000,4,1,2,90,0,0
181469,-50,4,1,2,90,0,0
181511,-1000,4,1,2,90,0,0
181553,-48.780487804878,4,1,2,90,0,0
181594,-1000,4,1,2,90,0,0
181636,-47.6190476190476,4,1,2,90,0,0
181678,-2000,4,1,2,90,0,0
181782,-62.5,4,1,2,90,0,0
181844,-2000,4,1,2,90,0,0
181948,-62.5,4,1,2,90,0,0
182011,-2000,4,1,2,90,0,0
182115,-62.5,4,1,2,90,0,0
182178,-2000,4,1,2,90,0,0
182282,-62.5,4,1,2,90,0,0
182344,-2000,4,1,2,90,0,0
182448,-62.5,4,1,2,90,0,0
182511,-2000,4,1,2,90,0,0
182615,-62.5,4,1,2,90,0,0
182678,-2000,4,1,2,90,0,0
182782,-62.5,4,1,2,90,0,0
182844,-1000,4,1,2,90,0,0
182901,-57.1428571428571,4,1,2,90,0,0
182928,-1000,4,1,2,90,0,0
182984,-57.1428571428571,4,1,2,90,0,0
183011,-2000,4,1,2,90,0,0
183115,-62.5,4,1,2,90,0,0
183178,-2000,4,1,2,90,0,0
183282,-62.5,4,1,2,90,0,0
183344,-2000,4,1,2,90,0,0
183448,-62.5,4,1,2,90,0,0
183511,-2000,4,1,2,90,0,0
183615,-62.5,4,1,2,90,0,0
183678,-2000,4,1,2,90,0,0
183782,-62.5,4,1,2,90,0,0
183844,-2000,4,1,2,90,0,0
183948,-62.5,4,1,2,90,0,0
184011,-2000,4,1,2,90,0,0
184115,-62.5,4,1,2,90,0,0
184178,-2000,4,1,2,90,0,0
184282,-62.5,4,1,2,90,0,0
184344,-2000,4,1,2,90,0,0
184448,-62.5,4,1,2,90,0,0
184511,-2000,4,1,2,90,0,0
184615,-62.5,4,1,2,90,0,0
184678,-1000,4,1,2,90,0,0
184734,-57.1428571428571,4,1,2,90,0,0
184761,-1000,4,1,2,90,0,0
184817,-57.1428571428571,4,1,2,90,0,0
184844,-2000,4,1,2,90,0,0
184948,-62.5,4,1,2,90,0,0
185011,-2000,4,1,2,90,0,0
185115,-62.5,4,1,2,90,0,0
185178,-1000,4,1,2,90,0,0
185234,-57.1428571428571,4,1,2,90,0,0
185261,-1000,4,1,2,90,0,0
185317,-57.1428571428571,4,1,2,90,0,0
185344,-2000,4,1,2,90,0,0
185448,-62.5,4,1,2,90,0,0
185511,-2000,4,1,2,90,0,0
185615,-62.5,4,1,2,90,0,0
185678,-2000,4,1,2,90,0,0
185782,-62.5,4,1,2,90,0,0
185844,-1000,4,1,2,90,0,0
185886,-55.5555555555556,4,1,2,90,0,0
185928,-1000,4,1,2,90,0,0
185969,-55.5555555555556,4,1,2,90,0,0
186011,-2000,4,1,2,90,0,0
186115,-62.5,4,1,2,90,0,0
186178,-2000,4,1,2,90,0,0
186282,-62.5,4,1,2,90,0,0
186344,-1000,4,1,2,90,0,0
186401,-57.1428571428571,4,1,2,90,0,0
186428,-1000,4,1,2,90,0,0
186484,-57.1428571428571,4,1,2,90,0,0
186511,-2000,4,1,2,90,0,0
186615,-62.5,4,1,2,90,0,0
186678,-1000,4,1,2,90,0,0
186719,-50,4,1,2,90,0,0
186761,-1000,4,1,2,90,0,0
186803,-50,4,1,2,90,0,0
186844,-1000,4,1,2,90,0,0
186886,-50,4,1,2,90,0,0
186928,-1000,4,1,2,90,0,0
186969,-50,4,1,2,90,0,0
187011,-2000,4,1,2,90,0,0
187073,-62.5,4,1,2,90,0,0
187178,-2000,4,1,2,90,0,0
187240,-62.5,4,1,2,90,0,0
187344,-2000,4,1,2,90,0,0
187448,-62.5,4,1,2,90,0,0
187511,-1000,4,1,2,90,0,0
187567,-57.1428571428571,4,1,2,90,0,0
187594,-1000,4,1,2,90,0,0
187651,-57.1428571428571,4,1,2,90,0,0
187678,-2000,4,1,2,90,0,0
187782,-62.5,4,1,2,90,0,0
187844,-2000,4,1,2,90,0,0
187948,-62.5,4,1,2,90,0,0
188011,-2000,4,1,2,90,0,0
188115,-62.5,4,1,2,90,0,0
188178,-1000,4,1,2,90,0,0
188234,-57.1428571428571,4,1,2,90,0,0
188261,-1000,4,1,2,90,0,0
188317,-57.1428571428571,4,1,2,90,0,0
188344,-2000,4,1,2,90,0,0
188448,-62.5,4,1,2,90,0,0
188511,-1000,4,1,2,90,0,0
188553,-55.5555555555556,4,1,2,90,0,0
188594,-1000,4,1,2,90,0,0
188636,-55.5555555555556,4,1,2,90,0,0
188678,-2000,4,1,2,90,0,0
188782,-62.5,4,1,2,90,0,0
188844,-2000,4,1,2,90,0,0
188948,-62.5,4,1,2,90,0,0
189011,-2000,4,1,2,90,0,0
189094,-52.6315789473684,4,1,2,90,0,0
189178,-1000,4,1,2,90,0,0
189219,-57.1428571428571,4,1,2,90,0,0
189261,-2000,4,1,2,90,0,0
189344,-52.6315789473684,4,1,2,90,0,0
189428,-1000,4,1,2,90,0,0
189469,-57.1428571428571,4,1,2,90,0,0
189511,-2000,4,1,2,90,0,0
189615,-62.5,4,1,2,90,0,0
189678,-1000,4,1,2,90,0,0
189734,-57.1428571428571,4,1,2,90,0,0
189761,-1000,4,1,2,90,0,0
189817,-57.1428571428571,4,1,2,90,0,0
189844,-2000,4,1,2,90,0,0
189948,-62.5,4,1,2,90,0,0
190011,-2000,4,1,2,90,0,0
190115,-62.5,4,1,2,90,0,0
190178,-2000,4,1,2,90,0,0
190282,-62.5,4,1,2,90,0,0
190344,-1000,4,1,2,90,0,0
190401,-57.1428571428571,4,1,2,90,0,0
190428,-1000,4,1,2,90,0,0
190484,-57.1428571428571,4,1,2,90,0,0
190511,-2000,4,1,2,90,0,0
190615,-62.5,4,1,2,90,0,0
190678,-2000,4,1,2,90,0,0
190782,-62.5,4,1,2,90,0,0
190844,-1000,4,1,2,90,0,0
190901,-57.1428571428571,4,1,2,90,0,0
190928,-1000,4,1,2,90,0,0
190984,-57.1428571428571,4,1,2,90,0,0
191011,-2000,4,1,2,90,0,0
191115,-62.5,4,1,2,90,0,0
191178,-2000,4,1,2,90,0,0
191282,-62.5,4,1,2,90,0,0
191338,-1000,4,1,2,90,0,0
191401,-57.1428571428571,4,1,2,90,0,0
191428,-1000,4,1,2,90,0,0
191484,-57.1428571428571,4,1,2,90,0,0
191511,-2000,4,1,2,90,0,0
191615,-62.5,4,1,2,90,0,0
191678,-2000,4,1,2,90,0,0
191782,-62.5,4,1,2,90,0,0
191844,-1000,4,1,2,90,0,0
191886,-55.5555555555556,4,1,2,90,0,0
191928,-1000,4,1,2,90,0,0
191969,-55.5555555555556,4,1,2,90,0,0
192011,-2000,4,1,2,90,0,0
192115,-62.5,4,1,2,90,0,0
192178,-2000,4,1,2,90,0,0
192282,-62.5,4,1,2,90,0,0
192359,-100,4,1,2,90,0,0

[HitObjects]
64,192,342,5,4,3:0:0:0:
192,192,342,1,2,2:0:0:0:
448,192,508,128,2,841:2:0:0:0:
192,192,841,1,2,2:0:0:0:
64,192,841,1,4,3:0:0:0:
448,192,1008,128,2,1341:2:0:0:0:
64,192,1341,1,4,3:0:0:0:
192,192,1341,1,2,2:0:0:0:
448,192,1508,128,2,1675:2:0:0:0:
320,192,1675,128,4,2008:3:0:0:0:
64,192,1841,1,0,0:0:0:0:
192,192,1841,1,2,2:0:0:0:
192,192,2008,128,2,2175:2:0:0:0:
320,192,2175,128,4,2508:3:0:0:0:
64,192,2341,1,0,0:0:0:0:
192,192,2341,1,2,2:0:0:0:
64,192,2508,128,2,2633:2:0:0:0:
64,192,2675,128,2,2800:2:0:0:0:
192,192,2675,128,0,2800:0:0:0:0:
448,192,2675,1,4,3:0:0:0:
320,192,2841,128,2,2966:2:0:0:0:
64,192,2841,128,0,2966:0:0:0:0:
448,192,3008,1,4,3:0:0:0:
64,192,3008,1,2,2:0:0:0:
192,192,3175,128,2,3508:2:0:0:0:
64,192,3508,1,2,2:0:0:0:
448,192,3508,1,4,3:0:0:0:
192,192,3675,128,2,4008:2:0:0:0:
448,192,4008,1,4,3:0:0:0:
64,192,4008,1,2,2:0:0:0:
320,192,4175,128,2,4341:2:0:0:0:
192,192,4341,128,4,4675:3:0:0:0:
448,192,4508,1,2,2:0:0:0:
64,192,4508,1,0,0:0:0:0:
64,192,4675,128,2,4841:2:0:0:0:
192,192,4841,128,4,5175:3:0:0:0:
64,192,5008,1,0,0:0:0:0:
448,192,5008,1,2,2:0:0:0:
320,192,5175,128,2,5300:2:0:0:0:
64,192,5341,128,0,5466:0:0:0:0:
320,192,5341,128,2,5466:2:0:0:0:
448,192,5341,1,4,3:0:0:0:
448,192,5508,128,0,5633:0:0:0:0:
192,192,5508,128,2,5633:2:0:0:0:
320,192,5508,1,4,3:0:0:0:
64,192,5675,1,4,3:0:0:0:
192,192,5675,1,2,2:0:0:0:
320,192,5841,128,2,6175:2:0:0:0:
64,192,6175,1,4,3:0:0:0:
192,192,6175,1,2,2:0:0:0:
320,192,6341,128,2,6675:2:0:0:0:
64,192,6675,1,4,3:0:0:0:
192,192,6675,1,2,2:0:0:0:
192,192,6841,128,2,7008:2:0:0:0:
320,192,7008,128,4,7341:3:0:0:0:
192,192,7175,1,2,2:0:0:0:
64,192,7175,1,0,0:0:0:0:
448,192,7341,128,2,7508:2:0:0:0:
320,192,7508,128,4,7841:3:0:0:0:
64,192,7675,1,2,2:0:0:0:
192,192,7675,1,0,0:0:0:0:
192,192,7841,128,2,7966:2:0:0:0:
192,192,8008,128,0,8133:0:0:0:0:
320,192,8008,128,2,8133:2:0:0:0:
64,192,8008,1,4,3:0:0:0:
448,192,8175,128,2,8300:2:0:0:0:
192,192,8175,128,0,8300:0:0:0:0:
64,192,8341,1,4,3:0:0:0:
320,192,8341,1,2,2:0:0:0:
448,192,8508,128,2,8841:2:0:0:0:
64,192,8841,1,4,3:0:0:0:
320,192,8841,1,2,2:0:0:0:
448,192,9008,128,2,9341:2:0:0:0:
64,192,9341,1,4,3:0:0:0:
320,192,9341,1,2,2:0:0:0:
192,192,9508,128,2,9675:2:0:0:0:
448,192,9675,128,0,10008:0:0:0:0:
64,192,9675,128,0,9841:3:0:0:0:
320,192,9841,1,0,3:0:0:0:
192,192,9925,1,0,3:0:0:0:
320,192,10008,1,0,3:0:0:0:
64,192,10008,1,0,0:0:0:0:
192,192,10175,128,0,10508:0:0:0:0:
320,192,10175,1,0,3:0:0:0:
64,192,10341,1,0,3:0:0:0:
320,192,10425,1,0,3:0:0:0:
448,192,10508,1,0,3:0:0:0:
64,192,10508,128,0,10675:0:0:0:0:
320,192,10675,128,0,10800:3:0:0:0:
448,192,10675,1,0,0:0:0:0:
64,192,10758,1,0,3:0:0:0:
320,192,10841,128,0,10966:3:0:0:0:
448,192,10841,1,0,0:0:0:0:
64,192,10925,1,0,3:0:0:0:
448,192,11008,1,4,3:0:0:0:
192,192,11008,1,0,3:0:0:0:
320,192,11175,128,0,11508:0:0:0:0:
64,192,11175,1,2,2:0:0:0:
192,192,11258,1,2,2:0:0:0:
448,192,11341,1,8,0:0:0:0:
64,192,11341,1,2,2:0:0:0:
192,192,11508,1,4,3:0:0:0:
320,192,11675,128,0,12008:0:0:0:0:
64,192,11675,1,2,2:0:0:0:
448,192,11758,1,2,2:0:0:0:
64,192,11841,1,2,2:0:0:0:
448,192,12008,1,8,0:0:0:0:
192,192,12008,1,2,2:0:0:0:
64,192,12175,1,2,2:0:0:0:
448,192,12258,1,2,2:0:0:0:
192,192,12341,128,0,12675:0:0:0:0:
320,192,12341,1,4,3:0:0:0:
64,192,12508,1,2,2:0:0:0:
320,192,12591,1,2,2:0:0:0:
448,192,12675,1,8,0:0:0:0:
64,192,12675,1,2,2:0:0:0:
192,192,12841,128,0,13175:0:0:0:0:
448,192,12841,1,4,3:0:0:0:
320,192,13008,1,2,2:0:0:0:
320,192,13175,1,2,2:0:0:0:
64,192,13175,128,0,13341:0:0:0:0:
448,192,13341,1,8,0:0:0:0:
320,192,13341,1,4,3:0:0:0:
192,192,13341,128,2,13508:2:0:0:0:
320,192,13508,128,0,13675:0:0:0:0:
448,192,13508,1,2,2:0:0:0:
192,192,13675,1,4,3:0:0:0:
64,192,13841,1,2,2:0:0:0:
448,192,13841,128,0,14175:0:0:0:0:
192,192,13925,1,2,2:0:0:0:
320,192,14008,1,2,2:0:0:0:
64,192,14008,1,8,0:0:0:0:
192,192,14175,1,4,3:0:0:0:
448,192,14341,128,0,14675:0:0:0:0:
64,192,14341,1,2,2:0:0:0:
192,192,14425,1,2,2:0:0:0:
320,192,14508,1,2,2:0:0:0:
192,192,14675,1,4,3:0:0:0:
64,192,14675,1,8,0:0:0:0:
320,192,14841,128,0,15008:0:0:0:0:
64,192,14841,1,2,2:0:0:0:
192,192,14925,1,2,2:0:0:0:
448,192,15008,1,4,3:0:0:0:
64,192,15008,128,0,15341:0:0:0:0:
320,192,15175,1,2,2:0:0:0:
448,192,15258,1,2,2:0:0:0:
192,192,15341,1,8,0:0:0:0:
320,192,15341,1,2,2:0:0:0:
64,192,15508,128,0,15841:0:0:0:0:
320,192,15508,1,4,3:0:0:0:
192,192,15675,128,2,15841:2:0:0:0:
448,192,15758,1,8,0:0:0:0:
320,192,15841,128,2,16008:2:0:0:0:
192,192,16008,128,2,16175:2:0:0:0:
448,192,16008,1,8,0:0:0:0:
64,192,16008,1,4,3:0:0:0:
64,192,16175,128,0,16341:0:0:0:0:
448,192,16175,1,2,2:0:0:0:
320,192,16258,1,2,2:0:0:0:
448,192,16341,1,4,3:0:0:0:
192,192,16508,128,0,16841:0:0:0:0:
64,192,16508,1,2,2:0:0:0:
320,192,16591,1,2,2:0:0:0:
448,192,16675,1,8,0:0:0:0:
64,192,16675,1,2,2:0:0:0:
320,192,16841,1,4,3:0:0:0:
192,192,17008,128,0,17341:0:0:0:0:
448,192,17008,1,2,2:0:0:0:
320,192,17091,1,2,2:0:0:0:
64,192,17175,1,2,2:0:0:0:
448,192,17341,1,8,0:0:0:0:
320,192,17341,1,4,3:0:0:0:
448,192,17508,128,0,17675:0:0:0:0:
64,192,17508,1,2,2:0:0:0:
192,192,17591,1,2,2:0:0:0:
64,192,17675,1,4,3:0:0:0:
320,192,17675,128,0,18008:0:0:0:0:
192,192,17841,1,2,2:0:0:0:
64,192,17925,1,2,2:0:0:0:
448,192,18008,1,8,0:0:0:0:
192,192,18008,1,2,2:0:0:0:
192,192,18175,128,0,18508:0:0:0:0:
64,192,18175,1,4,3:0:0:0:
320,192,18341,1,2,2:0:0:0:
64,192,18508,128,0,18675:0:0:0:0:
320,192,18508,1,2,2:0:0:0:
320,192,18675,128,2,18841:2:0:0:0:
192,192,18675,1,4,3:0:0:0:
448,192,18675,1,8,0:0:0:0:
448,192,18841,128,2,19008:2:0:0:0:
64,192,19008,1,4,3:0:0:0:
448,192,19175,128,0,19508:0:0:0:0:
192,192,19175,1,2,2:0:0:0:
320,192,19258,1,2,2:0:0:0:
64,192,19341,1,8,0:0:0:0:
192,192,19341,1,2,2:0:0:0:
192,192,19508,1,4,3:0:0:0:
320,192,19675,128,2,19841:2:0:0:0:
448,192,19675,128,4,20008:3:0:0:0:
64,192,19758,1,8,0:0:0:0:
64,192,20008,1,8,0:0:0:0:
320,192,20008,1,4,3:0:0:0:
448,192,20175,1,2,2:0:0:0:
320,192,20258,1,2,2:0:0:0:
64,192,20341,1,0,3:0:0:0:
192,192,20341,128,0,20675:3:0:0:0:
448,192,20508,1,0,3:0:0:0:
64,192,20591,1,0,3:0:0:0:
320,192,20675,1,0,3:0:0:0:
448,192,20758,1,0,3:0:0:0:
192,192,20841,128,0,21175:3:0:0:0:
320,192,20841,1,0,3:0:0:0:
64,192,20925,1,0,3:0:0:0:
320,192,21008,1,0,3:0:0:0:
448,192,21091,1,0,3:0:0:0:
64,192,21175,128,0,21341:3:0:0:0:
320,192,21175,1,0,3:0:0:0:
448,192,21258,1,0,3:0:0:0:
320,192,21341,128,0,21508:3:0:0:0:
192,192,21341,1,0,3:0:0:0:
448,192,21425,1,0,3:0:0:0:
64,192,21508,128,0,21675:3:0:0:0:
192,192,21508,1,0,3:0:0:0:
448,192,21591,1,0,3:0:0:0:
320,192,21675,1,4,2:0:0:0:
192,192,21675,128,2,22008:2:0:0:0:
64,192,21758,1,2,2:0:0:0:
448,192,21841,1,2,2:0:0:0:
64,192,21925,1,2,2:0:0:0:
320,192,22008,1,8,0:0:0:0:
448,192,22008,1,0,3:0:0:0:
192,192,22175,128,0,22508:0:0:0:0:
448,192,22175,1,2,2:0:0:0:
320,192,22258,1,2,2:0:0:0:
64,192,22341,1,2,2:0:0:0:
320,192,22425,1,2,2:0:0:0:
64,192,22508,1,2,2:0:0:0:
320,192,22591,1,2,2:0:0:0:
448,192,22675,1,8,0:0:0:0:
64,192,22675,1,0,0:0:0:0:
64,192,22841,1,2,2:0:0:0:
192,192,22925,1,2,2:0:0:0:
448,192,23008,128,0,23341:0:0:0:0:
320,192,23008,1,2,2:0:0:0:
192,192,23091,1,2,2:0:0:0:
64,192,23175,1,2,2:0:0:0:
192,192,23258,1,2,2:0:0:0:
320,192,23341,1,8,0:0:0:0:
64,192,23341,1,0,0:0:0:0:
448,192,23508,128,0,23841:0:0:0:0:
64,192,23508,1,2,2:0:0:0:
320,192,23591,1,2,2:0:0:0:
192,192,23675,1,2,2:0:0:0:
320,192,23758,1,2,2:0:0:0:
192,192,23841,1,2,2:0:0:0:
64,192,23925,1,2,2:0:0:0:
192,192,24008,1,8,0:0:0:0:
320,192,24008,1,0,0:0:0:0:
448,192,24008,128,0,24175:0:0:0:0:
320,192,24175,128,2,24341:2:0:0:0:
64,192,24341,128,0,24675:0:0:0:0:
192,192,24341,1,2,2:0:0:0:
448,192,24425,1,2,2:0:0:0:
320,192,24508,1,2,2:0:0:0:
192,192,24591,1,2,2:0:0:0:
448,192,24675,1,0,0:0:0:0:
320,192,24675,1,8,0:0:0:0:
320,192,24841,1,2,2:0:0:0:
192,192,24925,1,2,2:0:0:0:
448,192,25008,1,2,2:0:0:0:
64,192,25008,128,0,25341:0:0:0:0:
192,192,25091,1,2,2:0:0:0:
448,192,25175,1,2,2:0:0:0:
192,192,25258,1,2,2:0:0:0:
448,192,25341,1,0,0:0:0:0:
320,192,25341,1,8,0:0:0:0:
64,192,25508,1,2,2:0:0:0:
192,192,25591,1,2,2:0:0:0:
320,192,25675,128,0,26008:0:0:0:0:
64,192,25675,1,2,2:0:0:0:
192,192,25758,1,2,2:0:0:0:
448,192,25841,1,2,2:0:0:0:
192,192,25925,1,2,2:0:0:0:
64,192,26008,1,8,0:0:0:0:
448,192,26008,1,0,0:0:0:0:
448,192,26175,1,2,2:0:0:0:
320,192,26175,128,0,26508:0:0:0:0:
192,192,26258,1,2,2:0:0:0:
64,192,26341,1,2,2:0:0:0:
192,192,26425,1,2,2:0:0:0:
448,192,26508,1,2,2:0:0:0:
64,192,26591,1,2,2:0:0:0:
320,192,26675,1,0,0:0:0:0:
448,192,26675,128,0,26841:0:0:0:0:
192,192,26675,1,8,0:0:0:0:
192,192,26841,1,2,2:0:0:0:
320,192,26841,128,0,27008:0:0:0:0:
64,192,26925,1,2,2:0:0:0:
192,192,27008,1,2,2:0:0:0:
448,192,27008,1,2,2:0:0:0:
320,192,27091,1,2,2:0:0:0:
192,192,27175,128,0,27508:0:0:0:0:
448,192,27175,1,2,2:0:0:0:
64,192,27258,1,2,2:0:0:0:
448,192,27341,1,8,0:0:0:0:
320,192,27341,1,0,0:0:0:0:
448,192,27508,1,2,2:0:0:0:
320,192,27591,1,2,2:0:0:0:
192,192,27675,128,0,28008:0:0:0:0:
64,192,27675,1,2,2:0:0:0:
448,192,27758,1,2,2:0:0:0:
320,192,27841,1,2,2:0:0:0:
64,192,27925,1,2,2:0:0:0:
448,192,28008,1,0,0:0:0:0:
320,192,28008,1,8,0:0:0:0:
64,192,28175,1,2,2:0:0:0:
448,192,28258,1,2,2:0:0:0:
192,192,28341,128,0,28675:0:0:0:0:
320,192,28341,1,2,2:0:0:0:
448,192,28425,1,2,2:0:0:0:
64,192,28508,1,2,2:0:0:0:
448,192,28591,1,2,2:0:0:0:
320,192,28675,1,8,0:0:0:0:
64,192,28675,1,0,0:0:0:0:
192,192,28841,128,0,29175:0:0:0:0:
64,192,28841,1,2,2:0:0:0:
320,192,28925,1,2,2:0:0:0:
448,192,29008,1,2,2:0:0:0:
320,192,29091,1,2,2:0:0:0:
64,192,29175,1,2,2:0:0:0:
320,192,29258,1,2,2:0:0:0:
448,192,29341,128,0,29508:0:0:0:0:
64,192,29341,1,8,0:0:0:0:
192,192,29341,1,0,0:0:0:0:
192,192,29508,128,0,29675:0:0:0:0:
64,192,29508,1,2,2:0:0:0:
320,192,29591,1,2,2:0:0:0:
64,192,29675,1,0,0:0:0:0:
448,192,29675,1,2,2:0:0:0:
320,192,29758,1,2,2:0:0:0:
64,192,29841,128,0,30175:0:0:0:0:
192,192,29841,1,2,2:0:0:0:
448,192,29925,1,2,2:0:0:0:
320,192,30008,1,8,0:0:0:0:
192,192,30008,1,0,0:0:0:0:
192,192,30175,1,2,2:0:0:0:
320,192,30258,1,2,2:0:0:0:
64,192,30341,128,0,30675:0:0:0:0:
448,192,30341,1,2,2:0:0:0:
192,192,30425,1,2,2:0:0:0:
320,192,30508,1,2,2:0:0:0:
192,192,30591,1,2,2:0:0:0:
320,192,30675,1,8,0:0:0:0:
448,192,30675,1,0,0:0:0:0:
448,192,30841,1,2,2:0:0:0:
64,192,30925,1,2,2:0:0:0:
320,192,31008,128,0,31341:0:0:0:0:
448,192,31008,1,2,2:0:0:0:
64,192,31091,1,2,2:0:0:0:
192,192,31175,5,8,0:0:0:0:
448,192,31175,1,2,2:0:0:0:
192,192,31341,1,8,0:0:0:0:
448,192,31341,1,2,2:0:0:0:
64,192,31425,1,2,2:0:0:0:
320,192,31508,128,0,31841:0:0:0:0:
192,192,31508,1,2,2:0:0:0:
448,192,31591,1,2,2:0:0:0:
64,192,31675,1,8,0:0:0:0:
192,192,31675,1,2,2:0:0:0:
448,192,31758,1,2,2:0:0:0:
192,192,31841,1,2,2:0:0:0:
64,192,31925,1,2,2:0:0:0:
448,192,32008,128,0,32175:0:0:0:0:
320,192,32008,1,8,0:0:0:0:
192,192,32008,1,2,2:0:0:0:
64,192,32091,1,2,2:0:0:0:
320,192,32175,1,8,0:0:0:0:
192,192,32175,1,2,2:0:0:0:
448,192,32258,1,2,2:0:0:0:
64,192,32341,128,4,32675:3:0:0:0:
192,192,32341,128,0,32675:0:0:0:0:
320,192,32675,1,0,0:0:0:0:
448,192,32675,1,8,2:0:0:0:
192,192,32758,1,0,3:0:0:0:
448,192,32841,1,0,3:0:0:0:
320,192,32841,1,0,0:0:0:0:
64,192,32925,1,0,3:0:0:0:
192,192,33008,1,0,3:0:0:0:
320,192,33008,1,0,0:0:0:0:
448,192,33091,1,0,3:0:0:0:
64,192,33175,1,0,3:0:0:0:
320,192,33175,1,0,0:0:0:0:
192,192,33258,1,0,3:0:0:0:
448,192,33341,1,8,2:0:0:0:
64,192,33341,1,0,0:0:0:0:
320,192,33341,1,0,0:0:0:0:
448,192,33508,1,0,3:0:0:0:
320,192,33508,1,0,0:0:0:0:
192,192,33591,1,0,3:0:0:0:
64,192,33675,1,0,0:0:0:0:
320,192,33675,1,0,3:0:0:0:
192,192,33758,1,0,3:0:0:0:
64,192,33841,1,0,0:0:0:0:
448,192,33841,1,0,3:0:0:0:
320,192,33925,1,0,3:0:0:0:
64,192,34008,1,0,0:0:0:0:
192,192,34008,1,0,0:0:0:0:
448,192,34008,1,8,2:0:0:0:
192,192,34175,1,0,0:0:0:0:
64,192,34175,1,0,3:0:0:0:
320,192,34258,1,0,3:0:0:0:
448,192,34341,1,0,3:0:0:0:
192,192,34341,1,0,0:0:0:0:
64,192,34425,1,0,3:0:0:0:
192,192,34508,1,0,0:0:0:0:
320,192,34508,1,0,0:0:0:0:
448,192,34508,1,8,2:0:0:0:
64,192,34591,1,0,3:0:0:0:
192,192,34675,1,0,0:0:0:0:
320,192,34675,1,0,0:0:0:0:
448,192,34675,1,8,2:0:0:0:
64,192,34758,1,0,3:0:0:0:
192,192,34841,1,0,3:0:0:0:
320,192,34841,1,0,0:0:0:0:
448,192,34925,1,0,3:0:0:0:
64,192,35008,1,0,0:0:0:0:
320,192,35008,1,0,3:0:0:0:
192,192,35091,1,0,3:0:0:0:
448,192,35175,1,0,3:0:0:0:
64,192,35175,1,0,0:0:0:0:
320,192,35258,1,0,3:0:0:0:
64,192,35341,1,8,2:0:0:0:
192,192,35341,1,0,0:0:0:0:
448,192,35341,1,0,0:0:0:0:
192,192,35508,1,0,3:0:0:0:
64,192,35508,1,0,0:0:0:0:
320,192,35591,1,0,3:0:0:0:
448,192,35675,1,0,0:0:0:0:
192,192,35675,1,0,3:0:0:0:
64,192,35758,1,0,3:0:0:0:
448,192,35841,1,0,0:0:0:0:
320,192,35841,1,0,3:0:0:0:
64,192,35925,1,0,3:0:0:0:
192,192,36008,1,0,0:0:0:0:
320,192,36008,1,0,0:0:0:0:
448,192,36008,1,8,2:0:0:0:
448,192,36175,1,0,0:0:0:0:
320,192,36175,1,0,3:0:0:0:
192,192,36258,1,0,3:0:0:0:
64,192,36341,1,0,3:0:0:0:
448,192,36341,1,0,0:0:0:0:
320,192,36425,1,0,3:0:0:0:
64,192,36508,1,0,3:0:0:0:
192,192,36508,1,0,0:0:0:0:
320,192,36591,1,0,3:0:0:0:
448,192,36675,1,8,2:0:0:0:
64,192,36675,1,0,0:0:0:0:
192,192,36675,1,0,0:0:0:0:
320,192,36841,1,0,0:0:0:0:
448,192,36841,1,0,3:0:0:0:
192,192,36925,1,0,3:0:0:0:
320,192,37008,1,0,0:0:0:0:
64,192,37008,1,0,3:0:0:0:
448,192,37091,1,0,3:0:0:0:
64,192,37175,1,0,0:0:0:0:
192,192,37175,1,0,0:0:0:0:
320,192,37175,1,8,2:0:0:0:
448,192,37258,1,0,3:0:0:0:
192,192,37341,1,0,0:0:0:0:
64,192,37341,1,0,0:0:0:0:
320,192,37341,1,8,2:0:0:0:
448,192,37425,1,0,3:0:0:0:
64,192,37508,1,0,3:0:0:0:
192,192,37508,1,0,0:0:0:0:
320,192,37591,1,0,3:0:0:0:
448,192,37675,1,0,0:0:0:0:
192,192,37675,1,0,3:0:0:0:
64,192,37758,1,0,3:0:0:0:
320,192,37841,1,0,3:0:0:0:
448,192,37841,1,0,0:0:0:0:
192,192,37925,1,0,3:0:0:0:
64,192,38008,1,0,0:0:0:0:
320,192,38008,1,0,0:0:0:0:
448,192,38008,1,8,2:0:0:0:
64,192,38175,1,0,3:0:0:0:
192,192,38175,1,0,0:0:0:0:
448,192,38258,1,0,3:0:0:0:
320,192,38341,1,0,3:0:0:0:
64,192,38341,1,0,0:0:0:0:
448,192,38425,1,0,3:0:0:0:
320,192,38508,1,0,3:0:0:0:
192,192,38508,1,0,0:0:0:0:
64,192,38591,1,0,3:0:0:0:
448,192,38675,1,8,2:0:0:0:
320,192,38675,1,0,0:0:0:0:
192,192,38675,1,0,0:0:0:0:
64,192,38841,1,0,0:0:0:0:
448,192,38841,1,0,3:0:0:0:
320,192,38925,1,0,3:0:0:0:
64,192,39008,1,0,0:0:0:0:
192,192,39008,1,0,3:0:0:0:
320,192,39091,1,0,3:0:0:0:
448,192,39175,1,0,3:0:0:0:
64,192,39175,1,0,0:0:0:0:
192,192,39258,1,0,3:0:0:0:
448,192,39341,1,8,2:0:0:0:
320,192,39341,1,0,0:0:0:0:
64,192,39341,1,0,0:0:0:0:
64,192,39508,1,0,0:0:0:0:
192,192,39508,1,0,3:0:0:0:
320,192,39591,1,0,3:0:0:0:
448,192,39675,1,0,3:0:0:0:
64,192,39675,1,0,0:0:0:0:
192,192,39758,1,0,3:0:0:0:
64,192,39841,1,0,0:0:0:0:
320,192,39841,1,0,0:0:0:0:
448,192,39841,1,8,2:0:0:0:
192,192,39925,1,0,3:0:0:0:
320,192,40008,1,0,0:0:0:0:
64,192,40008,1,0,0:0:0:0:
448,192,40008,1,8,2:0:0:0:
192,192,40091,1,0,3:0:0:0:
64,192,40175,1,0,0:0:0:0:
320,192,40175,1,0,0:0:0:0:
448,192,40175,1,8,2:0:0:0:
192,192,40258,1,0,3:0:0:0:
64,192,40341,1,0,0:0:0:0:
448,192,40341,1,8,2:0:0:0:
448,192,40675,1,8,2:0:0:0:
320,192,40675,1,0,0:0:0:0:
192,192,40675,1,0,0:0:0:0:
64,192,41008,1,0,0:0:0:0:
192,192,41008,1,8,2:0:0:0:
64,192,41175,1,0,0:0:0:0:
192,192,41175,1,0,0:0:0:0:
448,192,41175,1,8,2:0:0:0:
64,192,41508,1,0,0:0:0:0:
320,192,41508,1,0,0:0:0:0:
448,192,41508,1,8,2:0:0:0:
192,192,41675,1,0,0:0:0:0:
320,192,41675,1,2,3:0:0:0:
64,192,41841,1,0,0:0:0:0:
448,192,41841,1,2,3:0:0:0:
448,192,42008,1,10,3:0:0:0:
192,192,42008,1,2,3:0:0:0:
64,192,42175,1,2,3:0:0:0:
192,192,42175,1,2,3:0:0:0:
320,192,42175,1,8,0:0:0:0:
448,192,42341,1,8,0:0:0:0:
320,192,42341,1,10,3:0:0:0:
192,192,42341,1,2,3:0:0:0:
64,192,42508,1,2,3:0:0:0:
192,192,42508,1,2,3:0:0:0:
448,192,42508,1,8,0:0:0:0:
448,192,42675,1,8,2:0:0:0:
320,192,42675,1,8,3:0:0:0:
192,192,42675,1,2,3:0:0:0:
64,192,42675,1,2,3:0:0:0:
64,192,42841,1,2,3:0:0:0:
192,192,42841,1,2,3:0:0:0:
320,192,42841,1,8,0:0:0:0:
448,192,42841,1,8,2:0:0:0:
192,192,43008,1,0,0:0:0:0:
320,192,43008,1,4,0:0:0:0:
64,192,43008,128,0,43175:3:0:0:0:
192,192,43175,1,0,0:0:0:0:
448,192,43175,1,2,2:0:0:0:
64,192,43341,1,2,2:0:0:0:
448,192,43508,1,2,2:0:0:0:
320,192,43508,128,0,43675:3:0:0:0:
64,192,43675,1,2,2:0:0:0:
64,192,43841,1,2,2:0:0:0:
192,192,44008,1,2,2:0:0:0:
448,192,44008,128,0,44175:3:0:0:0:
64,192,44175,1,0,0:0:0:0:
320,192,44175,1,2,2:0:0:0:
64,192,44341,1,0,0:0:0:0:
192,192,44341,1,2,2:0:0:0:
64,192,44508,1,0,0:0:0:0:
320,192,44508,128,0,44675:3:0:0:0:
448,192,44508,1,2,2:0:0:0:
192,192,44675,1,2,2:0:0:0:
320,192,44841,1,2,2:0:0:0:
448,192,44841,1,0,0:0:0:0:
64,192,45008,128,0,45175:3:0:0:0:
192,192,45008,1,0,0:0:0:0:
448,192,45008,1,2,2:0:0:0:
320,192,45175,1,2,2:0:0:0:
64,192,45341,128,0,45508:3:0:0:0:
448,192,45341,1,2,2:0:0:0:
192,192,45508,128,0,45675:3:0:0:0:
320,192,45508,1,2,2:0:0:0:
64,192,45675,1,2,2:0:0:0:
64,192,45841,1,2,2:0:0:0:
192,192,45841,1,0,0:0:0:0:
320,192,46008,1,2,2:0:0:0:
448,192,46008,128,0,46175:3:0:0:0:
192,192,46008,1,0,0:0:0:0:
448,192,46341,1,2,2:0:0:0:
320,192,46508,128,0,46675:3:0:0:0:
64,192,46508,1,2,2:0:0:0:
192,192,46675,1,2,2:0:0:0:
64,192,46841,1,2,2:0:0:0:
192,192,46841,1,0,0:0:0:0:
320,192,47008,1,2,2:0:0:0:
192,192,47008,128,0,47175:3:0:0:0:
64,192,47008,1,0,0:0:0:0:
448,192,47175,1,0,0:0:0:0:
320,192,47175,1,2,2:0:0:0:
192,192,47341,1,2,2:0:0:0:
448,192,47508,128,0,47675:3:0:0:0:
320,192,47508,1,2,2:0:0:0:
64,192,47508,1,0,0:0:0:0:
192,192,47675,1,2,2:0:0:0:
64,192,47675,128,0,47841:3:0:0:0:
320,192,47675,1,0,0:0:0:0:
320,192,47841,1,2,2:0:0:0:
192,192,48008,128,0,48175:3:0:0:0:
448,192,48008,1,2,2:0:0:0:
320,192,48175,1,2,2:0:0:0:
64,192,48341,1,2,2:0:0:0:
64,192,48508,1,2,2:0:0:0:
320,192,48508,128,0,48675:3:0:0:0:
448,192,48508,1,0,0:0:0:0:
192,192,48675,1,2,2:0:0:0:
448,192,48841,128,0,49008:3:0:0:0:
320,192,48841,1,2,2:0:0:0:
64,192,49008,128,0,49175:3:0:0:0:
192,192,49008,1,2,2:0:0:0:
320,192,49175,1,2,2:0:0:0:
192,192,49341,1,2,2:0:0:0:
448,192,49508,1,0,0:0:0:0:
320,192,49508,128,0,49675:3:0:0:0:
64,192,49508,1,2,2:0:0:0:
64,192,49675,1,2,2:0:0:0:
192,192,49675,1,0,0:0:0:0:
448,192,49841,1,2,2:0:0:0:
320,192,49841,1,0,0:0:0:0:
320,192,50008,1,2,2:0:0:0:
192,192,50008,128,0,50175:3:0:0:0:
64,192,50175,1,2,2:0:0:0:
448,192,50175,1,0,0:0:0:0:
192,192,50341,1,0,0:0:0:0:
320,192,50341,1,2,2:0:0:0:
320,192,50508,1,2,2:0:0:0:
64,192,50508,128,0,50675:3:0:0:0:
320,192,50675,128,0,50841:3:0:0:0:
448,192,50675,1,2,2:0:0:0:
192,192,50841,1,2,2:0:0:0:
64,192,51008,1,2,2:0:0:0:
448,192,51008,128,0,51175:3:0:0:0:
192,192,51175,1,2,2:0:0:0:
320,192,51175,1,0,0:0:0:0:
64,192,51341,1,0,0:0:0:0:
192,192,51341,1,2,2:0:0:0:
448,192,51508,128,0,51675:3:0:0:0:
192,192,51508,1,2,2:0:0:0:
320,192,51675,1,2,2:0:0:0:
64,192,51841,1,2,2:0:0:0:
192,192,51841,1,0,0:0:0:0:
192,192,52008,128,0,52175:3:0:0:0:
320,192,52008,1,2,2:0:0:0:
448,192,52175,1,0,0:0:0:0:
64,192,52175,1,2,2:0:0:0:
64,192,52341,1,2,2:0:0:0:
192,192,52341,1,0,0:0:0:0:
192,192,52508,1,0,0:0:0:0:
64,192,52508,128,0,52675:3:0:0:0:
320,192,52508,1,2,2:0:0:0:
448,192,52675,1,2,2:0:0:0:
192,192,52841,1,2,2:0:0:0:
320,192,52841,1,0,0:0:0:0:
448,192,52925,1,2,2:0:0:0:
64,192,53008,1,2,2:0:0:0:
320,192,53008,1,2,3:0:0:0:
448,192,53091,1,2,2:0:0:0:
64,192,53175,1,2,2:0:0:0:
192,192,53175,1,2,3:0:0:0:
320,192,53175,1,0,0:0:0:0:
64,192,53341,1,2,2:0:0:0:
448,192,53341,1,4,3:0:0:0:
320,192,53341,1,2,3:0:0:0:
64,192,53508,1,2,2:0:0:0:
192,192,53508,1,4,3:0:0:0:
320,192,53508,1,2,3:0:0:0:
64,192,53675,1,2,2:0:0:0:
192,192,53675,1,4,3:0:0:0:
320,192,53675,1,4,2:0:0:0:
448,192,53675,1,4,1:0:0:0:
192,192,53841,128,0,54008:3:0:0:0:
64,192,53841,1,2,2:0:0:0:
448,192,53841,1,0,0:0:0:0:
448,192,54008,1,2,2:0:0:0:
64,192,54175,128,0,54341:3:0:0:0:
320,192,54341,128,0,54508:3:0:0:0:
192,192,54341,1,2,2:0:0:0:
448,192,54508,1,2,2:0:0:0:
192,192,54675,1,2,2:0:0:0:
64,192,54841,128,0,55008:3:0:0:0:
320,192,54841,1,2,2:0:0:0:
448,192,54841,1,0,0:0:0:0:
320,192,55008,1,0,0:0:0:0:
192,192,55008,1,2,2:0:0:0:
64,192,55175,1,0,0:0:0:0:
192,192,55175,1,2,2:0:0:0:
192,192,55341,128,0,55508:3:0:0:0:
320,192,55341,1,2,2:0:0:0:
64,192,55508,1,2,2:0:0:0:
448,192,55508,1,0,0:0:0:0:
320,192,55675,1,0,0:0:0:0:
64,192,55675,1,2,2:0:0:0:
320,192,55841,128,0,56008:3:0:0:0:
192,192,55841,1,2,2:0:0:0:
64,192,56008,128,0,56175:3:0:0:0:
448,192,56008,1,2,2:0:0:0:
320,192,56175,1,2,2:0:0:0:
448,192,56341,128,0,56508:3:0:0:0:
192,192,56341,1,2,2:0:0:0:
64,192,56508,1,0,0:0:0:0:
320,192,56508,1,2,2:0:0:0:
192,192,56675,1,0,0:0:0:0:
448,192,56675,1,2,2:0:0:0:
192,192,56841,128,0,57008:3:0:0:0:
64,192,57008,1,0,0:0:0:0:
64,192,57175,1,0,0:0:0:0:
64,192,57341,128,0,57508:3:0:0:0:
320,192,57341,1,0,0:0:0:0:
192,192,57508,1,0,0:0:0:0:
448,192,57508,1,2,2:0:0:0:
448,192,57675,1,0,0:0:0:0:
320,192,57675,1,2,2:0:0:0:
192,192,57841,128,0,58008:3:0:0:0:
64,192,57841,1,2,2:0:0:0:
448,192,57841,1,0,0:0:0:0:
320,192,58008,1,2,2:0:0:0:
320,192,58175,128,0,58341:3:0:0:0:
64,192,58175,1,0,0:0:0:0:
448,192,58175,1,2,2:0:0:0:
448,192,58341,128,0,58508:3:0:0:0:
192,192,58341,1,2,2:0:0:0:
64,192,58341,1,0,0:0:0:0:
320,192,58508,1,2,2:0:0:0:
192,192,58675,128,0,58841:3:0:0:0:
448,192,58675,1,2,2:0:0:0:
320,192,58841,1,2,2:0:0:0:
192,192,59008,1,2,2:0:0:0:
448,192,59175,128,0,59341:3:0:0:0:
192,192,59175,1,0,0:0:0:0:
64,192,59175,1,2,2:0:0:0:
320,192,59341,1,2,2:0:0:0:
64,192,59508,128,0,59675:3:0:0:0:
192,192,59675,128,0,59841:3:0:0:0:
448,192,59675,1,2,2:0:0:0:
320,192,59841,1,2,2:0:0:0:
64,192,60008,1,2,2:0:0:0:
320,192,60175,128,0,60341:3:0:0:0:
192,192,60175,1,2,2:0:0:0:
448,192,60175,1,0,0:0:0:0:
64,192,60341,1,0,0:0:0:0:
448,192,60341,1,2,2:0:0:0:
192,192,60508,1,2,2:0:0:0:
64,192,60508,1,0,0:0:0:0:
448,192,60675,128,0,60841:3:0:0:0:
320,192,60675,1,2,2:0:0:0:
192,192,60841,1,0,0:0:0:0:
320,192,60841,1,2,2:0:0:0:
64,192,61008,1,0,0:0:0:0:
320,192,61008,1,2,2:0:0:0:
192,192,61175,128,0,61341:3:0:0:0:
64,192,61175,1,2,2:0:0:0:
320,192,61341,128,0,61508:3:0:0:0:
448,192,61341,1,2,2:0:0:0:
192,192,61508,128,0,61675:3:0:0:0:
64,192,61508,1,2,2:0:0:0:
448,192,61675,128,0,61841:0:0:0:0:
320,192,61675,1,0,3:0:0:0:
64,192,61841,128,0,62091:0:0:0:0:
320,192,62175,128,0,62341:0:0:0:0:
192,192,62175,1,0,3:0:0:0:
64,192,62341,128,0,62591:3:0:0:0:
320,192,62675,128,0,62841:3:0:0:0:
448,192,62675,1,2,2:0:0:0:
192,192,62841,128,0,63008:3:0:0:0:
448,192,62841,1,2,2:0:0:0:
448,192,63008,1,2,2:0:0:0:
64,192,63008,1,0,3:0:0:0:
320,192,63341,128,0,63508:3:0:0:0:
64,192,63508,128,0,63675:3:0:0:0:
320,192,63841,128,0,64008:3:0:0:0:
64,192,64008,128,0,64175:3:0:0:0:
192,192,64008,1,2,2:0:0:0:
320,192,64175,128,0,64341:3:0:0:0:
192,192,64175,1,2,2:0:0:0:
64,192,64341,5,2,2:0:0:0:
448,192,64341,1,0,0:0:0:0:
192,192,64341,128,0,64841:3:0:0:0:
320,192,64508,1,2,2:0:0:0:
64,192,64675,1,2,2:0:0:0:
448,192,64675,1,0,0:0:0:0:
320,192,64841,128,0,65341:3:0:0:0:
448,192,64841,1,2,2:0:0:0:
192,192,65008,1,2,2:0:0:0:
192,192,65175,1,0,0:0:0:0:
64,192,65175,1,2,2:0:0:0:
448,192,65341,128,0,65841:3:0:0:0:
192,192,65341,1,2,2:0:0:0:
320,192,65508,1,2,2:0:0:0:
64,192,65675,1,2,2:0:0:0:
64,192,65841,128,0,66341:3:0:0:0:
192,192,65841,1,2,2:0:0:0:
320,192,66008,1,2,2:0:0:0:
448,192,66175,1,2,2:0:0:0:
192,192,66341,128,0,66675:3:0:0:0:
320,192,66341,1,2,2:0:0:0:
64,192,66508,1,0,0:0:0:0:
448,192,66508,1,0,0:0:0:0:
448,192,66675,1,2,2:0:0:0:
320,192,66675,128,0,67008:3:0:0:0:
64,192,66841,1,2,2:0:0:0:
64,192,67008,128,0,67508:3:0:0:0:
192,192,67008,1,2,2:0:0:0:
320,192,67175,1,2,2:0:0:0:
448,192,67341,1,2,2:0:0:0:
320,192,67341,1,0,0:0:0:0:
192,192,67508,128,0,67675:3:0:0:0:
448,192,67508,1,0,0:0:0:0:
448,192,67675,128,0,68008:3:0:0:0:
64,192,67675,1,0,0:0:0:0:
192,192,67841,1,2,2:0:0:0:
320,192,67841,1,0,0:0:0:0:
192,192,68008,128,0,68508:3:0:0:0:
64,192,68008,1,2,2:0:0:0:
320,192,68175,1,2,2:0:0:0:
448,192,68341,1,2,2:0:0:0:
64,192,68341,1,0,0:0:0:0:
320,192,68508,128,0,69008:3:0:0:0:
64,192,68508,1,2,2:0:0:0:
448,192,68675,1,2,2:0:0:0:
64,192,68841,1,2,2:0:0:0:
448,192,69008,128,0,69341:3:0:0:0:
192,192,69008,1,2,2:0:0:0:
64,192,69175,1,0,0:0:0:0:
320,192,69175,1,2,2:0:0:0:
320,192,69341,128,0,69841:3:0:0:0:
192,192,69341,1,2,2:0:0:0:
64,192,69508,1,2,2:0:0:0:
448,192,69675,1,2,2:0:0:0:
64,192,69841,128,0,70008:3:0:0:0:
448,192,69841,1,2,2:0:0:0:
192,192,70008,128,0,70341:3:0:0:0:
448,192,70008,1,0,0:0:0:0:
320,192,70008,1,2,2:0:0:0:
320,192,70175,1,2,2:0:0:0:
64,192,70341,128,0,70675:3:0:0:0:
448,192,70341,1,2,2:0:0:0:
448,192,70508,1,0,0:0:0:0:
320,192,70508,1,2,2:0:0:0:
320,192,70675,128,0,70841:3:0:0:0:
448,192,70675,1,2,2:0:0:0:
448,192,70841,128,0,71175:3:0:0:0:
192,192,70841,1,2,2:0:0:0:
64,192,71008,1,2,2:0:0:0:
320,192,71175,128,0,71341:3:0:0:0:
192,192,71175,1,2,2:0:0:0:
64,192,71341,128,0,71508:3:0:0:0:
448,192,71341,1,2,2:0:0:0:
192,192,71508,128,2,71675:3:0:0:0:
320,192,71508,1,2,2:0:0:0:
320,192,71675,128,0,72008:3:0:0:0:
448,192,71675,1,2,2:0:0:0:
64,192,71841,1,0,0:0:0:0:
192,192,71841,1,2,2:0:0:0:
192,192,72008,128,0,72341:3:0:0:0:
448,192,72008,1,2,2:0:0:0:
320,192,72175,1,2,2:0:0:0:
448,192,72341,128,0,72841:3:0:0:0:
320,192,72341,1,2,2:0:0:0:
320,192,72508,1,2,2:0:0:0:
64,192,72675,1,0,0:0:0:0:
192,192,72675,1,2,2:0:0:0:
64,192,72841,128,0,73008:3:0:0:0:
320,192,72841,1,2,2:0:0:0:
192,192,73008,128,0,73341:3:0:0:0:
448,192,73008,1,2,2:0:0:0:
320,192,73175,1,2,2:0:0:0:
64,192,73175,1,0,0:0:0:0:
320,192,73341,128,0,73508:3:0:0:0:
448,192,73341,1,2,2:0:0:0:
448,192,73508,128,0,73841:3:0:0:0:
64,192,73508,1,2,2:0:0:0:
320,192,73675,1,2,2:0:0:0:
192,192,73841,128,0,74008:3:0:0:0:
64,192,73841,1,2,2:0:0:0:
320,192,74008,128,0,74175:3:0:0:0:
448,192,74008,1,2,2:0:0:0:
64,192,74175,1,2,2:0:0:0:
448,192,74258,1,2,2:0:0:0:
64,192,74341,1,2,2:0:0:0:
448,192,74425,1,2,2:0:0:0:
192,192,74508,1,2,2:0:0:0:
64,192,74508,1,2,3:0:0:0:
64,192,74675,1,10,3:0:0:0:
192,192,74675,1,2,3:0:0:0:
320,192,74675,1,0,0:0:0:0:
64,192,74841,1,10,3:0:0:0:
320,192,74841,1,2,2:0:0:0:
192,192,74841,1,2,3:0:0:0:
448,192,74841,1,0,0:0:0:0:
64,192,75008,1,10,2:0:0:0:
320,192,75008,1,2,2:0:0:0:
448,192,75008,1,4,2:0:0:0:
192,192,75008,128,0,75508:3:0:0:0:
320,192,75175,1,2,2:0:0:0:
448,192,75341,1,2,2:0:0:0:
64,192,75341,1,2,2:0:0:0:
448,192,75508,128,0,76008:3:0:0:0:
320,192,75508,1,2,2:0:0:0:
64,192,75675,1,2,2:0:0:0:
64,192,75841,1,2,2:0:0:0:
320,192,75841,1,2,2:0:0:0:
320,192,76008,128,0,76508:3:0:0:0:
192,192,76008,1,2,2:0:0:0:
448,192,76175,1,2,2:0:0:0:
448,192,76341,1,2,2:0:0:0:
64,192,76508,128,0,77008:3:0:0:0:
448,192,76508,1,2,2:0:0:0:
192,192,76675,1,2,2:0:0:0:
192,192,76841,1,2,2:0:0:0:
192,192,77008,128,0,77341:3:0:0:0:
320,192,77008,1,2,2:0:0:0:
448,192,77175,1,2,2:0:0:0:
64,192,77175,1,2,2:0:0:0:
448,192,77341,128,0,77675:3:0:0:0:
320,192,77341,1,2,2:0:0:0:
192,192,77508,1,2,2:0:0:0:
64,192,77675,128,0,78175:3:0:0:0:
320,192,77675,1,2,2:0:0:0:
192,192,77841,1,2,2:0:0:0:
448,192,78008,1,2,2:0:0:0:
320,192,78008,1,2,2:0:0:0:
192,192,78175,128,0,78341:3:0:0:0:
320,192,78341,128,0,78675:3:0:0:0:
64,192,78341,1,2,2:0:0:0:
448,192,78508,1,2,2:0:0:0:
192,192,78508,1,2,2:0:0:0:
192,192,78675,128,0,79175:3:0:0:0:
448,192,78675,1,2,2:0:0:0:
64,192,78841,1,2,2:0:0:0:
320,192,79008,1,2,2:0:0:0:
64,192,79175,128,0,79341:3:0:0:0:
448,192,79175,1,2,2:0:0:0:
192,192,79341,128,0,79508:3:0:0:0:
448,192,79341,1,2,2:0:0:0:
320,192,79508,128,0,79675:3:0:0:0:
64,192,79508,1,2,2:0:0:0:
192,192,79675,128,0,79841:3:0:0:0:
448,192,79675,1,2,2:0:0:0:
448,192,79841,128,0,80008:3:0:0:0:
320,192,79841,1,2,2:0:0:0:
64,192,79841,1,0,0:0:0:0:
320,192,80008,128,0,80508:3:0:0:0:
192,192,80008,1,2,2:0:0:0:
64,192,80175,1,2,2:0:0:0:
192,192,80341,1,2,2:0:0:0:
64,192,80508,128,0,80675:3:0:0:0:
448,192,80508,1,2,2:0:0:0:
192,192,80675,128,0,81008:3:0:0:0:
448,192,80675,1,2,2:0:0:0:
320,192,80675,1,2,2:0:0:0:
64,192,80841,1,2,2:0:0:0:
320,192,81008,128,0,81341:3:0:0:0:
448,192,81008,1,2,2:0:0:0:
192,192,81175,1,2,2:0:0:0:
64,192,81175,1,2,2:0:0:0:
192,192,81341,128,0,81508:3:0:0:0:
448,192,81341,1,2,2:0:0:0:
448,192,81508,128,0,82008:3:0:0:0:
320,192,81508,1,2,2:0:0:0:
320,192,81675,1,2,2:0:0:0:
320,192,81841,1,2,2:0:0:0:
64,192,82008,128,0,82175:3:0:0:0:
192,192,82008,1,2,2:0:0:0:
192,192,82175,128,0,82341:3:0:0:0:
320,192,82175,1,2,2:0:0:0:
320,192,82341,128,0,82675:3:0:0:0:
448,192,82341,1,2,2:0:0:0:
192,192,82508,1,2,2:0:0:0:
64,192,82508,1,2,2:0:0:0:
192,192,82675,128,0,83008:3:0:0:0:
448,192,82675,1,2,2:0:0:0:
320,192,82841,1,2,2:0:0:0:
64,192,83008,128,0,83341:3:0:0:0:
448,192,83008,1,2,2:0:0:0:
320,192,83175,1,2,2:0:0:0:
192,192,83341,128,0,83508:3:0:0:0:
320,192,83341,1,2,2:0:0:0:
448,192,83341,1,2,2:0:0:0:
320,192,83508,128,0,83841:3:0:0:0:
64,192,83508,1,2,2:0:0:0:
192,192,83675,1,2,2:0:0:0:
64,192,83841,128,0,84008:3:0:0:0:
192,192,83841,1,2,2:0:0:0:
448,192,83841,1,2,2:0:0:0:
192,192,84008,128,0,84175:3:0:0:0:
320,192,84175,128,0,84341:3:0:0:0:
64,192,84175,1,2,2:0:0:0:
448,192,84341,128,0,85675:3:0:0:0:
192,192,84341,1,2,2:0:0:0:
64,192,84341,1,2,2:0:0:0:
64,192,84508,1,2,2:0:0:0:
64,192,84675,1,2,2:0:0:0:
64,192,84841,1,2,2:0:0:0:
64,192,85008,1,2,2:0:0:0:
64,192,85175,1,2,2:0:0:0:
320,192,85341,1,8,2:0:0:0:
64,192,85341,1,2,2:0:0:0:
64,192,85508,1,2,2:0:0:0:
64,192,85675,128,2,85841:3:0:0:0:
192,192,85841,128,2,86008:3:0:0:0:
320,192,86008,128,2,86175:3:0:0:0:
64,192,86175,128,2,86341:3:0:0:0:
192,192,86341,128,2,86508:3:0:0:0:
448,192,86508,128,2,86675:3:0:0:0:
64,192,86675,128,2,86841:3:0:0:0:
320,192,86841,128,2,87008:3:0:0:0:
448,192,87008,128,2,87175:3:0:0:0:
64,192,87175,128,2,87341:3:0:0:0:
448,192,87341,128,2,87508:3:0:0:0:
320,192,87508,128,2,87675:3:0:0:0:
64,192,87675,128,2,87841:3:0:0:0:
192,192,87841,128,2,87925:3:0:0:0:
320,192,87925,128,2,88008:3:0:0:0:
448,192,88008,128,2,88175:3:0:0:0:
192,192,88175,128,2,88341:3:0:0:0:
320,192,88341,128,2,88508:3:0:0:0:
448,192,88508,128,2,88675:3:0:0:0:
64,192,88675,128,2,88841:3:0:0:0:
320,192,88841,128,2,89008:3:0:0:0:
192,192,89008,128,2,89175:3:0:0:0:
448,192,89175,128,2,89341:3:0:0:0:
320,192,89341,128,2,89508:3:0:0:0:
192,192,89508,128,2,89675:3:0:0:0:
64,192,89675,128,2,89841:3:0:0:0:
448,192,89841,128,2,90008:3:0:0:0:
192,192,90008,128,2,90175:3:0:0:0:
320,192,90175,128,2,90341:3:0:0:0:
64,192,90341,128,2,90508:3:0:0:0:
192,192,90508,128,2,90675:3:0:0:0:
64,192,90675,128,2,90841:3:0:0:0:
192,192,90841,128,2,90925:3:0:0:0:
320,192,90925,128,2,91008:3:0:0:0:
448,192,91008,128,2,91175:3:0:0:0:
64,192,91175,128,2,91341:3:0:0:0:
192,192,91341,128,2,91508:3:0:0:0:
320,192,91508,128,2,91675:3:0:0:0:
192,192,91675,128,2,91841:3:0:0:0:
448,192,91841,128,2,92008:3:0:0:0:
64,192,92008,128,2,92175:3:0:0:0:
448,192,92175,128,2,92341:3:0:0:0:
320,192,92341,128,2,92425:3:0:0:0:
64,192,92425,128,2,92508:3:0:0:0:
192,192,92508,128,2,92675:3:0:0:0:
320,192,92675,128,2,92841:3:0:0:0:
192,192,92841,128,2,93008:3:0:0:0:
64,192,93008,128,2,93175:3:0:0:0:
448,192,93175,128,2,93341:3:0:0:0:
320,192,93341,128,2,93508:3:0:0:0:
64,192,93508,128,2,93675:3:0:0:0:
448,192,93675,128,2,93841:3:0:0:0:
320,192,93841,128,2,94008:3:0:0:0:
192,192,94008,128,2,94175:3:0:0:0:
320,192,94175,128,2,94341:3:0:0:0:
64,192,94341,128,2,94508:3:0:0:0:
192,192,94508,128,2,94675:3:0:0:0:
320,192,94675,128,2,94841:3:0:0:0:
64,192,94841,128,2,95008:3:0:0:0:
192,192,95008,128,2,95175:3:0:0:0:
320,192,95175,128,2,95341:3:0:0:0:
448,192,95341,128,2,95508:3:0:0:0:
64,192,95508,128,2,95591:3:0:0:0:
192,192,95591,128,2,95675:3:0:0:0:
320,192,95675,128,2,95841:3:0:0:0:
448,192,95841,128,2,96008:3:0:0:0:
64,192,96008,128,2,96175:3:0:0:0:
192,192,96175,128,2,96341:3:0:0:0:
320,192,96341,128,2,96425:3:0:0:0:
64,192,96341,1,8,2:0:0:0:
448,192,96425,128,2,96508:3:0:0:0:
192,192,96508,128,2,96675:3:0:0:0:
64,192,96675,128,2,96758:3:0:0:0:
448,192,96675,1,8,2:0:0:0:
320,192,96758,128,2,96841:3:0:0:0:
64,192,96841,128,2,97008:3:0:0:0:
192,192,97008,128,2,97091:3:0:0:0:
320,192,97008,1,8,2:0:0:0:
448,192,97091,128,2,97175:3:0:0:0:
64,192,97175,128,2,97341:3:0:0:0:
320,192,97175,1,8,2:0:0:0:
320,192,97341,128,2,97425:3:0:0:0:
448,192,97425,128,2,97508:3:0:0:0:
192,192,97508,128,2,97675:3:0:0:0:
64,192,97508,1,8,2:0:0:0:
320,192,97675,128,2,97841:3:0:0:0:
64,192,97675,1,8,2:0:0:0:
448,192,97841,128,2,98008:3:0:0:0:
192,192,97841,1,8,2:0:0:0:
64,192,98008,128,2,98175:3:0:0:0:
320,192,98175,128,2,98258:3:0:0:0:
448,192,98175,1,8,2:0:0:0:
192,192,98258,128,2,98341:3:0:0:0:
64,192,98341,128,2,98508:3:0:0:0:
192,192,98508,128,2,98675:3:0:0:0:
448,192,98508,1,8,2:0:0:0:
320,192,98675,128,2,98841:3:0:0:0:
448,192,98675,1,8,2:0:0:0:
448,192,98841,128,2,99008:3:0:0:0:
192,192,98841,1,8,2:0:0:0:
64,192,99008,128,2,99175:3:0:0:0:
192,192,99175,128,2,99341:3:0:0:0:
320,192,99175,1,8,2:0:0:0:
448,192,99341,128,2,99508:3:0:0:0:
64,192,99508,128,2,99675:3:0:0:0:
192,192,99508,1,8,2:0:0:0:
320,192,99675,128,2,99841:3:0:0:0:
192,192,99675,1,8,2:0:0:0:
448,192,99841,128,2,100008:3:0:0:0:
192,192,99841,1,8,2:0:0:0:
64,192,100008,128,2,100175:3:0:0:0:
192,192,100175,128,2,100258:3:0:0:0:
320,192,100175,1,8,2:0:0:0:
448,192,100258,128,2,100341:3:0:0:0:
192,192,100341,128,2,100508:3:0:0:0:
64,192,100341,1,2,2:0:0:0:
320,192,100508,128,2,100675:3:0:0:0:
448,192,100675,128,2,100841:3:0:0:0:
64,192,100675,1,8,2:0:0:0:
64,192,100841,128,2,100925:3:0:0:0:
320,192,100841,1,0,0:0:0:0:
192,192,100925,128,2,101008:3:0:0:0:
320,192,101008,128,2,101175:3:0:0:0:
192,192,101175,128,2,101258:3:0:0:0:
448,192,101175,1,8,2:0:0:0:
64,192,101258,128,2,101341:3:0:0:0:
192,192,101341,128,2,101508:3:0:0:0:
448,192,101341,1,8,2:0:0:0:
64,192,101508,128,2,101675:3:0:0:0:
448,192,101508,1,8,2:0:0:0:
448,192,101675,128,2,101841:3:0:0:0:
320,192,101675,1,8,2:0:0:0:
192,192,101675,1,4,3:0:0:0:
192,192,101841,128,2,102008:3:0:0:0:
64,192,101841,1,8,2:0:0:0:
320,192,102008,128,6,102175:3:0:0:0:
64,192,102008,1,8,2:0:0:0:
192,192,102175,128,2,102258:3:0:0:0:
64,192,102258,128,0,102341:0:0:0:0:
448,192,102341,128,6,102508:3:0:0:0:
320,192,102341,1,8,2:0:0:0:
192,192,102508,128,2,102675:3:0:0:0:
320,192,102675,128,6,102841:3:0:0:0:
448,192,102675,1,8,2:0:0:0:
64,192,102841,128,2,102925:3:0:0:0:
448,192,102841,1,8,2:0:0:0:
192,192,102925,128,2,103008:3:0:0:0:
320,192,103008,128,6,103175:3:0:0:0:
192,192,103175,1,8,2:0:0:0:
64,192,103175,128,0,103341:0:0:0:0:
192,192,103341,128,6,103508:3:0:0:0:
448,192,103508,128,2,103675:3:0:0:0:
320,192,103508,1,8,2:0:0:0:
64,192,103675,128,6,103841:3:0:0:0:
320,192,103841,128,2,104008:3:0:0:0:
192,192,103841,1,8,2:0:0:0:
192,192,104008,128,6,104091:3:0:0:0:
448,192,104008,1,8,2:0:0:0:
64,192,104091,128,2,104175:3:0:0:0:
320,192,104175,128,2,104341:3:0:0:0:
448,192,104175,1,8,2:0:0:0:
448,192,104341,128,6,104508:3:0:0:0:
192,192,104508,128,2,104675:3:0:0:0:
64,192,104508,1,8,2:0:0:0:
320,192,104675,128,6,104841:3:0:0:0:
448,192,104841,128,2,105008:3:0:0:0:
192,192,104841,1,8,2:0:0:0:
64,192,105008,128,6,105175:3:0:0:0:
192,192,105008,1,8,2:0:0:0:
192,192,105175,128,2,105341:3:0:0:0:
320,192,105175,1,8,2:0:0:0:
320,192,105341,128,6,105508:3:0:0:0:
448,192,105508,128,2,105591:3:0:0:0:
192,192,105508,1,8,2:0:0:0:
320,192,105591,128,2,105675:3:0:0:0:
64,192,105675,128,6,105841:3:0:0:0:
192,192,105675,1,8,2:0:0:0:
192,192,105841,128,2,106008:3:0:0:0:
320,192,105841,1,8,2:0:0:0:
448,192,106008,128,6,106175:3:0:0:0:
320,192,106008,1,8,2:0:0:0:
64,192,106175,128,2,106341:3:0:0:0:
320,192,106175,1,8,2:0:0:0:
192,192,106258,1,2,2:0:0:0:
320,192,106341,128,6,106508:3:0:0:0:
448,192,106341,1,8,2:0:0:0:
448,192,106508,128,2,106675:3:0:0:0:
192,192,106508,1,8,2:0:0:0:
192,192,106675,128,8,106758:2:0:0:0:
320,192,106675,1,8,2:0:0:0:
64,192,106758,128,8,106841:2:0:0:0:
192,192,106841,128,8,106925:2:0:0:0:
64,192,106925,128,8,107008:2:0:0:0:
448,192,107008,1,0,0:0:0:0:
320,192,107008,1,0,2:0:0:0:
192,192,107008,1,0,0:0:0:0:
320,192,107175,1,0,0:0:0:0:
64,192,107175,1,2,2:0:0:0:
192,192,107341,1,8,2:0:0:0:
448,192,107341,1,2,2:0:0:0:
64,192,107508,1,2,2:0:0:0:
64,192,107591,1,2,2:0:0:0:
192,192,107675,1,2,2:0:0:0:
448,192,107675,1,0,0:0:0:0:
448,192,107841,1,2,2:0:0:0:
448,192,107925,1,2,2:0:0:0:
64,192,108008,1,2,2:0:0:0:
320,192,108008,1,8,2:0:0:0:
64,192,108175,1,0,0:0:0:0:
192,192,108175,1,2,2:0:0:0:
192,192,108341,1,2,2:0:0:0:
448,192,108341,1,0,0:0:0:0:
64,192,108341,1,0,0:0:0:0:
320,192,108508,1,2,2:0:0:0:
448,192,108508,1,0,0:0:0:0:
320,192,108675,1,8,2:0:0:0:
64,192,108675,1,2,2:0:0:0:
192,192,108841,1,2,2:0:0:0:
192,192,108925,1,2,2:0:0:0:
320,192,109008,1,2,2:0:0:0:
64,192,109008,1,0,0:0:0:0:
320,192,109175,1,2,2:0:0:0:
320,192,109258,1,2,2:0:0:0:
448,192,109341,1,8,2:0:0:0:
64,192,109341,1,2,2:0:0:0:
64,192,109508,1,2,2:0:0:0:
320,192,109508,1,0,0:0:0:0:
64,192,109675,1,2,2:0:0:0:
192,192,109675,1,0,0:0:0:0:
448,192,109675,1,0,0:0:0:0:
448,192,109841,1,0,0:0:0:0:
192,192,109841,1,2,2:0:0:0:
320,192,110008,1,8,2:0:0:0:
192,192,110008,1,2,2:0:0:0:
64,192,110175,1,2,2:0:0:0:
192,192,110175,1,0,0:0:0:0:
448,192,110341,1,0,0:0:0:0:
192,192,110341,1,2,2:0:0:0:
448,192,110508,1,2,2:0:0:0:
448,192,110591,1,2,2:0:0:0:
320,192,110675,1,8,2:0:0:0:
64,192,110675,1,2,2:0:0:0:
192,192,110841,1,0,0:0:0:0:
64,192,110841,1,2,2:0:0:0:
192,192,111008,1,2,2:0:0:0:
320,192,111008,1,0,0:0:0:0:
448,192,111008,1,0,0:0:0:0:
192,192,111175,1,2,2:0:0:0:
320,192,111175,1,0,0:0:0:0:
448,192,111341,1,2,2:0:0:0:
320,192,111341,1,8,2:0:0:0:
192,192,111508,1,2,2:0:0:0:
320,192,111508,1,0,0:0:0:0:
192,192,111675,1,2,2:0:0:0:
448,192,111675,1,0,0:0:0:0:
64,192,111841,1,2,2:0:0:0:
64,192,111925,1,2,2:0:0:0:
448,192,112008,128,2,112147:2:0:0:0:
320,192,112008,1,8,2:0:0:0:
448,192,112175,128,0,112314:0:0:0:0:
192,192,112175,1,2,2:0:0:0:
64,192,112341,1,2,2:0:0:0:
320,192,112341,1,0,0:0:0:0:
64,192,112425,1,2,2:0:0:0:
448,192,112508,1,2,2:0:0:0:
320,192,112508,1,0,0:0:0:0:
64,192,112675,1,2,2:0:0:0:
320,192,112675,1,8,2:0:0:0:
64,192,112841,1,2,2:0:0:0:
192,192,112841,1,0,0:0:0:0:
448,192,113008,1,2,2:0:0:0:
320,192,113008,1,0,0:0:0:0:
320,192,113175,1,2,2:0:0:0:
320,192,113258,1,2,2:0:0:0:
192,192,113341,1,8,2:0:0:0:
64,192,113341,1,2,2:0:0:0:
448,192,113508,1,2,2:0:0:0:
320,192,113508,1,0,0:0:0:0:
192,192,113675,1,2,2:0:0:0:
320,192,113675,1,0,0:0:0:0:
64,192,113675,1,0,0:0:0:0:
448,192,113841,1,2,2:0:0:0:
64,192,113841,1,0,0:0:0:0:
448,192,113925,1,2,2:0:0:0:
192,192,114008,1,10,2:0:0:0:
192,192,114091,1,2,2:0:0:0:
64,192,114175,1,2,2:0:0:0:
448,192,114175,1,0,0:0:0:0:
320,192,114341,1,0,0:0:0:0:
64,192,114341,1,2,2:0:0:0:
192,192,114508,1,2,2:0:0:0:
320,192,114508,1,0,0:0:0:0:
64,192,114675,1,2,2:0:0:0:
320,192,114675,1,8,2:0:0:0:
320,192,114758,1,2,2:0:0:0:
448,192,114841,1,0,0:0:0:0:
64,192,115008,1,2,2:0:0:0:
192,192,115008,1,0,0:0:0:0:
448,192,115008,1,0,0:0:0:0:
448,192,115175,1,2,2:0:0:0:
320,192,115175,1,0,0:0:0:0:
320,192,115341,1,8,2:0:0:0:
192,192,115341,1,2,2:0:0:0:
64,192,115508,1,0,0:0:0:0:
320,192,115508,1,2,2:0:0:0:
448,192,115675,1,2,2:0:0:0:
192,192,115675,1,0,0:0:0:0:
320,192,115841,1,2,2:0:0:0:
320,192,115925,1,2,2:0:0:0:
64,192,116008,1,2,2:0:0:0:
448,192,116008,1,8,2:0:0:0:
320,192,116175,1,2,2:0:0:0:
192,192,116175,1,0,0:0:0:0:
192,192,116341,1,2,2:0:0:0:
320,192,116341,1,0,0:0:0:0:
448,192,116341,1,0,0:0:0:0:
64,192,116508,1,0,0:0:0:0:
320,192,116508,1,2,2:0:0:0:
320,192,116675,1,10,2:0:0:0:
64,192,116758,1,2,2:0:0:0:
192,192,116841,128,2,116925:2:0:0:0:
320,192,116925,128,2,117008:2:0:0:0:
192,192,117008,128,2,117091:2:0:0:0:
320,192,117091,128,2,117175:2:0:0:0:
192,192,117175,128,2,117258:2:0:0:0:
320,192,117258,128,2,117341:2:0:0:0:
192,192,117341,128,8,117425:2:0:0:0:
64,192,117341,128,2,117425:2:0:0:0:
320,192,117425,128,2,117508:2:0:0:0:
448,192,117425,128,0,117508:0:0:0:0:
192,192,117508,128,2,117591:2:0:0:0:
64,192,117508,128,0,117591:0:0:0:0:
320,192,117591,128,2,117675:2:0:0:0:
448,192,117591,128,0,117675:0:0:0:0:
192,192,117675,1,6,2:0:0:0:
64,192,117675,128,2,117841:2:0:0:0:
448,192,117841,1,2,2:0:0:0:
320,192,117925,1,2,2:0:0:0:
64,192,118008,1,2,2:0:0:0:
192,192,118008,1,8,2:0:0:0:
448,192,118091,1,2,2:0:0:0:
320,192,118175,1,2,2:0:0:0:
64,192,118341,1,0,0:0:0:0:
448,192,118341,1,2,2:0:0:0:
64,192,118508,1,2,2:0:0:0:
64,192,118591,1,2,2:0:0:0:
192,192,118675,1,2,2:0:0:0:
320,192,118675,1,8,2:0:0:0:
448,192,118841,1,2,2:0:0:0:
320,192,118925,1,2,2:0:0:0:
448,192,119008,1,0,0:0:0:0:
192,192,119008,1,2,2:0:0:0:
64,192,119008,1,0,0:0:0:0:
320,192,119175,1,2,2:0:0:0:
448,192,119258,1,2,2:0:0:0:
192,192,119258,1,0,0:0:0:0:
320,192,119425,1,2,2:0:0:0:
192,192,119508,1,0,0:0:0:0:
448,192,119508,1,2,2:0:0:0:
64,192,119675,1,0,0:0:0:0:
192,192,119675,1,2,2:0:0:0:
320,192,119841,1,2,2:0:0:0:
64,192,119841,1,0,0:0:0:0:
448,192,120008,1,10,2:0:0:0:
448,192,120091,1,2,2:0:0:0:
320,192,120175,1,2,2:0:0:0:
192,192,120175,1,0,0:0:0:0:
320,192,120341,1,0,0:0:0:0:
64,192,120341,1,2,2:0:0:0:
448,192,120341,1,0,0:0:0:0:
64,192,120508,1,0,0:0:0:0:
448,192,120508,1,2,2:0:0:0:
192,192,120675,1,10,2:0:0:0:
192,192,120758,1,2,2:0:0:0:
320,192,120841,1,2,2:0:0:0:
64,192,120841,1,0,0:0:0:0:
320,192,121008,1,2,2:0:0:0:
192,192,121008,1,0,0:0:0:0:
320,192,121175,1,2,2:0:0:0:
320,192,121258,1,2,2:0:0:0:
64,192,121341,1,2,2:0:0:0:
192,192,121341,1,8,2:0:0:0:
448,192,121508,1,2,2:0:0:0:
320,192,121508,1,0,0:0:0:0:
448,192,121675,1,2,2:0:0:0:
64,192,121675,1,0,0:0:0:0:
448,192,121758,1,2,2:0:0:0:
320,192,121841,1,0,0:0:0:0:
192,192,121841,1,2,2:0:0:0:
448,192,121925,1,0,0:0:0:0:
64,192,122008,1,2,2:0:0:0:
320,192,122008,1,8,2:0:0:0:
448,192,122175,1,2,2:0:0:0:
192,192,122175,1,0,0:0:0:0:
320,192,122341,1,2,2:0:0:0:
320,192,122425,1,2,2:0:0:0:
64,192,122508,1,0,0:0:0:0:
192,192,122508,1,2,2:0:0:0:
192,192,122675,1,10,2:0:0:0:
192,192,122758,1,2,2:0:0:0:
320,192,122841,1,2,2:0:0:0:
320,192,122925,1,2,2:0:0:0:
448,192,123008,1,0,0:0:0:0:
64,192,123008,1,2,2:0:0:0:
192,192,123008,1,0,0:0:0:0:
64,192,123175,1,0,0:0:0:0:
320,192,123175,1,2,2:0:0:0:
448,192,123341,1,8,2:0:0:0:
192,192,123341,1,2,2:0:0:0:
448,192,123508,1,2,2:0:0:0:
320,192,123508,1,0,0:0:0:0:
192,192,123591,1,2,2:0:0:0:
64,192,123675,1,2,2:0:0:0:
320,192,123675,1,0,0:0:0:0:
64,192,123841,1,2,2:0:0:0:
192,192,123841,1,0,0:0:0:0:
448,192,124008,1,2,2:0:0:0:
320,192,124008,1,8,2:0:0:0:
448,192,124175,1,2,2:0:0:0:
448,192,124258,1,2,2:0:0:0:
320,192,124341,1,0,0:0:0:0:
192,192,124341,1,2,2:0:0:0:
64,192,124341,1,0,0:0:0:0:
448,192,124425,1,0,0:0:0:0:
192,192,124508,1,2,2:0:0:0:
320,192,124591,1,2,2:0:0:0:
448,192,124675,1,8,2:0:0:0:
64,192,124675,1,2,2:0:0:0:
192,192,124758,1,0,0:0:0:0:
64,192,124841,1,0,0:0:0:0:
320,192,124925,1,2,2:0:0:0:
64,192,125008,1,0,0:0:0:0:
192,192,125008,1,2,2:0:0:0:
320,192,125091,1,2,2:0:0:0:
448,192,125175,1,2,2:0:0:0:
192,192,125258,1,2,2:0:0:0:
320,192,125258,1,0,0:0:0:0:
64,192,125341,1,10,2:0:0:0:
320,192,125425,1,2,2:0:0:0:
64,192,125508,1,2,2:0:0:0:
448,192,125508,1,2,2:0:0:0:
192,192,125591,1,2,2:0:0:0:
64,192,125675,1,0,0:0:0:0:
320,192,125675,1,2,2:0:0:0:
192,192,125758,1,2,2:0:0:0:
320,192,125841,1,2,2:0:0:0:
448,192,125841,1,0,0:0:0:0:
192,192,125925,1,2,2:0:0:0:
64,192,126008,1,10,2:0:0:0:
192,192,126050,1,2,2:0:0:0:
320,192,126091,1,2,2:0:0:0:
64,192,126175,1,0,0:0:0:0:
448,192,126175,1,2,2:0:0:0:
320,192,126258,1,2,2:0:0:0:
448,192,126341,1,2,2:0:0:0:
192,192,126341,1,0,0:0:0:0:
64,192,126425,1,2,2:0:0:0:
448,192,126508,1,2,2:0:0:0:
320,192,126508,1,0,0:0:0:0:
192,192,126550,1,2,2:0:0:0:
64,192,126591,1,2,2:0:0:0:
192,192,126675,1,8,2:0:0:0:
448,192,126675,1,2,2:0:0:0:
320,192,126758,1,2,2:0:0:0:
448,192,126841,1,2,2:0:0:0:
192,192,126925,1,2,2:0:0:0:
448,192,127008,1,2,2:0:0:0:
64,192,127008,1,0,0:0:0:0:
320,192,127050,1,2,2:0:0:0:
192,192,127091,1,2,2:0:0:0:
64,192,127175,1,2,2:0:0:0:
448,192,127175,1,0,0:0:0:0:
320,192,127258,1,2,2:0:0:0:
64,192,127341,1,10,2:0:0:0:
192,192,127383,1,2,2:0:0:0:
320,192,127425,1,2,2:0:0:0:
448,192,127466,1,2,2:0:0:0:
64,192,127508,1,2,2:0:0:0:
192,192,127550,1,2,2:0:0:0:
320,192,127591,1,2,2:0:0:0:
448,192,127633,1,2,2:0:0:0:
64,192,127675,128,2,127758:2:0:0:0:
192,192,127675,1,0,0:0:0:0:
448,192,127758,128,2,127841:2:0:0:0:
320,192,127758,1,0,0:0:0:0:
64,192,127841,128,2,127925:2:0:0:0:
192,192,127841,1,0,0:0:0:0:
448,192,127925,128,2,128008:2:0:0:0:
320,192,127925,1,0,0:0:0:0:
192,192,128008,128,10,128341:2:0:0:0:
320,192,128341,1,0,0:0:0:0:
448,192,128341,1,4,2:0:0:0:
64,192,128341,128,2,128508:3:0:0:0:
192,192,128508,128,2,128675:3:0:0:0:
448,192,128508,1,0,0:0:0:0:
448,192,128675,128,2,128841:3:0:0:0:
64,192,128675,1,8,0:0:0:0:
320,192,128675,1,0,0:0:0:0:
320,192,128841,128,2,129008:3:0:0:0:
64,192,128841,1,0,0:0:0:0:
192,192,128925,1,2,3:0:0:0:
64,192,129008,128,2,129175:3:0:0:0:
448,192,129008,1,0,0:0:0:0:
448,192,129175,128,2,129341:3:0:0:0:
320,192,129175,1,0,0:0:0:0:
192,192,129341,128,2,129508:3:0:0:0:
320,192,129341,1,8,1:0:0:0:
64,192,129341,1,0,0:0:0:0:
320,192,129508,128,2,129675:3:0:0:0:
64,192,129508,1,0,0:0:0:0:
448,192,129591,1,2,3:0:0:0:
64,192,129675,128,2,129841:3:0:0:0:
192,192,129675,1,0,0:0:0:0:
320,192,129841,128,2,130008:3:0:0:0:
448,192,130008,128,2,130175:3:0:0:0:
64,192,130008,1,8,1:0:0:0:
192,192,130008,1,0,0:0:0:0:
192,192,130175,128,2,130341:3:0:0:0:
320,192,130175,1,0,0:0:0:0:
64,192,130258,1,0,0:0:0:0:
320,192,130341,128,2,130508:3:0:0:0:
448,192,130341,1,0,0:0:0:0:
448,192,130508,128,2,130675:3:0:0:0:
192,192,130508,1,0,0:0:0:0:
320,192,130675,1,8,0:0:0:0:
64,192,130675,128,2,130841:3:0:0:0:
192,192,130675,1,0,0:0:0:0:
320,192,130841,128,2,131008:3:0:0:0:
448,192,130841,1,0,0:0:0:0:
192,192,130925,1,2,3:0:0:0:
448,192,131008,128,2,131175:3:0:0:0:
64,192,131008,1,0,0:0:0:0:
320,192,131175,128,2,131341:3:0:0:0:
64,192,131175,1,0,0:0:0:0:
64,192,131341,128,2,131508:3:0:0:0:
192,192,131341,1,8,1:0:0:0:
448,192,131341,1,0,0:0:0:0:
192,192,131508,128,2,131675:3:0:0:0:
320,192,131508,1,0,0:0:0:0:
448,192,131591,1,2,3:0:0:0:
320,192,131675,128,2,131841:3:0:0:0:
64,192,131675,1,0,0:0:0:0:
448,192,131841,128,2,132008:3:0:0:0:
192,192,131841,1,0,0:0:0:0:
64,192,132008,128,2,132175:3:0:0:0:
192,192,132008,1,0,0:0:0:0:
320,192,132008,1,8,0:0:0:0:
192,192,132175,128,2,132341:3:0:0:0:
320,192,132175,1,0,0:0:0:0:
320,192,132341,128,2,132508:3:0:0:0:
448,192,132341,1,0,0:0:0:0:
64,192,132508,128,2,132675:3:0:0:0:
192,192,132508,1,0,0:0:0:0:
320,192,132675,128,2,132841:3:0:0:0:
192,192,132675,1,8,0:0:0:0:
448,192,132675,1,0,0:0:0:0:
448,192,132841,128,2,133008:3:0:0:0:
64,192,132841,1,0,0:0:0:0:
192,192,133008,128,2,133175:3:0:0:0:
64,192,133008,1,0,0:0:0:0:
320,192,133175,128,2,133341:3:0:0:0:
448,192,133175,1,0,0:0:0:0:
64,192,133341,128,2,133508:3:0:0:0:
192,192,133341,1,8,2:0:0:0:
448,192,133425,1,8,2:0:0:0:
192,192,133508,128,2,133675:3:0:0:0:
320,192,133508,1,8,2:0:0:0:
448,192,133591,1,8,2:0:0:0:
320,192,133675,128,2,133841:3:0:0:0:
64,192,133675,1,8,2:0:0:0:
64,192,133841,128,2,134008:3:0:0:0:
448,192,133841,1,0,0:0:0:0:
448,192,134008,128,2,134175:3:0:0:0:
192,192,134008,1,8,1:0:0:0:
320,192,134175,128,2,134341:3:0:0:0:
64,192,134175,1,0,0:0:0:0:
192,192,134258,1,2,3:0:0:0:
64,192,134341,128,2,134508:3:0:0:0:
448,192,134341,1,0,0:0:0:0:
192,192,134508,128,2,134675:3:0:0:0:
320,192,134508,1,0,0:0:0:0:
64,192,134675,128,2,134841:3:0:0:0:
448,192,134675,1,8,0:0:0:0:
320,192,134675,1,0,0:0:0:0:
320,192,134841,128,2,135008:3:0:0:0:
192,192,134841,1,0,0:0:0:0:
448,192,134925,1,2,3:0:0:0:
192,192,135008,128,2,135175:3:0:0:0:
64,192,135008,1,0,0:0:0:0:
320,192,135175,128,2,135341:3:0:0:0:
448,192,135175,1,0,0:0:0:0:
448,192,135341,128,2,135508:3:0:0:0:
192,192,135341,1,0,0:0:0:0:
64,192,135341,1,8,0:0:0:0:
64,192,135508,128,2,135675:3:0:0:0:
192,192,135508,1,0,0:0:0:0:
320,192,135591,1,2,3:0:0:0:
192,192,135675,128,2,135841:3:0:0:0:
448,192,135675,1,0,0:0:0:0:
320,192,135758,1,2,3:0:0:0:
448,192,135841,128,2,136008:3:0:0:0:
64,192,135841,1,0,0:0:0:0:
320,192,135925,1,2,3:0:0:0:
64,192,136008,128,2,136175:3:0:0:0:
192,192,136008,1,8,0:0:0:0:
320,192,136091,1,2,3:0:0:0:
192,192,136175,128,2,136341:3:0:0:0:
448,192,136175,1,8,2:0:0:0:
320,192,136341,128,2,136508:3:0:0:0:
64,192,136341,1,0,0:0:0:0:
64,192,136508,128,2,136675:3:0:0:0:
192,192,136508,1,0,0:0:0:0:
192,192,136675,128,2,136841:3:0:0:0:
320,192,136675,1,0,0:0:0:0:
448,192,136675,1,8,0:0:0:0:
320,192,136841,128,2,137008:3:0:0:0:
448,192,136841,1,0,0:0:0:0:
64,192,136925,1,2,3:0:0:0:
192,192,137008,128,2,137175:3:0:0:0:
448,192,137008,1,0,0:0:0:0:
448,192,137175,128,2,137341:3:0:0:0:
320,192,137175,1,0,0:0:0:0:
192,192,137341,128,2,137508:3:0:0:0:
64,192,137341,1,8,1:0:0:0:
320,192,137341,1,0,0:0:0:0:
320,192,137508,128,2,137675:3:0:0:0:
448,192,137508,1,0,0:0:0:0:
64,192,137591,1,8,2:0:0:0:
448,192,137675,128,2,137841:3:0:0:0:
192,192,137675,1,0,0:0:0:0:
192,192,137841,128,2,138008:3:0:0:0:
320,192,137841,1,0,0:0:0:0:
320,192,138008,128,2,138175:3:0:0:0:
64,192,138008,1,0,0:0:0:0:
448,192,138008,1,8,2:0:0:0:
448,192,138175,128,2,138341:3:0:0:0:
192,192,138175,1,0,0:0:0:0:
320,192,138341,128,2,138508:3:0:0:0:
192,192,138341,1,0,0:0:0:0:
64,192,138425,1,2,3:0:0:0:
192,192,138508,128,2,138675:3:0:0:0:
448,192,138508,1,0,0:0:0:0:
64,192,138591,1,2,3:0:0:0:
448,192,138675,1,0,0:0:0:0:
320,192,138675,1,8,2:0:0:0:
64,192,138758,1,0,0:0:0:0:
192,192,138758,1,8,2:0:0:0:
448,192,138841,1,0,0:0:0:0:
320,192,138841,1,8,2:0:0:0:
192,192,138925,1,8,2:0:0:0:
64,192,138925,1,0,0:0:0:0:
448,192,139008,128,0,139341:0:0:0:0:
320,192,139008,1,0,0:0:0:0:
192,192,139341,128,2,139508:3:0:0:0:
64,192,139341,1,8,2:0:0:0:
320,192,139341,1,0,0:0:0:0:
64,192,139508,128,2,139675:3:0:0:0:
320,192,139508,1,0,0:0:0:0:
448,192,139591,1,2,3:0:0:0:
320,192,139675,128,2,139841:3:0:0:0:
192,192,139675,1,0,0:0:0:0:
448,192,139841,128,2,140008:3:0:0:0:
64,192,139841,1,0,0:0:0:0:
192,192,140008,128,2,140175:3:0:0:0:
320,192,140008,1,8,0:0:0:0:
64,192,140008,1,0,0:0:0:0:
320,192,140175,128,2,140341:3:0:0:0:
64,192,140175,1,0,0:0:0:0:
448,192,140258,1,0,0:0:0:0:
64,192,140341,128,2,140508:3:0:0:0:
192,192,140341,1,0,0:0:0:0:
192,192,140508,128,2,140675:3:0:0:0:
320,192,140508,1,0,0:0:0:0:
448,192,140675,128,2,140841:3:0:0:0:
64,192,140675,1,8,0:0:0:0:
320,192,140675,1,0,0:0:0:0:
192,192,140841,128,2,141008:3:0:0:0:
320,192,140841,1,0,0:0:0:0:
64,192,140925,1,2,3:0:0:0:
320,192,141008,128,2,141175:3:0:0:0:
448,192,141008,1,0,0:0:0:0:
448,192,141175,128,2,141341:3:0:0:0:
192,192,141175,1,0,0:0:0:0:
64,192,141341,128,2,141508:3:0:0:0:
192,192,141341,1,8,0:0:0:0:
320,192,141341,1,0,0:0:0:0:
192,192,141508,128,2,141675:3:0:0:0:
320,192,141508,1,0,0:0:0:0:
448,192,141591,1,2,3:0:0:0:
320,192,141675,128,2,141841:3:0:0:0:
64,192,141675,1,0,0:0:0:0:
64,192,141841,128,2,142008:3:0:0:0:
192,192,141841,1,0,0:0:0:0:
448,192,142008,128,2,142175:3:0:0:0:
320,192,142008,1,8,0:0:0:0:
192,192,142008,1,0,0:0:0:0:
64,192,142175,128,2,142341:3:0:0:0:
192,192,142175,1,0,0:0:0:0:
320,192,142258,1,2,3:0:0:0:
192,192,142341,128,2,142508:3:0:0:0:
448,192,142341,1,0,0:0:0:0:
448,192,142508,128,2,142675:3:0:0:0:
320,192,142508,1,0,0:0:0:0:
64,192,142675,128,2,142841:3:0:0:0:
192,192,142675,1,8,0:0:0:0:
320,192,142675,1,0,0:0:0:0:
192,192,142841,128,2,143008:3:0:0:0:
320,192,142841,1,0,0:0:0:0:
448,192,142925,1,0,0:0:0:0:
320,192,143008,128,2,143175:3:0:0:0:
64,192,143008,1,0,0:0:0:0:
192,192,143175,128,2,143341:3:0:0:0:
448,192,143175,1,0,0:0:0:0:
448,192,143341,128,2,143508:3:0:0:0:
64,192,143341,1,0,0:0:0:0:
320,192,143341,1,8,0:0:0:0:
320,192,143508,128,2,143675:3:0:0:0:
192,192,143508,1,0,0:0:0:0:
64,192,143591,1,2,3:0:0:0:
192,192,143675,128,2,143841:3:0:0:0:
448,192,143675,1,0,0:0:0:0:
64,192,143758,1,2,3:0:0:0:
320,192,143841,128,2,144008:3:0:0:0:
448,192,143841,1,0,0:0:0:0:
192,192,144008,1,4,3:0:0:0:
64,192,144008,128,2,144175:3:0:0:0:
320,192,144091,1,8,2:0:0:0:
192,192,144175,1,4,3:0:0:0:
448,192,144175,128,2,144341:3:0:0:0:
320,192,144258,1,8,2:0:0:0:
64,192,144341,1,2,3:0:0:0:
192,192,144341,128,8,144508:2:0:0:0:
64,192,144508,128,2,144675:3:0:0:0:
320,192,144508,1,0,0:0:0:0:
448,192,144675,128,2,144841:3:0:0:0:
320,192,144675,1,0,0:0:0:0:
192,192,144675,1,8,0:0:0:0:
320,192,144841,128,2,145008:3:0:0:0:
192,192,144841,1,0,0:0:0:0:
64,192,144925,1,2,3:0:0:0:
192,192,145008,128,2,145175:3:0:0:0:
448,192,145008,1,0,0:0:0:0:
448,192,145175,128,2,145341:3:0:0:0:
64,192,145175,1,0,0:0:0:0:
320,192,145341,128,2,145508:3:0:0:0:
192,192,145341,1,8,0:0:0:0:
64,192,145341,1,0,0:0:0:0:
64,192,145508,128,2,145675:3:0:0:0:
192,192,145508,1,0,0:0:0:0:
448,192,145591,1,2,3:0:0:0:
192,192,145675,128,2,145841:3:0:0:0:
320,192,145675,1,0,0:0:0:0:
320,192,145841,128,2,146008:3:0:0:0:
64,192,145841,1,0,0:0:0:0:
448,192,146008,128,2,146175:3:0:0:0:
192,192,146008,1,8,0:0:0:0:
64,192,146008,1,0,0:0:0:0:
64,192,146175,128,2,146341:3:0:0:0:
320,192,146175,1,0,0:0:0:0:
192,192,146258,1,2,3:0:0:0:
320,192,146341,128,2,146508:3:0:0:0:
448,192,146341,1,0,0:0:0:0:
448,192,146508,128,2,146675:3:0:0:0:
64,192,146508,1,4,3:0:0:0:
320,192,146591,1,0,0:0:0:0:
64,192,146675,128,2,146841:3:0:0:0:
192,192,146675,1,8,2:0:0:0:
320,192,146758,1,0,0:0:0:0:
192,192,146841,128,2,147008:3:0:0:0:
448,192,146841,1,0,0:0:0:0:
320,192,147008,128,2,147175:3:0:0:0:
64,192,147008,1,0,0:0:0:0:
448,192,147091,1,2,3:0:0:0:
192,192,147175,128,2,147341:3:0:0:0:
64,192,147175,1,0,0:0:0:0:
64,192,147341,128,2,147508:3:0:0:0:
448,192,147341,1,0,0:0:0:0:
320,192,147341,1,8,0:0:0:0:
320,192,147508,128,2,147675:3:0:0:0:
448,192,147508,1,0,0:0:0:0:
192,192,147591,1,2,3:0:0:0:
448,192,147675,128,2,147841:3:0:0:0:
64,192,147675,1,0,0:0:0:0:
192,192,147758,1,2,3:0:0:0:
320,192,147841,128,2,148008:3:0:0:0:
64,192,147841,1,0,0:0:0:0:
192,192,148008,128,2,148175:3:0:0:0:
448,192,148008,1,8,0:0:0:0:
64,192,148008,1,0,0:0:0:0:
64,192,148175,128,2,148341:3:0:0:0:
320,192,148175,1,0,0:0:0:0:
448,192,148258,1,2,3:0:0:0:
320,192,148341,128,2,148508:3:0:0:0:
192,192,148341,1,0,0:0:0:0:
64,192,148508,128,2,148675:3:0:0:0:
448,192,148508,1,0,0:0:0:0:
448,192,148675,128,2,148841:3:0:0:0:
192,192,148675,1,8,0:0:0:0:
320,192,148675,1,0,0:0:0:0:
192,192,148841,128,2,149008:3:0:0:0:
64,192,148841,1,0,0:0:0:0:
64,192,149008,128,2,149175:3:0:0:0:
320,192,149008,1,8,0:0:0:0:
448,192,149008,1,0,0:0:0:0:
192,192,149175,128,2,149341:3:0:0:0:
448,192,149258,1,8,0:0:0:0:
64,192,149258,1,0,0:0:0:0:
320,192,149341,128,2,149508:3:0:0:0:
448,192,149508,128,2,150008:3:0:0:0:
64,192,149508,1,8,0:0:0:0:
192,192,149508,1,0,0:0:0:0:
64,192,149675,5,0,0:0:0:0:
192,192,149675,1,0,0:0:0:0:
320,192,149675,128,0,149841:3:0:0:0:
64,192,149841,128,0,150175:3:0:0:0:
192,192,150008,128,8,150175:2:0:0:0:
320,192,150008,128,0,150341:3:0:0:0:
448,192,150175,128,0,150508:3:0:0:0:
64,192,150341,128,0,150508:3:0:0:0:
192,192,150341,128,0,150675:0:0:0:0:
320,192,150508,128,0,150841:3:0:0:0:
64,192,150675,128,8,150841:2:0:0:0:
448,192,150675,128,0,151175:3:0:0:0:
192,192,150841,128,0,151008:3:0:0:0:
64,192,151008,128,0,151341:0:0:0:0:
320,192,151008,128,0,151175:3:0:0:0:
192,192,151175,128,0,151508:3:0:0:0:
448,192,151341,128,0,151508:3:0:0:0:
320,192,151341,128,8,151675:2:0:0:0:
64,192,151508,128,0,151841:3:0:0:0:
192,192,151675,128,0,151841:3:0:0:0:
448,192,151675,128,0,152175:0:0:0:0:
320,192,151841,128,0,152008:3:0:0:0:
64,192,152008,128,8,152175:2:0:0:0:
192,192,152008,128,0,152508:0:0:0:0:
320,192,152175,128,0,152341:3:0:0:0:
64,192,152341,128,0,152508:0:0:0:0:
448,192,152341,128,0,152841:3:0:0:0:
320,192,152508,128,0,152675:3:0:0:0:
192,192,152675,128,8,153175:2:0:0:0:
64,192,152675,128,0,152841:3:0:0:0:
320,192,152841,128,0,153008:3:0:0:0:
64,192,153008,128,0,153508:3:0:0:0:
448,192,153008,128,0,153175:0:0:0:0:
320,192,153175,128,0,153341:3:0:0:0:
192,192,153341,128,0,153508:3:0:0:0:
448,192,153341,128,8,153675:2:0:0:0:
320,192,153508,128,0,153841:3:0:0:0:
64,192,153675,128,0,153841:3:0:0:0:
192,192,153675,128,0,154008:0:0:0:0:
448,192,153841,128,0,154175:3:0:0:0:
64,192,154008,128,0,154175:3:0:0:0:
320,192,154008,128,8,154508:2:0:0:0:
192,192,154175,128,0,154341:3:0:0:0:
448,192,154341,128,0,154508:0:0:0:0:
64,192,154341,128,0,154675:3:0:0:0:
192,192,154508,128,8,154675:2:0:0:0:
320,192,154675,1,8,2:0:0:0:
448,192,154675,1,4,3:0:0:0:
192,192,154758,1,8,2:0:0:0:
64,192,154758,1,4,3:0:0:0:
320,192,154841,1,8,2:0:0:0:
448,192,154841,1,4,3:0:0:0:
192,192,154925,1,8,2:0:0:0:
64,192,154925,1,4,3:0:0:0:
320,192,155008,128,8,155175:2:0:0:0:
448,192,155008,128,0,155508:3:0:0:0:
64,192,155175,128,0,155341:3:0:0:0:
320,192,155341,128,0,155675:3:0:0:0:
192,192,155341,128,8,155508:2:0:0:0:
64,192,155508,128,0,155841:3:0:0:0:
192,192,155675,128,0,155841:0:0:0:0:
448,192,155675,128,0,156175:3:0:0:0:
320,192,155841,128,0,156008:3:0:0:0:
64,192,156008,128,0,156341:3:0:0:0:
192,192,156008,128,8,156175:2:0:0:0:
320,192,156175,128,0,156508:3:0:0:0:
448,192,156341,128,0,156508:3:0:0:0:
192,192,156341,128,0,156841:0:0:0:0:
64,192,156508,128,0,156675:3:0:0:0:
320,192,156675,128,8,156841:2:0:0:0:
448,192,156675,128,0,157008:3:0:0:0:
64,192,156841,128,0,157175:3:0:0:0:
192,192,157008,128,0,157175:3:0:0:0:
320,192,157008,128,0,157341:0:0:0:0:
448,192,157175,128,8,157508:2:0:0:0:
64,192,157341,128,0,157508:0:0:0:0:
192,192,157341,128,0,157675:3:0:0:0:
320,192,157508,128,8,157841:2:0:0:0:
448,192,157675,128,0,157841:3:0:0:0:
64,192,157675,128,0,158175:0:0:0:0:
192,192,157841,128,0,158008:3:0:0:0:
320,192,158008,128,8,158175:2:0:0:0:
448,192,158008,128,0,158508:3:0:0:0:
192,192,158175,128,0,158341:3:0:0:0:
64,192,158341,128,0,158508:3:0:0:0:
320,192,158341,128,0,158841:0:0:0:0:
192,192,158508,128,0,158675:3:0:0:0:
448,192,158675,128,8,158841:2:0:0:0:
64,192,158675,128,0,159175:3:0:0:0:
192,192,158841,128,0,159008:3:0:0:0:
448,192,159008,128,0,159175:3:0:0:0:
320,192,159008,128,4,159341:3:0:0:0:
192,192,159175,128,0,159508:3:0:0:0:
448,192,159341,128,0,159675:3:0:0:0:
64,192,159341,128,8,159508:2:0:0:0:
320,192,159508,128,0,159841:3:0:0:0:
64,192,159675,128,0,160008:3:0:0:0:
192,192,159675,128,0,159841:0:0:0:0:
448,192,159841,128,0,160008:3:0:0:0:
320,192,160008,1,8,2:0:0:0:
192,192,160008,1,4,3:0:0:0:
448,192,160091,1,8,2:0:0:0:
64,192,160091,1,4,3:0:0:0:
192,192,160175,1,4,3:0:0:0:
320,192,160175,1,8,2:0:0:0:
448,192,160258,1,8,2:0:0:0:
64,192,160258,1,4,3:0:0:0:
192,192,160341,128,0,160675:3:0:0:0:
320,192,160341,128,8,160508:2:0:0:0:
448,192,160508,128,0,160841:3:0:0:0:
320,192,160675,128,8,161008:2:0:0:0:
64,192,160675,128,0,160841:3:0:0:0:
192,192,160841,128,0,161175:3:0:0:0:
448,192,161008,128,0,161175:3:0:0:0:
64,192,161008,128,0,161341:0:0:0:0:
320,192,161175,128,0,161508:3:0:0:0:
192,192,161341,128,0,161508:3:0:0:0:
448,192,161341,128,8,161841:2:0:0:0:
64,192,161508,128,0,161675:3:0:0:0:
192,192,161675,128,0,161841:3:0:0:0:
320,192,161675,128,0,162175:0:0:0:0:
64,192,161841,128,0,162008:3:0:0:0:
192,192,162008,128,8,162508:2:0:0:0:
448,192,162008,128,0,162175:3:0:0:0:
64,192,162175,128,0,162341:3:0:0:0:
448,192,162341,128,0,162675:3:0:0:0:
320,192,162341,128,0,162508:0:0:0:0:
64,192,162508,128,0,162841:3:0:0:0:
192,192,162675,128,0,162841:3:0:0:0:
320,192,162675,128,8,163008:2:0:0:0:
448,192,162841,128,0,163175:3:0:0:0:
64,192,163008,128,0,163175:3:0:0:0:
192,192,163008,128,0,163341:0:0:0:0:
320,192,163175,128,0,163508:3:0:0:0:
64,192,163341,128,8,163508:2:0:0:0:
448,192,163341,128,0,163675:3:0:0:0:
192,192,163508,128,0,163841:3:0:0:0:
320,192,163675,128,0,163841:3:0:0:0:
64,192,163675,128,0,164175:0:0:0:0:
448,192,163841,128,0,164008:3:0:0:0:
192,192,164008,128,8,164175:2:0:0:0:
320,192,164008,128,0,164508:3:0:0:0:
448,192,164175,128,0,164341:3:0:0:0:
64,192,164341,128,0,164508:3:0:0:0:
192,192,164341,128,0,164675:0:0:0:0:
448,192,164508,128,0,164841:3:0:0:0:
320,192,164675,128,8,165175:2:0:0:0:
64,192,164675,128,0,164841:3:0:0:0:
192,192,164841,128,0,165008:3:0:0:0:
448,192,165008,128,0,165175:3:0:0:0:
64,192,165008,128,0,165341:0:0:0:0:
192,192,165175,128,8,165341:2:0:0:0:
320,192,165341,1,8,2:0:0:0:
448,192,165341,1,4,3:0:0:0:
64,192,165425,1,4,3:0:0:0:
192,192,165425,1,8,2:0:0:0:
320,192,165508,1,8,2:0:0:0:
448,192,165508,1,4,3:0:0:0:
192,192,165591,1,8,2:0:0:0:
64,192,165591,1,4,3:0:0:0:
448,192,165675,128,0,166008:3:0:0:0:
320,192,165675,128,8,165841:2:0:0:0:
64,192,165841,128,0,166175:3:0:0:0:
320,192,166008,128,0,166175:3:0:0:0:
192,192,166008,128,8,166508:2:0:0:0:
448,192,166175,128,0,166341:3:0:0:0:
320,192,166341,128,0,166508:0:0:0:0:
64,192,166341,128,0,166675:3:0:0:0:
448,192,166508,128,0,166841:3:0:0:0:
192,192,166675,128,0,167175:3:0:0:0:
320,192,166675,128,8,166841:2:0:0:0:
64,192,166841,128,0,167008:3:0:0:0:
320,192,167008,128,4,167341:3:0:0:0:
448,192,167008,128,0,167175:3:0:0:0:
64,192,167175,128,0,167508:3:0:0:0:
192,192,167341,128,8,167508:2:0:0:0:
448,192,167341,128,0,167841:3:0:0:0:
320,192,167508,128,0,167675:3:0:0:0:
64,192,167675,128,0,167841:3:0:0:0:
192,192,167675,128,0,168008:0:0:0:0:
320,192,167841,128,0,168175:3:0:0:0:
64,192,168008,128,8,168175:2:0:0:0:
448,192,168008,128,0,168508:3:0:0:0:
192,192,168175,128,0,168341:3:0:0:0:
320,192,168341,128,4,168508:3:0:0:0:
64,192,168341,128,0,168675:3:0:0:0:
192,192,168508,128,0,168841:3:0:0:0:
448,192,168675,128,0,168841:3:0:0:0:
320,192,168675,128,8,169008:2:0:0:0:
64,192,168841,128,0,169175:3:0:0:0:
192,192,169008,128,0,169175:0:0:0:0:
448,192,169008,128,0,169508:3:0:0:0:
320,192,169175,128,0,169341:3:0:0:0:
64,192,169341,128,0,169508:3:0:0:0:
192,192,169341,128,8,169675:2:0:0:0:
320,192,169508,128,0,169841:3:0:0:0:
448,192,169675,128,0,169841:3:0:0:0:
64,192,169675,128,0,170175:0:0:0:0:
192,192,169841,128,2,170008:2:0:0:0:
320,192,170008,128,8,170508:2:0:0:0:
448,192,170008,128,0,170175:3:0:0:0:
192,192,170175,128,0,170341:3:0:0:0:
448,192,170341,128,0,170508:0:0:0:0:
64,192,170341,128,4,170675:3:0:0:0:
192,192,170508,128,0,170675:3:0:0:0:
320,192,170675,128,2,170758:2:0:0:0:
448,192,170675,128,4,170758:3:0:0:0:
192,192,170758,128,2,170841:2:0:0:0:
64,192,170758,128,4,170841:3:0:0:0:
320,192,170841,128,2,170925:2:0:0:0:
448,192,170841,128,4,170925:3:0:0:0:
64,192,170925,128,4,171008:3:0:0:0:
192,192,170925,128,2,171008:2:0:0:0:
320,192,171008,1,2,2:0:0:0:
448,192,171008,1,4,0:0:0:0:
64,192,171175,1,0,0:0:0:0:
320,192,171175,1,2,2:0:0:0:
448,192,171341,1,8,2:0:0:0:
320,192,171341,1,2,2:0:0:0:
192,192,171508,1,2,2:0:0:0:
64,192,171508,1,0,0:0:0:0:
320,192,171675,1,2,2:0:0:0:
64,192,171675,1,0,0:0:0:0:
448,192,171841,1,2,2:0:0:0:
320,192,171925,1,2,2:0:0:0:
64,192,172008,1,8,2:0:0:0:
192,192,172008,1,2,2:0:0:0:
448,192,172008,1,0,0:0:0:0:
320,192,172175,1,2,2:0:0:0:
320,192,172258,1,2,2:0:0:0:
448,192,172341,1,2,2:0:0:0:
64,192,172341,1,0,0:0:0:0:
64,192,172508,1,2,2:0:0:0:
448,192,172675,1,8,2:0:0:0:
192,192,172675,1,2,2:0:0:0:
320,192,172675,1,0,0:0:0:0:
320,192,172841,1,2,2:0:0:0:
64,192,172841,1,0,0:0:0:0:
192,192,173008,1,2,2:0:0:0:
64,192,173008,1,0,0:0:0:0:
448,192,173175,1,2,2:0:0:0:
320,192,173341,1,0,0:0:0:0:
192,192,173341,1,2,2:0:0:0:
64,192,173341,1,8,2:0:0:0:
448,192,173508,1,2,2:0:0:0:
64,192,173508,1,0,0:0:0:0:
192,192,173675,1,2,2:0:0:0:
64,192,173675,1,0,0:0:0:0:
448,192,173841,1,0,0:0:0:0:
192,192,173841,1,2,2:0:0:0:
192,192,174008,1,2,2:0:0:0:
448,192,174008,1,8,2:0:0:0:
64,192,174008,1,0,0:0:0:0:
448,192,174175,1,2,2:0:0:0:
448,192,174258,1,2,2:0:0:0:
64,192,174341,1,2,2:0:0:0:
192,192,174341,1,0,0:0:0:0:
64,192,174508,1,2,2:0:0:0:
64,192,174591,1,2,2:0:0:0:
192,192,174675,1,2,2:0:0:0:
320,192,174675,1,8,2:0:0:0:
448,192,174675,1,0,0:0:0:0:
448,192,174841,1,2,2:0:0:0:
64,192,175008,1,2,2:0:0:0:
192,192,175008,1,0,0:0:0:0:
320,192,175175,1,2,2:0:0:0:
64,192,175341,1,2,2:0:0:0:
448,192,175341,1,0,0:0:0:0:
192,192,175341,1,8,2:0:0:0:
64,192,175508,1,0,0:0:0:0:
320,192,175508,1,2,2:0:0:0:
320,192,175591,1,2,2:0:0:0:
448,192,175675,1,2,2:0:0:0:
192,192,175675,1,0,0:0:0:0:
64,192,175841,1,2,2:0:0:0:
192,192,175841,1,0,0:0:0:0:
192,192,176008,1,2,2:0:0:0:
64,192,176008,1,8,2:0:0:0:
192,192,176091,1,2,2:0:0:0:
320,192,176175,1,2,2:0:0:0:
320,192,176258,1,2,2:0:0:0:
448,192,176341,1,2,2:0:0:0:
64,192,176341,1,0,0:0:0:0:
64,192,176508,1,0,0:0:0:0:
448,192,176508,1,2,2:0:0:0:
192,192,176675,1,0,0:0:0:0:
320,192,176675,1,8,2:0:0:0:
64,192,176675,1,2,2:0:0:0:
448,192,176841,1,2,2:0:0:0:
448,192,176925,1,2,2:0:0:0:
64,192,177008,1,0,0:0:0:0:
320,192,177008,1,2,2:0:0:0:
320,192,177175,1,2,2:0:0:0:
192,192,177175,1,0,0:0:0:0:
64,192,177341,1,2,2:0:0:0:
448,192,177341,1,8,2:0:0:0:
320,192,177341,1,0,0:0:0:0:
192,192,177508,1,0,0:0:0:0:
448,192,177508,1,2,2:0:0:0:
64,192,177675,1,2,2:0:0:0:
320,192,177675,1,0,0:0:0:0:
64,192,177841,1,2,2:0:0:0:
64,192,177925,1,2,2:0:0:0:
192,192,178008,1,0,0:0:0:0:
320,192,178008,1,8,2:0:0:0:
448,192,178008,1,2,2:0:0:0:
64,192,178175,1,0,0:0:0:0:
448,192,178175,1,2,2:0:0:0:
64,192,178341,1,0,0:0:0:0:
320,192,178341,1,2,2:0:0:0:
192,192,178508,1,2,2:0:0:0:
320,192,178591,1,2,2:0:0:0:
64,192,178591,1,0,0:0:0:0:
192,192,178758,1,2,2:0:0:0:
64,192,178841,1,0,0:0:0:0:
320,192,178841,1,2,2:0:0:0:
448,192,179008,1,2,2:0:0:0:
448,192,179091,1,2,2:0:0:0:
64,192,179175,1,0,0:0:0:0:
192,192,179175,1,2,2:0:0:0:
192,192,179341,1,0,0:0:0:0:
320,192,179341,1,8,2:0:0:0:
64,192,179341,1,2,2:0:0:0:
64,192,179508,1,2,2:0:0:0:
64,192,179591,1,2,2:0:0:0:
320,192,179675,1,2,2:0:0:0:
192,192,179675,1,0,0:0:0:0:
320,192,179841,1,2,2:0:0:0:
320,192,179925,1,2,2:0:0:0:
192,192,180008,1,8,2:0:0:0:
64,192,180008,1,2,2:0:0:0:
448,192,180008,1,0,0:0:0:0:
320,192,180175,1,2,2:0:0:0:
64,192,180175,1,0,0:0:0:0:
64,192,180341,1,0,0:0:0:0:
448,192,180341,1,2,2:0:0:0:
320,192,180508,1,0,0:0:0:0:
448,192,180508,1,2,2:0:0:0:
192,192,180675,1,2,2:0:0:0:
320,192,180675,1,0,0:0:0:0:
448,192,180675,1,8,2:0:0:0:
64,192,180841,1,0,0:0:0:0:
192,192,180841,1,2,2:0:0:0:
320,192,181008,1,2,2:0:0:0:
192,192,181091,1,2,2:0:0:0:
320,192,181175,1,2,2:0:0:0:
192,192,181258,1,2,2:0:0:0:
448,192,181341,1,8,2:0:0:0:
320,192,181341,1,2,2:0:0:0:
192,192,181425,1,0,0:0:0:0:
64,192,181425,1,2,2:0:0:0:
320,192,181508,1,2,2:0:0:0:
448,192,181508,1,2,2:0:0:0:
192,192,181591,1,0,0:0:0:0:
64,192,181591,1,2,2:0:0:0:
320,192,181675,1,4,2:0:0:0:
448,192,181675,1,2,2:0:0:0:
192,192,181841,1,2,2:0:0:0:
320,192,181841,128,0,182008:0:0:0:0:
64,192,182008,1,2,2:0:0:0:
192,192,182008,1,8,2:0:0:0:
320,192,182175,1,2,2:0:0:0:
448,192,182175,1,0,0:0:0:0:
64,192,182341,1,2,2:0:0:0:
320,192,182508,1,2,2:0:0:0:
448,192,182508,1,0,0:0:0:0:
448,192,182675,1,8,2:0:0:0:
192,192,182675,1,2,2:0:0:0:
64,192,182841,1,2,2:0:0:0:
64,192,182925,1,2,2:0:0:0:
320,192,183008,1,0,0:0:0:0:
192,192,183008,1,2,2:0:0:0:
64,192,183175,1,2,2:0:0:0:
192,192,183175,1,0,0:0:0:0:
192,192,183341,1,8,2:0:0:0:
320,192,183341,1,2,2:0:0:0:
320,192,183508,1,2,2:0:0:0:
64,192,183508,1,0,0:0:0:0:
448,192,183675,1,2,2:0:0:0:
192,192,183675,1,0,0:0:0:0:
448,192,183841,1,2,2:0:0:0:
320,192,183841,1,0,0:0:0:0:
448,192,184008,1,8,2:0:0:0:
64,192,184008,1,2,2:0:0:0:
448,192,184175,1,2,2:0:0:0:
192,192,184175,1,0,0:0:0:0:
64,192,184341,1,0,0:0:0:0:
192,192,184341,1,2,2:0:0:0:
448,192,184508,1,0,0:0:0:0:
320,192,184508,1,2,2:0:0:0:
192,192,184675,1,10,2:0:0:0:
192,192,184758,1,2,2:0:0:0:
320,192,184841,1,2,2:0:0:0:
448,192,184841,1,0,0:0:0:0:
192,192,185008,1,0,0:0:0:0:
448,192,185008,1,2,2:0:0:0:
320,192,185175,1,2,2:0:0:0:
320,192,185258,1,2,2:0:0:0:
448,192,185341,1,8,2:0:0:0:
64,192,185341,1,2,2:0:0:0:
64,192,185508,1,2,2:0:0:0:
320,192,185508,1,0,0:0:0:0:
64,192,185675,1,2,2:0:0:0:
192,192,185675,1,0,0:0:0:0:
320,192,185841,1,2,2:0:0:0:
192,192,185925,1,2,2:0:0:0:
64,192,186008,1,2,2:0:0:0:
320,192,186008,1,8,2:0:0:0:
192,192,186175,1,0,0:0:0:0:
320,192,186175,1,2,2:0:0:0:
64,192,186341,1,2,2:0:0:0:
64,192,186425,1,2,2:0:0:0:
448,192,186508,1,2,2:0:0:0:
192,192,186508,1,0,0:0:0:0:
320,192,186675,1,10,2:0:0:0:
192,192,186758,1,2,2:0:0:0:
448,192,186841,1,2,2:0:0:0:
320,192,186841,1,0,0:0:0:0:
64,192,186925,1,2,2:0:0:0:
192,192,186925,1,0,0:0:0:0:
448,192,187008,128,2,187133:2:0:0:0:
320,192,187008,1,0,0:0:0:0:
448,192,187175,128,2,187300:2:0:0:0:
192,192,187175,1,0,0:0:0:0:
192,192,187341,1,8,2:0:0:0:
64,192,187341,1,2,2:0:0:0:
320,192,187508,1,2,2:0:0:0:
320,192,187591,1,2,2:0:0:0:
192,192,187675,1,0,0:0:0:0:
448,192,187675,1,2,2:0:0:0:
320,192,187841,1,2,2:0:0:0:
64,192,188008,1,2,2:0:0:0:
320,192,188008,1,8,2:0:0:0:
192,192,188175,1,2,2:0:0:0:
192,192,188258,1,2,2:0:0:0:
448,192,188341,1,2,2:0:0:0:
64,192,188341,1,0,0:0:0:0:
448,192,188508,1,2,2:0:0:0:
320,192,188591,1,2,2:0:0:0:
64,192,188675,1,2,2:0:0:0:
192,192,188675,1,8,2:0:0:0:
448,192,188841,1,2,2:0:0:0:
320,192,188841,1,0,0:0:0:0:
192,192,189008,1,0,0:0:0:0:
320,192,189008,1,2,2:0:0:0:
448,192,189175,1,2,2:0:0:0:
192,192,189258,1,0,0:0:0:0:
320,192,189258,1,2,2:0:0:0:
448,192,189425,1,2,2:0:0:0:
192,192,189508,1,0,0:0:0:0:
320,192,189508,1,2,2:0:0:0:
64,192,189675,1,2,2:0:0:0:
64,192,189758,1,2,2:0:0:0:
192,192,189841,1,0,0:0:0:0:
320,192,189841,1,2,2:0:0:0:
448,192,190008,1,8,2:0:0:0:
64,192,190008,1,2,2:0:0:0:
448,192,190175,1,2,2:0:0:0:
192,192,190175,1,0,0:0:0:0:
320,192,190341,1,2,2:0:0:0:
320,192,190425,1,2,2:0:0:0:
448,192,190508,1,2,2:0:0:0:
192,192,190508,1,0,0:0:0:0:
448,192,190675,1,8,2:0:0:0:
320,192,190675,1,2,2:0:0:0:
448,192,190841,1,2,2:0:0:0:
448,192,190925,1,2,2:0:0:0:
64,192,191008,1,0,0:0:0:0:
192,192,191008,1,2,2:0:0:0:
192,192,191175,5,0,0:0:0:0:
448,192,191175,1,2,2:0:0:0:
192,192,191341,1,10,2:0:0:0:
192,192,191425,1,2,2:0:0:0:
320,192,191508,1,2,2:0:0:0:
64,192,191508,1,0,0:0:0:0:
192,192,191675,1,2,2:0:0:0:
64,192,191675,1,0,0:0:0:0:
448,192,191841,1,2,2:0:0:0:
320,192,191925,1,2,2:0:0:0:
192,192,192008,1,2,2:0:0:0:
448,192,192008,1,8,2:0:0:0:
320,192,192175,1,2,2:0:0:0:
192,192,192175,1,6,3:0:0:0:
64,192,192175,1,0,0:0:0:0:
64,192,192341,5,0,0:0:0:0:
192,192,192341,1,4,1:0:0:0:
320,192,192341,1,4,2:0:0:0:
448,192,192341,1,2,2:0:0:0:
