osu file format v14

[General]
AudioFilename: audio.mp3
AudioLeadIn: 0
PreviewTime: 107010
Countdown: 0
SampleSet: Normal
StackLeniency: 0.7
Mode: 3
LetterboxInBreaks: 0
SpecialStyle: 0
WidescreenStoryboard: 1

[Editor]
Bookmarks: 21708,24708,32708,33374,64374,85708
DistanceSpacing: 1
BeatDivisor: 8
GridSize: 32
TimelineZoom: 2.699999

[Metadata]
Title:perthed again (yambabom remix)
TitleUnicode:perthed again (yambabom remix)
Artist:Hitori Tori
ArtistUnicode:Hitori Tori
Creator:TheToaphster
Version:Advanced
Source:
Tags:SV breakcore
BeatmapID:1457791
BeatmapSetID:569392

[Difficulty]
HPDrainRate:7.5
CircleSize:4
OverallDifficulty:7.5
ApproachRate:5
SliderMultiplier:1.4
SliderTickRate:1

[Events]
//Background and Video events
0,0,"perthed 3.png",0,0
//Break Periods
//Storyboard Layer 0 (Background)
//Storyboard Layer 1 (Fail)
//Storyboard Layer 2 (Pass)
//Storyboard Layer 3 (Foreground)
//Storyboard Sound Samples

[TimingPoints]
342,333.333333333333,4,1,2,90,1,0
571,-125,4,1,2,90,0,0
634,-166.666666666667,4,1,2,90,0,0
676,-250,4,1,2,90,0,0
738,-500,4,1,2,90,0,0
780,-1000,4,1,2,90,0,0
801,-2000,4,1,2,90,0,0
841,-100,4,1,2,90,0,0
1071,-125,4,1,2,90,0,0
1134,-166.666666666667,4,1,2,90,0,0
1176,-250,4,1,2,90,0,0
1238,-500,4,1,2,90,0,0
1280,-1000,4,1,2,90,0,0
1301,-2000,4,1,2,90,0,0
1341,-100,4,1,2,90,0,0
1737,-125,4,1,2,90,0,0
1800,-166.666666666667,4,1,2,90,0,0
1842,-250,4,1,2,90,0,0
1904,-500,4,1,2,90,0,0
1925,-100,4,1,2,90,0,0
2237,-125,4,1,2,90,0,0
2300,-166.666666666667,4,1,2,90,0,0
2342,-250,4,1,2,90,0,0
2404,-500,4,1,2,90,0,0
2425,-100,4,1,2,90,0,0
3237,-125,4,1,2,90,0,0
3300,-166.666666666667,4,1,2,90,0,0
3342,-250,4,1,2,90,0,0
3404,-500,4,1,2,90,0,0
3446,-1000,4,1,2,90,0,0
3467,-2000,4,1,2,90,0,0
3507,-100,4,1,2,90,0,0
3737,-125,4,1,2,90,0,0
3800,-166.666666666667,4,1,2,90,0,0
3842,-250,4,1,2,90,0,0
3904,-500,4,1,2,90,0,0
3946,-1000,4,1,2,90,0,0
3967,-2000,4,1,2,90,0,0
4007,-100,4,1,2,90,0,0
4403,-125,4,1,2,90,0,0
4466,-166.666666666667,4,1,2,90,0,0
4508,-250,4,1,2,90,0,0
4570,-500,4,1,2,90,0,0
4591,-100,4,1,2,90,0,0
4903,-125,4,1,2,90,0,0
4966,-166.666666666667,4,1,2,90,0,0
5008,-250,4,1,2,90,0,0
5070,-500,4,1,2,90,0,0
5091,-100,4,1,2,90,0,0
5904,-125,4,1,2,90,0,0
5967,-166.666666666667,4,1,2,90,0,0
6009,-250,4,1,2,90,0,0
6071,-500,4,1,2,90,0,0
6113,-1000,4,1,2,90,0,0
6134,-2000,4,1,2,90,0,0
6174,-100,4,1,2,90,0,0
6404,-125,4,1,2,90,0,0
6467,-166.666666666667,4,1,2,90,0,0
6509,-250,4,1,2,90,0,0
6571,-500,4,1,2,90,0,0
6613,-1000,4,1,2,90,0,0
6634,-2000,4,1,2,90,0,0
6674,-100,4,1,2,90,0,0
7070,-125,4,1,2,90,0,0
7133,-166.666666666667,4,1,2,90,0,0
7175,-250,4,1,2,90,0,0
7237,-500,4,1,2,90,0,0
7258,-100,4,1,2,90,0,0
7570,-125,4,1,2,90,0,0
7633,-166.666666666667,4,1,2,90,0,0
7675,-250,4,1,2,90,0,0
7737,-500,4,1,2,90,0,0
7758,-100,4,1,2,90,0,0
8570,-125,4,1,2,90,0,0
8633,-166.666666666667,4,1,2,90,0,0
8675,-250,4,1,2,90,0,0
8737,-500,4,1,2,90,0,0
8779,-1000,4,1,2,90,0,0
8800,-2000,4,1,2,90,0,0
8840,-100,4,1,2,90,0,0
9070,-125,4,1,2,90,0,0
9133,-166.666666666667,4,1,2,90,0,0
9175,-250,4,1,2,90,0,0
9237,-500,4,1,2,90,0,0
9279,-1000,4,1,2,90,0,0
9300,-2000,4,1,2,90,0,0
9340,-100,4,1,2,90,0,0
11341,-66.6666666666667,4,1,2,90,0,0
11425,-200,4,1,2,90,0,0
11508,-100,4,1,2,90,0,0
12008,-66.6666666666667,4,1,2,90,0,0
12092,-200,4,1,2,90,0,0
12175,-100,4,1,2,90,0,0
12675,-66.6666666666667,4,1,2,90,0,0
12759,-200,4,1,2,90,0,0
12842,-100,4,1,2,90,0,0
13341,-66.6666666666667,4,1,2,90,0,0
13425,-200,4,1,2,90,0,0
13508,-100,4,1,2,90,0,0
14008,-66.6666666666667,4,1,2,90,0,0
14092,-200,4,1,2,90,0,0
14175,-100,4,1,2,90,0,0
14675,-66.6666666666667,4,1,2,90,0,0
14759,-200,4,1,2,90,0,0
14842,-100,4,1,2,90,0,0
15341,-66.6666666666667,4,1,2,90,0,0
15425,-200,4,1,2,90,0,0
15508,-100,4,1,2,90,0,0
15675,-250,4,1,2,90,0,0
15716,-62.5,4,1,2,90,0,0
15758,-66.6666666666667,4,1,2,90,0,0
15842,-200,4,1,2,90,0,0
15925,-100,4,1,2,90,0,0
16008,-66.6666666666667,4,1,2,90,0,0
16092,-200,4,1,2,90,0,0
16175,-100,4,1,2,90,0,0
16675,-66.6666666666667,4,1,2,90,0,0
16759,-200,4,1,2,90,0,0
16842,-100,4,1,2,90,0,0
17342,-66.6666666666667,4,1,2,90,0,0
17426,-200,4,1,2,90,0,0
17509,-100,4,1,2,90,0,0
18009,-66.6666666666667,4,1,2,90,0,0
18093,-200,4,1,2,90,0,0
18176,-100,4,1,2,90,0,0
18675,-66.6666666666667,4,1,2,90,0,0
18759,-200,4,1,2,90,0,0
18842,-100,4,1,2,90,0,0
19342,-66.6666666666667,4,1,2,90,0,0
19426,-200,4,1,2,90,0,0
19509,-100,4,1,2,90,0,0
19675,-250,4,1,2,90,0,0
19716,-62.5,4,1,2,90,0,0
19758,-66.6666666666667,4,1,2,90,0,0
19842,-200,4,1,2,90,0,0
19925,-100,4,1,2,90,0,0
20008,-66.6666666666667,4,1,2,90,0,0
20092,-200,4,1,2,90,0,0
20175,-100,4,1,2,90,0,0
22008,-58.8235294117647,4,1,2,90,0,0
22050,-100,4,1,2,90,0,0
22675,-58.8235294117647,4,1,2,90,0,0
22717,-100,4,1,2,90,0,0
23341,-58.8235294117647,4,1,2,90,0,0
23383,-100,4,1,2,90,0,0
24008,-58.8235294117647,4,1,2,90,0,0
24050,-100,4,1,2,90,0,0
24675,-58.8235294117647,4,1,2,90,0,0
24717,-100,4,1,2,90,0,0
25342,-58.8235294117647,4,1,2,90,0,0
25384,-100,4,1,2,90,0,0
26008,-58.8235294117647,4,1,2,90,0,0
26050,-100,4,1,2,90,0,0
26675,-58.8235294117647,4,1,2,90,0,0
26717,-100,4,1,2,90,0,0
27341,-58.8235294117647,4,1,2,90,0,0
27383,-100,4,1,2,90,0,0
28008,-58.8235294117647,4,1,2,90,0,0
28050,-100,4,1,2,90,0,0
28674,-58.8235294117647,4,1,2,90,0,0
28716,-100,4,1,2,90,0,0
29341,-58.8235294117647,4,1,2,90,0,0
29383,-100,4,1,2,90,0,0
30008,-58.8235294117647,4,1,2,90,0,0
30050,-100,4,1,2,90,0,0
30675,-58.8235294117647,4,1,2,90,0,0
30717,-100,4,1,2,90,0,0
32341,-66.6666666666667,4,1,2,90,0,0
32421,-125,4,1,2,90,0,0
32484,-166.666666666667,4,1,2,90,0,0
32526,-250,4,1,2,90,0,0
32588,-500,4,1,2,90,0,0
32630,-1000,4,1,2,90,0,0
32651,-2000,4,1,2,90,0,0
32675,-58.8235294117647,4,1,2,90,0,0
32758,-200,4,1,2,90,0,0
32841,-100,4,1,2,90,0,0
33341,-58.8235294117647,4,1,2,90,0,0
33424,-200,4,1,2,90,0,0
33507,-100,4,1,2,90,0,0
34008,-58.8235294117647,4,1,2,90,0,0
34091,-200,4,1,2,90,0,0
34174,-100,4,1,2,90,0,0
34508,-58.8235294117647,4,1,2,90,0,0
34550,-333.333333333333,4,1,2,90,0,0
34591,-100,4,1,2,90,0,0
34675,-58.8235294117647,4,1,2,90,0,0
34717,-333.333333333333,4,1,2,90,0,0
34758,-100,4,1,2,90,0,0
35341,-58.8235294117647,4,1,2,90,0,0
35424,-200,4,1,2,90,0,0
35507,-100,4,1,2,90,0,0
36008,-58.8235294117647,4,1,2,90,0,0
36091,-200,4,1,2,90,0,0
36174,-100,4,1,2,90,0,0
36675,-58.8235294117647,4,1,2,90,0,0
36758,-200,4,1,2,90,0,0
36841,-100,4,1,2,90,0,0
37175,-58.8235294117647,4,1,2,90,0,0
37217,-333.333333333333,4,1,2,90,0,0
37258,-100,4,1,2,90,0,0
37342,-58.8235294117647,4,1,2,90,0,0
37384,-333.333333333333,4,1,2,90,0,0
37425,-100,4,1,2,90,0,0
38008,-58.8235294117647,4,1,2,90,0,0
38091,-200,4,1,2,90,0,0
38174,-100,4,1,2,90,0,0
38674,-58.8235294117647,4,1,2,90,0,0
38757,-200,4,1,2,90,0,0
38840,-100,4,1,2,90,0,0
39341,-58.8235294117647,4,1,2,90,0,0
39424,-200,4,1,2,90,0,0
39507,-100,4,1,2,90,0,0
39841,-58.8235294117647,4,1,2,90,0,0
39883,-333.333333333333,4,1,2,90,0,0
39925,-100,4,1,2,90,0,0
40008,-58.8235294117647,4,1,2,90,0,0
40050,-333.333333333333,4,1,2,90,0,0
40091,-100,4,1,2,90,0,0
40175,-58.8235294117647,4,1,2,90,0,0
40217,-333.333333333333,4,1,2,90,0,0
40258,-100,4,1,2,90,0,0
43008,-142.857142857143,4,1,2,90,0,0
43091,-76.9230769230769,4,1,2,90,0,0
43175,-100,4,1,2,90,0,0
43508,-142.857142857143,4,1,2,90,0,0
43591,-76.9230769230769,4,1,2,90,0,0
43675,-100,4,1,2,90,0,0
44008,-142.857142857143,4,1,2,90,0,0
44091,-76.9230769230769,4,1,2,90,0,0
44175,-100,4,1,2,90,0,0
44508,-142.857142857143,4,1,2,90,0,0
44591,-76.9230769230769,4,1,2,90,0,0
44675,-100,4,1,2,90,0,0
45008,-142.857142857143,4,1,2,90,0,0
45091,-76.9230769230769,4,1,2,90,0,0
45175,-100,4,1,2,90,0,0
45341,-142.857142857143,4,1,2,90,0,0
45424,-76.9230769230769,4,1,2,90,0,0
45508,-142.857142857143,4,1,2,90,0,0
45591,-76.9230769230769,4,1,2,90,0,0
45675,-100,4,1,2,90,0,0
46008,-142.857142857143,4,1,2,90,0,0
46091,-76.9230769230769,4,1,2,90,0,0
46175,-100,4,1,2,90,0,0
46508,-142.857142857143,4,1,2,90,0,0
46591,-76.9230769230769,4,1,2,90,0,0
46675,-100,4,1,2,90,0,0
47008,-142.857142857143,4,1,2,90,0,0
47091,-76.9230769230769,4,1,2,90,0,0
47175,-100,4,1,2,90,0,0
47508,-142.857142857143,4,1,2,90,0,0
47591,-76.9230769230769,4,1,2,90,0,0
47675,-142.857142857143,4,1,2,90,0,0
47758,-76.9230769230769,4,1,2,90,0,0
47842,-100,4,1,2,90,0,0
48008,-142.857142857143,4,1,2,90,0,0
48091,-76.9230769230769,4,1,2,90,0,0
48175,-100,4,1,2,90,0,0
48508,-142.857142857143,4,1,2,90,0,0
48591,-76.9230769230769,4,1,2,90,0,0
48675,-100,4,1,2,90,0,0
48841,-142.857142857143,4,1,2,90,0,0
48924,-76.9230769230769,4,1,2,90,0,0
49008,-142.857142857143,4,1,2,90,0,0
49091,-76.9230769230769,4,1,2,90,0,0
49175,-100,4,1,2,90,0,0
49508,-142.857142857143,4,1,2,90,0,0
49591,-76.9230769230769,4,1,2,90,0,0
49675,-100,4,1,2,90,0,0
50008,-142.857142857143,4,1,2,90,0,0
50091,-76.9230769230769,4,1,2,90,0,0
50175,-100,4,1,2,90,0,0
50508,-142.857142857143,4,1,2,90,0,0
50591,-76.9230769230769,4,1,2,90,0,0
50675,-142.857142857143,4,1,2,90,0,0
50758,-76.9230769230769,4,1,2,90,0,0
50842,-100,4,1,2,90,0,0
51008,-142.857142857143,4,1,2,90,0,0
51091,-76.9230769230769,4,1,2,90,0,0
51175,-100,4,1,2,90,0,0
51508,-142.857142857143,4,1,2,90,0,0
51591,-76.9230769230769,4,1,2,90,0,0
51675,-100,4,1,2,90,0,0
52008,-142.857142857143,4,1,2,90,0,0
52091,-76.9230769230769,4,1,2,90,0,0
52175,-100,4,1,2,90,0,0
52508,-142.857142857143,4,1,2,90,0,0
52591,-76.9230769230769,4,1,2,90,0,0
52675,-100,4,1,2,90,0,0
53841,-142.857142857143,4,1,2,90,0,0
53924,-76.9230769230769,4,1,2,90,0,0
54008,-100,4,1,2,90,0,0
54175,-142.857142857143,4,1,2,90,0,0
54258,-76.9230769230769,4,1,2,90,0,0
54341,-142.857142857143,4,1,2,90,0,0
54424,-76.9230769230769,4,1,2,90,0,0
54508,-100,4,1,2,90,0,0
54841,-142.857142857143,4,1,2,90,0,0
54924,-76.9230769230769,4,1,2,90,0,0
55008,-100,4,1,2,90,0,0
55341,-142.857142857143,4,1,2,90,0,0
55424,-76.9230769230769,4,1,2,90,0,0
55508,-100,4,1,2,90,0,0
55841,-142.857142857143,4,1,2,90,0,0
55924,-76.9230769230769,4,1,2,90,0,0
56008,-142.857142857143,4,1,2,90,0,0
56091,-76.9230769230769,4,1,2,90,0,0
56175,-100,4,1,2,90,0,0
56341,-142.857142857143,4,1,2,90,0,0
56424,-76.9230769230769,4,1,2,90,0,0
56508,-100,4,1,2,90,0,0
56841,-142.857142857143,4,1,2,90,0,0
56924,-76.9230769230769,4,1,2,90,0,0
57008,-100,4,1,2,90,0,0
57341,-142.857142857143,4,1,2,90,0,0
57424,-76.9230769230769,4,1,2,90,0,0
57508,-100,4,1,2,90,0,0
57841,-142.857142857143,4,1,2,90,0,0
57924,-76.9230769230769,4,1,2,90,0,0
58008,-100,4,1,2,90,0,0
58175,-142.857142857143,4,1,2,90,0,0
58258,-76.9230769230769,4,1,2,90,0,0
58341,-142.857142857143,4,1,2,90,0,0
58424,-76.9230769230769,4,1,2,90,0,0
58508,-100,4,1,2,90,0,0
58675,-142.857142857143,4,1,2,90,0,0
58758,-76.9230769230769,4,1,2,90,0,0
58842,-100,4,1,2,90,0,0
59175,-142.857142857143,4,1,2,90,0,0
59258,-76.9230769230769,4,1,2,90,0,0
59342,-100,4,1,2,90,0,0
59508,-142.857142857143,4,1,2,90,0,0
59591,-76.9230769230769,4,1,2,90,0,0
59675,-142.857142857143,4,1,2,90,0,0
59758,-76.9230769230769,4,1,2,90,0,0
59842,-100,4,1,2,90,0,0
60175,-142.857142857143,4,1,2,90,0,0
60258,-76.9230769230769,4,1,2,90,0,0
60342,-100,4,1,2,90,0,0
60675,-142.857142857143,4,1,2,90,0,0
60758,-76.9230769230769,4,1,2,90,0,0
60842,-100,4,1,2,90,0,0
61175,-142.857142857143,4,1,2,90,0,0
61258,-76.9230769230769,4,1,2,90,0,0
61341,-142.857142857143,4,1,2,90,0,0
61424,-76.9230769230769,4,1,2,90,0,0
61508,-142.857142857143,4,1,2,90,0,0
61591,-76.9230769230769,4,1,2,90,0,0
61675,-142.857142857143,4,1,2,90,0,0
61758,-76.9230769230769,4,1,2,90,0,0
61842,-100,4,1,2,90,0,0
62175,-142.857142857143,4,1,2,90,0,0
62258,-76.9230769230769,4,1,2,90,0,0
62342,-100,4,1,2,90,0,0
62675,-142.857142857143,4,1,2,90,0,0
62758,-76.9230769230769,4,1,2,90,0,0
62842,-100,4,1,2,90,0,0
63008,-142.857142857143,4,1,2,90,0,0
63091,-76.9230769230769,4,1,2,90,0,0
63175,-100,4,1,2,90,0,0
85675,-111.111111111111,4,1,2,90,0,0
96341,-105.263157894737,4,1,2,90,0,0
101612,-200,4,1,2,90,0,0
101654,-50,4,1,2,90,0,0
101696,-105.263157894737,4,1,2,90,0,0
101946,-200,4,1,2,90,0,0
101987,-50,4,1,2,90,0,0
102029,-105.263157894737,4,1,2,90,0,0
102279,-200,4,1,2,90,0,0
102321,-50,4,1,2,90,0,0
102362,-105.263157894737,4,1,2,90,0,0
102612,-200,4,1,2,90,0,0
102654,-50,4,1,2,90,0,0
102696,-105.263157894737,4,1,2,90,0,0
102946,-200,4,1,2,90,0,0
102987,-50,4,1,2,90,0,0
103029,-105.263157894737,4,1,2,90,0,0
103279,-200,4,1,2,90,0,0
103321,-50,4,1,2,90,0,0
103362,-105.263157894737,4,1,2,90,0,0
103612,-200,4,1,2,90,0,0
103654,-50,4,1,2,90,0,0
103696,-105.263157894737,4,1,2,90,0,0
103946,-200,4,1,2,90,0,0
103987,-50,4,1,2,90,0,0
104029,-105.263157894737,4,1,2,90,0,0
104279,-200,4,1,2,90,0,0
104321,-50,4,1,2,90,0,0
104362,-105.263157894737,4,1,2,90,0,0
104612,-200,4,1,2,90,0,0
104654,-50,4,1,2,90,0,0
104696,-105.263157894737,4,1,2,90,0,0
104946,-200,4,1,2,90,0,0
104987,-50,4,1,2,90,0,0
105029,-105.263157894737,4,1,2,90,0,0
105279,-200,4,1,2,90,0,0
105321,-50,4,1,2,90,0,0
105362,-105.263157894737,4,1,2,90,0,0
105612,-200,4,1,2,90,0,0
105654,-50,4,1,2,90,0,0
105696,-105.263157894737,4,1,2,90,0,0
105946,-200,4,1,2,90,0,0
105987,-50,4,1,2,90,0,0
106024,-105.263157894737,4,1,2,90,0,0
106274,-200,4,1,2,90,0,0
106316,-50,4,1,2,90,0,0
106357,-105.263157894737,4,1,2,90,0,0
106675,-66.6666666666667,4,1,2,90,0,0
106716,-200,4,1,2,90,0,0
106758,-66.6666666666667,4,1,2,90,0,0
106799,-200,4,1,2,90,0,0
106841,-66.6666666666667,4,1,2,90,0,0
106882,-200,4,1,2,90,0,0
106925,-66.6666666666667,4,1,2,90,0,0
106966,-200,4,1,2,90,0,0
107008,-151.515151515152,4,1,2,90,0,0
107133,-50,4,1,2,90,0,0
107175,-151.515151515152,4,1,2,90,0,0
107300,-50,4,1,2,90,0,0
107341,-151.515151515152,4,1,2,90,0,0
107466,-50,4,1,2,90,0,0
107508,-100,4,1,2,90,0,0
107675,-151.515151515152,4,1,2,90,0,0
107800,-50,4,1,2,90,0,0
107841,-100,4,1,2,90,0,0
108008,-151.515151515152,4,1,2,90,0,0
108133,-50,4,1,2,90,0,0
108175,-151.515151515152,4,1,2,90,0,0
108300,-50,4,1,2,90,0,0
108341,-151.515151515152,4,1,2,90,0,0
108466,-50,4,1,2,90,0,0
108508,-151.515151515152,4,1,2,90,0,0
108633,-50,4,1,2,90,0,0
108675,-151.515151515152,4,1,2,90,0,0
108800,-50,4,1,2,90,0,0
108841,-100,4,1,2,90,0,0
109008,-151.515151515152,4,1,2,90,0,0
109133,-50,4,1,2,90,0,0
109175,-100,4,1,2,90,0,0
109341,-151.515151515152,4,1,2,90,0,0
109466,-50,4,1,2,90,0,0
109508,-151.515151515152,4,1,2,90,0,0
109633,-50,4,1,2,90,0,0
109675,-151.515151515152,4,1,2,90,0,0
109800,-50,4,1,2,90,0,0
109841,-151.515151515152,4,1,2,90,0,0
109966,-50,4,1,2,90,0,0
110008,-151.515151515152,4,1,2,90,0,0
110133,-50,4,1,2,90,0,0
110175,-151.515151515152,4,1,2,90,0,0
110300,-50,4,1,2,90,0,0
110341,-151.515151515152,4,1,2,90,0,0
110466,-50,4,1,2,90,0,0
110508,-100,4,1,2,90,0,0
110675,-151.515151515152,4,1,2,90,0,0
110800,-50,4,1,2,90,0,0
110841,-151.515151515152,4,1,2,90,0,0
110966,-50,4,1,2,90,0,0
111008,-151.515151515152,4,1,2,90,0,0
111133,-50,4,1,2,90,0,0
111175,-151.515151515152,4,1,2,90,0,0
111300,-50,4,1,2,90,0,0
111341,-151.515151515152,4,1,2,90,0,0
111466,-50,4,1,2,90,0,0
111508,-151.515151515152,4,1,2,90,0,0
111633,-50,4,1,2,90,0,0
111675,-151.515151515152,4,1,2,90,0,0
111800,-50,4,1,2,90,0,0
111841,-100,4,1,2,90,0,0
112008,-151.515151515152,4,1,2,90,0,0
112133,-50,4,1,2,90,0,0
112175,-151.515151515152,4,1,2,90,0,0
112300,-50,4,1,2,90,0,0
112341,-100,4,1,2,90,0,0
112508,-151.515151515152,4,1,2,90,0,0
112633,-50,4,1,2,90,0,0
112675,-151.515151515152,4,1,2,90,0,0
112800,-50,4,1,2,90,0,0
112841,-151.515151515152,4,1,2,90,0,0
112966,-50,4,1,2,90,0,0
113008,-151.515151515152,4,1,2,90,0,0
113133,-50,4,1,2,90,0,0
113175,-100,4,1,2,90,0,0
113341,-151.515151515152,4,1,2,90,0,0
113466,-50,4,1,2,90,0,0
113508,-151.515151515152,4,1,2,90,0,0
113633,-50,4,1,2,90,0,0
113675,-151.515151515152,4,1,2,90,0,0
113800,-50,4,1,2,90,0,0
113841,-100,4,1,2,90,0,0
114008,-151.515151515152,4,1,2,90,0,0
114133,-50,4,1,2,90,0,0
114175,-151.515151515152,4,1,2,90,0,0
114300,-50,4,1,2,90,0,0
114341,-151.515151515152,4,1,2,90,0,0
114466,-50,4,1,2,90,0,0
114508,-151.515151515152,4,1,2,90,0,0
114633,-50,4,1,2,90,0,0
114675,-100,4,1,2,90,0,0
114841,-151.515151515152,4,1,2,90,0,0
114966,-50,4,1,2,90,0,0
115008,-151.515151515152,4,1,2,90,0,0
115133,-50,4,1,2,90,0,0
115175,-151.515151515152,4,1,2,90,0,0
115300,-50,4,1,2,90,0,0
115341,-151.515151515152,4,1,2,90,0,0
115466,-50,4,1,2,90,0,0
115508,-151.515151515152,4,1,2,90,0,0
115633,-50,4,1,2,90,0,0
115675,-151.515151515152,4,1,2,90,0,0
115800,-50,4,1,2,90,0,0
115841,-100,4,1,2,90,0,0
116008,-151.515151515152,4,1,2,90,0,0
116133,-50,4,1,2,90,0,0
116175,-151.515151515152,4,1,2,90,0,0
116300,-50,4,1,2,90,0,0
116341,-151.515151515152,4,1,2,90,0,0
116466,-50,4,1,2,90,0,0
116508,-151.515151515152,4,1,2,90,0,0
116633,-50,4,1,2,90,0,0
116675,-166.666666666667,4,1,2,90,0,0
116716,-71.4285714285714,4,1,2,90,0,0
116758,-166.666666666667,4,1,2,90,0,0
116799,-71.4285714285714,4,1,2,90,0,0
116841,-166.666666666667,4,1,2,90,0,0
116882,-71.4285714285714,4,1,2,90,0,0
116925,-166.666666666667,4,1,2,90,0,0
116966,-71.4285714285714,4,1,2,90,0,0
117008,-166.666666666667,4,1,2,90,0,0
117049,-71.4285714285714,4,1,2,90,0,0
117091,-166.666666666667,4,1,2,90,0,0
117132,-71.4285714285714,4,1,2,90,0,0
117175,-166.666666666667,4,1,2,90,0,0
117216,-71.4285714285714,4,1,2,90,0,0
117258,-166.666666666667,4,1,2,90,0,0
117299,-71.4285714285714,4,1,2,90,0,0
117341,-166.666666666667,4,1,2,90,0,0
117382,-71.4285714285714,4,1,2,90,0,0
117425,-166.666666666667,4,1,2,90,0,0
117466,-71.4285714285714,4,1,2,90,0,0
117508,-166.666666666667,4,1,2,90,0,0
117549,-71.4285714285714,4,1,2,90,0,0
117591,-166.666666666667,4,1,2,90,0,0
117632,-71.4285714285714,4,1,2,90,0,0
117675,-50,4,1,2,90,0,0
117717,-151.515151515152,4,1,2,90,0,0
117841,-100,4,1,2,90,0,0
118175,-50,4,1,2,90,0,0
118217,-151.515151515152,4,1,2,90,0,0
118341,-50,4,1,2,90,0,0
118383,-151.515151515152,4,1,2,90,0,0
118508,-100,4,1,2,90,0,0
118675,-50,4,1,2,90,0,0
118717,-151.515151515152,4,1,2,90,0,0
118841,-100,4,1,2,90,0,0
119008,-50,4,1,2,90,0,0
119050,-151.515151515152,4,1,2,90,0,0
119175,-100,4,1,2,90,0,0
119258,-50,4,1,2,90,0,0
119300,-151.515151515152,4,1,2,90,0,0
119425,-100,4,1,2,90,0,0
119508,-50,4,1,2,90,0,0
119550,-151.515151515152,4,1,2,90,0,0
119675,-50,4,1,2,90,0,0
119717,-151.515151515152,4,1,2,90,0,0
119841,-50,4,1,2,90,0,0
119883,-151.515151515152,4,1,2,90,0,0
120008,-100,4,1,2,90,0,0
120175,-50,4,1,2,90,0,0
120217,-151.515151515152,4,1,2,90,0,0
120341,-50,4,1,2,90,0,0
120383,-151.515151515152,4,1,2,90,0,0
120508,-50,4,1,2,90,0,0
120550,-151.515151515152,4,1,2,90,0,0
120675,-100,4,1,2,90,0,0
120841,-50,4,1,2,90,0,0
120883,-151.515151515152,4,1,2,90,0,0
121008,-50,4,1,2,90,0,0
121050,-151.515151515152,4,1,2,90,0,0
121175,-100,4,1,2,90,0,0
121341,-50,4,1,2,90,0,0
121383,-151.515151515152,4,1,2,90,0,0
121508,-50,4,1,2,90,0,0
121550,-151.515151515152,4,1,2,90,0,0
121675,-100,4,1,2,90,0,0
121841,-50,4,1,2,90,0,0
121883,-151.515151515152,4,1,2,90,0,0
122008,-50,4,1,2,90,0,0
122050,-151.515151515152,4,1,2,90,0,0
122175,-50,4,1,2,90,0,0
122217,-151.515151515152,4,1,2,90,0,0
122341,-100,4,1,2,90,0,0
122508,-50,4,1,2,90,0,0
122550,-151.515151515152,4,1,2,90,0,0
122675,-166.666666666667,4,1,2,90,0,0
122716,-71.4285714285714,4,1,2,90,0,0
122759,-166.666666666667,4,1,2,90,0,0
122800,-71.4285714285714,4,1,2,90,0,0
122842,-166.666666666667,4,1,2,90,0,0
122883,-71.4285714285714,4,1,2,90,0,0
122925,-166.666666666667,4,1,2,90,0,0
122966,-71.4285714285714,4,1,2,90,0,0
123008,-50,4,1,2,90,0,0
123050,-151.515151515152,4,1,2,90,0,0
123175,-50,4,1,2,90,0,0
123217,-151.515151515152,4,1,2,90,0,0
123341,-50,4,1,2,90,0,0
123383,-151.515151515152,4,1,2,90,0,0
123508,-100,4,1,2,90,0,0
123675,-50,4,1,2,90,0,0
123717,-151.515151515152,4,1,2,90,0,0
123841,-50,4,1,2,90,0,0
123883,-151.515151515152,4,1,2,90,0,0
124008,-50,4,1,2,90,0,0
124050,-151.515151515152,4,1,2,90,0,0
124175,-166.666666666667,4,1,2,90,0,0
124216,-71.4285714285714,4,1,2,90,0,0
124259,-166.666666666667,4,1,2,90,0,0
124300,-71.4285714285714,4,1,2,90,0,0
124342,-166.666666666667,4,1,2,90,0,0
124383,-71.4285714285714,4,1,2,90,0,0
124425,-166.666666666667,4,1,2,90,0,0
124466,-71.4285714285714,4,1,2,90,0,0
124508,-166.666666666667,4,1,2,90,0,0
124549,-71.4285714285714,4,1,2,90,0,0
124592,-166.666666666667,4,1,2,90,0,0
124633,-71.4285714285714,4,1,2,90,0,0
124675,-166.666666666667,4,1,2,90,0,0
124716,-71.4285714285714,4,1,2,90,0,0
124758,-166.666666666667,4,1,2,90,0,0
124799,-71.4285714285714,4,1,2,90,0,0
124841,-166.666666666667,4,1,2,90,0,0
124882,-71.4285714285714,4,1,2,90,0,0
124925,-166.666666666667,4,1,2,90,0,0
124966,-71.4285714285714,4,1,2,90,0,0
125008,-166.666666666667,4,1,2,90,0,0
125049,-71.4285714285714,4,1,2,90,0,0
125091,-166.666666666667,4,1,2,90,0,0
125132,-71.4285714285714,4,1,2,90,0,0
125175,-166.666666666667,4,1,2,90,0,0
125216,-71.4285714285714,4,1,2,90,0,0
125259,-166.666666666667,4,1,2,90,0,0
125300,-71.4285714285714,4,1,2,90,0,0
125342,-166.666666666667,4,1,2,90,0,0
125383,-71.4285714285714,4,1,2,90,0,0
125425,-166.666666666667,4,1,2,90,0,0
125466,-71.4285714285714,4,1,2,90,0,0
125508,-166.666666666667,4,1,2,90,0,0
125549,-71.4285714285714,4,1,2,90,0,0
125592,-166.666666666667,4,1,2,90,0,0
125633,-71.4285714285714,4,1,2,90,0,0
125675,-166.666666666667,4,1,2,90,0,0
125716,-71.4285714285714,4,1,2,90,0,0
125758,-166.666666666667,4,1,2,90,0,0
125799,-71.4285714285714,4,1,2,90,0,0
125841,-166.666666666667,4,1,2,90,0,0
125882,-71.4285714285714,4,1,2,90,0,0
125925,-166.666666666667,4,1,2,90,0,0
125966,-71.4285714285714,4,1,2,90,0,0
126008,-166.666666666667,4,1,2,90,0,0
126049,-71.4285714285714,4,1,2,90,0,0
126091,-166.666666666667,4,1,2,90,0,0
126132,-71.4285714285714,4,1,2,90,0,0
126175,-166.666666666667,4,1,2,90,0,0
126216,-71.4285714285714,4,1,2,90,0,0
126259,-166.666666666667,4,1,2,90,0,0
126300,-71.4285714285714,4,1,2,90,0,0
126342,-166.666666666667,4,1,2,90,0,0
126383,-71.4285714285714,4,1,2,90,0,0
126425,-166.666666666667,4,1,2,90,0,0
126466,-71.4285714285714,4,1,2,90,0,0
126508,-166.666666666667,4,1,2,90,0,0
126549,-71.4285714285714,4,1,2,90,0,0
126592,-166.666666666667,4,1,2,90,0,0
126633,-71.4285714285714,4,1,2,90,0,0
126675,-166.666666666667,4,1,2,90,0,0
126716,-71.4285714285714,4,1,2,90,0,0
126758,-166.666666666667,4,1,2,90,0,0
126799,-71.4285714285714,4,1,2,90,0,0
126841,-166.666666666667,4,1,2,90,0,0
126882,-71.4285714285714,4,1,2,90,0,0
126925,-166.666666666667,4,1,2,90,0,0
126966,-71.4285714285714,4,1,2,90,0,0
127008,-166.666666666667,4,1,2,90,0,0
127049,-71.4285714285714,4,1,2,90,0,0
127091,-166.666666666667,4,1,2,90,0,0
127132,-71.4285714285714,4,1,2,90,0,0
127175,-166.666666666667,4,1,2,90,0,0
127216,-71.4285714285714,4,1,2,90,0,0
127259,-166.666666666667,4,1,2,90,0,0
127300,-71.4285714285714,4,1,2,90,0,0
127342,-166.666666666667,4,1,2,90,0,0
127383,-71.4285714285714,4,1,2,90,0,0
127425,-166.666666666667,4,1,2,90,0,0
127466,-71.4285714285714,4,1,2,90,0,0
127508,-166.666666666667,4,1,2,90,0,0
127549,-71.4285714285714,4,1,2,90,0,0
127592,-166.666666666667,4,1,2,90,0,0
127633,-71.4285714285714,4,1,2,90,0,0
127675,-166.666666666667,4,1,2,90,0,0
127716,-71.4285714285714,4,1,2,90,0,0
127758,-166.666666666667,4,1,2,90,0,0
127799,-71.4285714285714,4,1,2,90,0,0
127841,-166.666666666667,4,1,2,90,0,0
127882,-71.4285714285714,4,1,2,90,0,0
127925,-166.666666666667,4,1,2,90,0,0
127966,-71.4285714285714,4,1,2,90,0,0
128008,-66.6666666666667,4,1,2,90,0,0
128088,-125,4,1,2,90,0,0
128151,-166.666666666667,4,1,2,90,0,0
128193,-250,4,1,2,90,0,0
128255,-500,4,1,2,90,0,0
128297,-1000,4,1,2,90,0,0
128318,-2000,4,1,2,90,0,0
128341,-100,4,1,2,90,0,0
133341,-166.666666666667,4,1,2,90,0,0
133382,-71.4285714285714,4,1,2,90,0,0
133424,-166.666666666667,4,1,2,90,0,0
133465,-71.4285714285714,4,1,2,90,0,0
133507,-166.666666666667,4,1,2,90,0,0
133548,-71.4285714285714,4,1,2,90,0,0
133591,-166.666666666667,4,1,2,90,0,0
133632,-71.4285714285714,4,1,2,90,0,0
133675,-100,4,1,2,90,0,0
138341,-166.666666666667,4,1,2,90,0,0
138382,-71.4285714285714,4,1,2,90,0,0
138424,-166.666666666667,4,1,2,90,0,0
138465,-71.4285714285714,4,1,2,90,0,0
138507,-166.666666666667,4,1,2,90,0,0
138548,-71.4285714285714,4,1,2,90,0,0
138591,-166.666666666667,4,1,2,90,0,0
138632,-71.4285714285714,4,1,2,90,0,0
138675,-166.666666666667,4,1,2,90,0,0
138716,-71.4285714285714,4,1,2,90,0,0
138758,-166.666666666667,4,1,2,90,0,0
138799,-71.4285714285714,4,1,2,90,0,0
138841,-166.666666666667,4,1,2,90,0,0
138882,-71.4285714285714,4,1,2,90,0,0
138925,-166.666666666667,4,1,2,90,0,0
138966,-71.4285714285714,4,1,2,90,0,0
139008,-66.6666666666667,4,1,2,90,0,0
139088,-125,4,1,2,90,0,0
139151,-166.666666666667,4,1,2,90,0,0
139193,-250,4,1,2,90,0,0
139255,-500,4,1,2,90,0,0
139297,-1000,4,1,2,90,0,0
139318,-2000,4,1,2,90,0,0
139341,-100,4,1,2,90,0,0
144008,-166.666666666667,4,1,2,90,0,0
144049,-71.4285714285714,4,1,2,90,0,0
144091,-166.666666666667,4,1,2,90,0,0
144132,-71.4285714285714,4,1,2,90,0,0
144174,-166.666666666667,4,1,2,90,0,0
144215,-71.4285714285714,4,1,2,90,0,0
144258,-166.666666666667,4,1,2,90,0,0
144299,-71.4285714285714,4,1,2,90,0,0
144341,-100,4,1,2,90,0,0
149675,-44.4444444444445,4,1,2,90,0,0
149737,-357.142857142857,4,1,2,90,0,0
149841,-44.4444444444445,4,1,2,90,0,0
149903,-357.142857142857,4,1,2,90,0,0
150008,-44.4444444444445,4,1,2,90,0,0
150070,-357.142857142857,4,1,2,90,0,0
150175,-44.4444444444445,4,1,2,90,0,0
150237,-357.142857142857,4,1,2,90,0,0
150341,-44.4444444444445,4,1,2,90,0,0
150403,-357.142857142857,4,1,2,90,0,0
150508,-44.4444444444445,4,1,2,90,0,0
150570,-357.142857142857,4,1,2,90,0,0
150675,-44.4444444444445,4,1,2,90,0,0
150737,-357.142857142857,4,1,2,90,0,0
150841,-44.4444444444445,4,1,2,90,0,0
150903,-357.142857142857,4,1,2,90,0,0
151008,-44.4444444444445,4,1,2,90,0,0
151070,-357.142857142857,4,1,2,90,0,0
151174,-44.4444444444445,4,1,2,90,0,0
151236,-357.142857142857,4,1,2,90,0,0
151341,-44.4444444444445,4,1,2,90,0,0
151403,-357.142857142857,4,1,2,90,0,0
151508,-44.4444444444445,4,1,2,90,0,0
151570,-357.142857142857,4,1,2,90,0,0
151674,-44.4444444444445,4,1,2,90,0,0
151736,-357.142857142857,4,1,2,90,0,0
151841,-44.4444444444445,4,1,2,90,0,0
151903,-357.142857142857,4,1,2,90,0,0
152008,-44.4444444444445,4,1,2,90,0,0
152070,-357.142857142857,4,1,2,90,0,0
152174,-44.4444444444445,4,1,2,90,0,0
152236,-357.142857142857,4,1,2,90,0,0
152341,-44.4444444444445,4,1,2,90,0,0
152403,-357.142857142857,4,1,2,90,0,0
152507,-44.4444444444445,4,1,2,90,0,0
152569,-357.142857142857,4,1,2,90,0,0
152674,-44.4444444444445,4,1,2,90,0,0
152736,-357.142857142857,4,1,2,90,0,0
152841,-44.4444444444445,4,1,2,90,0,0
152903,-357.142857142857,4,1,2,90,0,0
153007,-44.4444444444445,4,1,2,90,0,0
153069,-357.142857142857,4,1,2,90,0,0
153174,-44.4444444444445,4,1,2,90,0,0
153236,-357.142857142857,4,1,2,90,0,0
153341,-44.4444444444445,4,1,2,90,0,0
153403,-357.142857142857,4,1,2,90,0,0
153507,-44.4444444444445,4,1,2,90,0,0
153569,-357.142857142857,4,1,2,90,0,0
153675,-44.4444444444445,4,1,2,90,0,0
153737,-357.142857142857,4,1,2,90,0,0
153841,-44.4444444444445,4,1,2,90,0,0
153903,-357.142857142857,4,1,2,90,0,0
154008,-44.4444444444445,4,1,2,90,0,0
154070,-357.142857142857,4,1,2,90,0,0
154175,-44.4444444444445,4,1,2,90,0,0
154237,-357.142857142857,4,1,2,90,0,0
154341,-44.4444444444445,4,1,2,90,0,0
154403,-357.142857142857,4,1,2,90,0,0
154508,-44.4444444444445,4,1,2,90,0,0
154570,-357.142857142857,4,1,2,90,0,0
154675,-1000,4,1,2,90,0,0
154716,-52.6315789473684,4,1,2,90,0,0
154758,-1000,4,1,2,90,0,0
154799,-52.6315789473684,4,1,2,90,0,0
154841,-1000,4,1,2,90,0,0
154882,-52.6315789473684,4,1,2,90,0,0
154925,-1000,4,1,2,90,0,0
154966,-52.6315789473684,4,1,2,90,0,0
155008,-44.4444444444445,4,1,2,90,0,0
155070,-357.142857142857,4,1,2,90,0,0
155174,-44.4444444444445,4,1,2,90,0,0
155236,-357.142857142857,4,1,2,90,0,0
155341,-44.4444444444445,4,1,2,90,0,0
155403,-357.142857142857,4,1,2,90,0,0
155508,-44.4444444444445,4,1,2,90,0,0
155570,-357.142857142857,4,1,2,90,0,0
155674,-44.4444444444445,4,1,2,90,0,0
155736,-357.142857142857,4,1,2,90,0,0
155841,-44.4444444444445,4,1,2,90,0,0
155903,-357.142857142857,4,1,2,90,0,0
156008,-44.4444444444445,4,1,2,90,0,0
156070,-357.142857142857,4,1,2,90,0,0
156174,-44.4444444444445,4,1,2,90,0,0
156236,-357.142857142857,4,1,2,90,0,0
156341,-44.4444444444445,4,1,2,90,0,0
156403,-357.142857142857,4,1,2,90,0,0
156507,-44.4444444444445,4,1,2,90,0,0
156569,-357.142857142857,4,1,2,90,0,0
156674,-44.4444444444445,4,1,2,90,0,0
156736,-357.142857142857,4,1,2,90,0,0
156841,-44.4444444444445,4,1,2,90,0,0
156903,-357.142857142857,4,1,2,90,0,0
157007,-44.4444444444445,4,1,2,90,0,0
157069,-357.142857142857,4,1,2,90,0,0
157174,-44.4444444444445,4,1,2,90,0,0
157236,-357.142857142857,4,1,2,90,0,0
157341,-44.4444444444445,4,1,2,90,0,0
157403,-357.142857142857,4,1,2,90,0,0
157507,-44.4444444444445,4,1,2,90,0,0
157569,-357.142857142857,4,1,2,90,0,0
157674,-44.4444444444445,4,1,2,90,0,0
157736,-357.142857142857,4,1,2,90,0,0
157840,-44.4444444444445,4,1,2,90,0,0
157902,-357.142857142857,4,1,2,90,0,0
158007,-44.4444444444445,4,1,2,90,0,0
158069,-357.142857142857,4,1,2,90,0,0
158174,-44.4444444444445,4,1,2,90,0,0
158236,-357.142857142857,4,1,2,90,0,0
158340,-44.4444444444445,4,1,2,90,0,0
158402,-357.142857142857,4,1,2,90,0,0
158507,-44.4444444444445,4,1,2,90,0,0
158569,-357.142857142857,4,1,2,90,0,0
158674,-44.4444444444445,4,1,2,90,0,0
158736,-357.142857142857,4,1,2,90,0,0
158840,-44.4444444444445,4,1,2,90,0,0
158902,-357.142857142857,4,1,2,90,0,0
159008,-44.4444444444445,4,1,2,90,0,0
159070,-357.142857142857,4,1,2,90,0,0
159174,-44.4444444444445,4,1,2,90,0,0
159236,-357.142857142857,4,1,2,90,0,0
159341,-44.4444444444445,4,1,2,90,0,0
159403,-357.142857142857,4,1,2,90,0,0
159508,-44.4444444444445,4,1,2,90,0,0
159570,-357.142857142857,4,1,2,90,0,0
159674,-44.4444444444445,4,1,2,90,0,0
159736,-357.142857142857,4,1,2,90,0,0
159841,-44.4444444444445,4,1,2,90,0,0
159903,-357.142857142857,4,1,2,90,0,0
160008,-1000,4,1,2,90,0,0
160049,-52.6315789473684,4,1,2,90,0,0
160091,-1000,4,1,2,90,0,0
160132,-52.6315789473684,4,1,2,90,0,0
160174,-1000,4,1,2,90,0,0
160215,-52.6315789473684,4,1,2,90,0,0
160258,-1000,4,1,2,90,0,0
160299,-52.6315789473684,4,1,2,90,0,0
160341,-44.4444444444445,4,1,2,90,0,0
160403,-357.142857142857,4,1,2,90,0,0
160507,-44.4444444444445,4,1,2,90,0,0
160569,-357.142857142857,4,1,2,90,0,0
160674,-44.4444444444445,4,1,2,90,0,0
160736,-357.142857142857,4,1,2,90,0,0
160841,-44.4444444444445,4,1,2,90,0,0
160903,-357.142857142857,4,1,2,90,0,0
161007,-44.4444444444445,4,1,2,90,0,0
161069,-357.142857142857,4,1,2,90,0,0
161174,-44.4444444444445,4,1,2,90,0,0
161236,-357.142857142857,4,1,2,90,0,0
161341,-44.4444444444445,4,1,2,90,0,0
161403,-357.142857142857,4,1,2,90,0,0
161507,-44.4444444444445,4,1,2,90,0,0
161569,-357.142857142857,4,1,2,90,0,0
161674,-44.4444444444445,4,1,2,90,0,0
161736,-357.142857142857,4,1,2,90,0,0
161840,-44.4444444444445,4,1,2,90,0,0
161902,-357.142857142857,4,1,2,90,0,0
162007,-44.4444444444445,4,1,2,90,0,0
162069,-357.142857142857,4,1,2,90,0,0
162174,-44.4444444444445,4,1,2,90,0,0
162236,-357.142857142857,4,1,2,90,0,0
162340,-44.4444444444445,4,1,2,90,0,0
162402,-357.142857142857,4,1,2,90,0,0
162507,-44.4444444444445,4,1,2,90,0,0
162569,-357.142857142857,4,1,2,90,0,0
162674,-44.4444444444445,4,1,2,90,0,0
162736,-357.142857142857,4,1,2,90,0,0
162840,-44.4444444444445,4,1,2,90,0,0
162902,-357.142857142857,4,1,2,90,0,0
163007,-44.4444444444445,4,1,2,90,0,0
163069,-357.142857142857,4,1,2,90,0,0
163173,-44.4444444444445,4,1,2,90,0,0
163235,-357.142857142857,4,1,2,90,0,0
163340,-44.4444444444445,4,1,2,90,0,0
163402,-357.142857142857,4,1,2,90,0,0
163507,-44.4444444444445,4,1,2,90,0,0
163569,-357.142857142857,4,1,2,90,0,0
163673,-44.4444444444445,4,1,2,90,0,0
163735,-357.142857142857,4,1,2,90,0,0
163840,-44.4444444444445,4,1,2,90,0,0
163902,-357.142857142857,4,1,2,90,0,0
164007,-44.4444444444445,4,1,2,90,0,0
164069,-357.142857142857,4,1,2,90,0,0
164173,-44.4444444444445,4,1,2,90,0,0
164235,-357.142857142857,4,1,2,90,0,0
164341,-44.4444444444445,4,1,2,90,0,0
164403,-357.142857142857,4,1,2,90,0,0
164507,-44.4444444444445,4,1,2,90,0,0
164569,-357.142857142857,4,1,2,90,0,0
164674,-44.4444444444445,4,1,2,90,0,0
164736,-357.142857142857,4,1,2,90,0,0
164841,-44.4444444444445,4,1,2,90,0,0
164903,-357.142857142857,4,1,2,90,0,0
165007,-44.4444444444445,4,1,2,90,0,0
165069,-357.142857142857,4,1,2,90,0,0
165174,-44.4444444444445,4,1,2,90,0,0
165236,-357.142857142857,4,1,2,90,0,0
165341,-1000,4,1,2,90,0,0
165382,-52.6315789473684,4,1,2,90,0,0
165424,-1000,4,1,2,90,0,0
165465,-52.6315789473684,4,1,2,90,0,0
165507,-1000,4,1,2,90,0,0
165548,-52.6315789473684,4,1,2,90,0,0
165591,-1000,4,1,2,90,0,0
165632,-52.6315789473684,4,1,2,90,0,0
165675,-44.4444444444445,4,1,2,90,0,0
165737,-357.142857142857,4,1,2,90,0,0
165841,-44.4444444444445,4,1,2,90,0,0
165903,-357.142857142857,4,1,2,90,0,0
166008,-44.4444444444445,4,1,2,90,0,0
166070,-357.142857142857,4,1,2,90,0,0
166175,-44.4444444444445,4,1,2,90,0,0
166237,-357.142857142857,4,1,2,90,0,0
166341,-44.4444444444445,4,1,2,90,0,0
166403,-357.142857142857,4,1,2,90,0,0
166508,-44.4444444444445,4,1,2,90,0,0
166570,-357.142857142857,4,1,2,90,0,0
166675,-44.4444444444445,4,1,2,90,0,0
166737,-357.142857142857,4,1,2,90,0,0
166841,-44.4444444444445,4,1,2,90,0,0
166903,-357.142857142857,4,1,2,90,0,0
167008,-44.4444444444445,4,1,2,90,0,0
167070,-357.142857142857,4,1,2,90,0,0
167174,-44.4444444444445,4,1,2,90,0,0
167236,-357.142857142857,4,1,2,90,0,0
167341,-44.4444444444445,4,1,2,90,0,0
167403,-357.142857142857,4,1,2,90,0,0
167508,-44.4444444444445,4,1,2,90,0,0
167570,-357.142857142857,4,1,2,90,0,0
167674,-44.4444444444445,4,1,2,90,0,0
167736,-357.142857142857,4,1,2,90,0,0
167841,-44.4444444444445,4,1,2,90,0,0
167903,-357.142857142857,4,1,2,90,0,0
168008,-44.4444444444445,4,1,2,90,0,0
168070,-357.142857142857,4,1,2,90,0,0
168174,-44.4444444444445,4,1,2,90,0,0
168236,-357.142857142857,4,1,2,90,0,0
168341,-44.4444444444445,4,1,2,90,0,0
168403,-357.142857142857,4,1,2,90,0,0
168507,-44.4444444444445,4,1,2,90,0,0
168569,-357.142857142857,4,1,2,90,0,0
168674,-44.4444444444445,4,1,2,90,0,0
168736,-357.142857142857,4,1,2,90,0,0
168841,-44.4444444444445,4,1,2,90,0,0
168903,-357.142857142857,4,1,2,90,0,0
169007,-44.4444444444445,4,1,2,90,0,0
169069,-357.142857142857,4,1,2,90,0,0
169174,-44.4444444444445,4,1,2,90,0,0
169236,-357.142857142857,4,1,2,90,0,0
169341,-44.4444444444445,4,1,2,90,0,0
169403,-357.142857142857,4,1,2,90,0,0
169507,-44.4444444444445,4,1,2,90,0,0
169569,-357.142857142857,4,1,2,90,0,0
169675,-44.4444444444445,4,1,2,90,0,0
169737,-357.142857142857,4,1,2,90,0,0
169841,-44.4444444444445,4,1,2,90,0,0
169903,-357.142857142857,4,1,2,90,0,0
170008,-44.4444444444445,4,1,2,90,0,0
170070,-357.142857142857,4,1,2,90,0,0
170175,-44.4444444444445,4,1,2,90,0,0
170237,-357.142857142857,4,1,2,90,0,0
170341,-44.4444444444445,4,1,2,90,0,0
170403,-357.142857142857,4,1,2,90,0,0
170508,-44.4444444444445,4,1,2,90,0,0
170570,-357.142857142857,4,1,2,90,0,0
170675,-1000,4,1,2,90,0,0
170716,-52.6315789473684,4,1,2,90,0,0
170758,-1000,4,1,2,90,0,0
170799,-52.6315789473684,4,1,2,90,0,0
170841,-1000,4,1,2,90,0,0
170882,-52.6315789473684,4,1,2,90,0,0
170925,-1000,4,1,2,90,0,0
170966,-52.6315789473684,4,1,2,90,0,0
171008,-100,4,1,2,90,0,0
171175,-50,4,1,2,90,0,0
171217,-151.515151515152,4,1,2,90,0,0
171341,-50,4,1,2,90,0,0
171383,-151.515151515152,4,1,2,90,0,0
171508,-50,4,1,2,90,0,0
171550,-151.515151515152,4,1,2,90,0,0
171675,-50,4,1,2,90,0,0
171717,-151.515151515152,4,1,2,90,0,0
171841,-50,4,1,2,90,0,0
171883,-151.515151515152,4,1,2,90,0,0
172008,-50,4,1,2,90,0,0
172050,-151.515151515152,4,1,2,90,0,0
172175,-100,4,1,2,90,0,0
172341,-50,4,1,2,90,0,0
172383,-151.515151515152,4,1,2,90,0,0
172508,-50,4,1,2,90,0,0
172550,-151.515151515152,4,1,2,90,0,0
172675,-50,4,1,2,90,0,0
172717,-151.515151515152,4,1,2,90,0,0
172841,-50,4,1,2,90,0,0
172883,-151.515151515152,4,1,2,90,0,0
173008,-50,4,1,2,90,0,0
173050,-151.515151515152,4,1,2,90,0,0
173175,-50,4,1,2,90,0,0
173217,-151.515151515152,4,1,2,90,0,0
173341,-50,4,1,2,90,0,0
173383,-151.515151515152,4,1,2,90,0,0
173508,-50,4,1,2,90,0,0
173550,-151.515151515152,4,1,2,90,0,0
173675,-50,4,1,2,90,0,0
173717,-151.515151515152,4,1,2,90,0,0
173841,-50,4,1,2,90,0,0
173883,-151.515151515152,4,1,2,90,0,0
174008,-50,4,1,2,90,0,0
174050,-151.515151515152,4,1,2,90,0,0
174175,-100,4,1,2,90,0,0
174341,-50,4,1,2,90,0,0
174383,-151.515151515152,4,1,2,90,0,0
174508,-100,4,1,2,90,0,0
174675,-50,4,1,2,90,0,0
174717,-151.515151515152,4,1,2,90,0,0
174841,-50,4,1,2,90,0,0
174883,-151.515151515152,4,1,2,90,0,0
175008,-50,4,1,2,90,0,0
175050,-151.515151515152,4,1,2,90,0,0
175175,-50,4,1,2,90,0,0
175217,-151.515151515152,4,1,2,90,0,0
175341,-50,4,1,2,90,0,0
175383,-151.515151515152,4,1,2,90,0,0
175508,-100,4,1,2,90,0,0
175675,-50,4,1,2,90,0,0
175717,-151.515151515152,4,1,2,90,0,0
175841,-50,4,1,2,90,0,0
175883,-151.515151515152,4,1,2,90,0,0
176008,-166.666666666667,4,1,2,90,0,0
176049,-71.4285714285714,4,1,2,90,0,0
176092,-166.666666666667,4,1,2,90,0,0
176133,-71.4285714285714,4,1,2,90,0,0
176175,-166.666666666667,4,1,2,90,0,0
176216,-71.4285714285714,4,1,2,90,0,0
176258,-166.666666666667,4,1,2,90,0,0
176299,-71.4285714285714,4,1,2,90,0,0
176341,-50,4,1,2,90,0,0
176383,-151.515151515152,4,1,2,90,0,0
176508,-50,4,1,2,90,0,0
176550,-151.515151515152,4,1,2,90,0,0
176675,-50,4,1,2,90,0,0
176717,-151.515151515152,4,1,2,90,0,0
176841,-100,4,1,2,90,0,0
177008,-50,4,1,2,90,0,0
177050,-151.515151515152,4,1,2,90,0,0
177175,-100,4,1,2,90,0,0
177341,-50,4,1,2,90,0,0
177383,-151.515151515152,4,1,2,90,0,0
177508,-50,4,1,2,90,0,0
177550,-151.515151515152,4,1,2,90,0,0
177675,-50,4,1,2,90,0,0
177717,-151.515151515152,4,1,2,90,0,0
177841,-100,4,1,2,90,0,0
178008,-50,4,1,2,90,0,0
178050,-151.515151515152,4,1,2,90,0,0
178175,-50,4,1,2,90,0,0
178217,-151.515151515152,4,1,2,90,0,0
178341,-50,4,1,2,90,0,0
178383,-151.515151515152,4,1,2,90,0,0
178508,-100,4,1,2,90,0,0
178591,-50,4,1,2,90,0,0
178633,-151.515151515152,4,1,2,90,0,0
178758,-100,4,1,2,90,0,0
178841,-50,4,1,2,90,0,0
178883,-151.515151515152,4,1,2,90,0,0
179008,-100,4,1,2,90,0,0
179175,-50,4,1,2,90,0,0
179217,-151.515151515152,4,1,2,90,0,0
179341,-50,4,1,2,90,0,0
179383,-151.515151515152,4,1,2,90,0,0
179508,-100,4,1,2,90,0,0
179675,-50,4,1,2,90,0,0
179717,-151.515151515152,4,1,2,90,0,0
179841,-100,4,1,2,90,0,0
180008,-50,4,1,2,90,0,0
180050,-151.515151515152,4,1,2,90,0,0
180175,-50,4,1,2,90,0,0
180217,-151.515151515152,4,1,2,90,0,0
180341,-50,4,1,2,90,0,0
180383,-151.515151515152,4,1,2,90,0,0
180508,-50,4,1,2,90,0,0
180550,-151.515151515152,4,1,2,90,0,0
180675,-50,4,1,2,90,0,0
180717,-151.515151515152,4,1,2,90,0,0
180841,-50,4,1,2,90,0,0
180883,-151.515151515152,4,1,2,90,0,0
181008,-166.666666666667,4,1,2,90,0,0
181049,-71.4285714285714,4,1,2,90,0,0
181092,-166.666666666667,4,1,2,90,0,0
181133,-71.4285714285714,4,1,2,90,0,0
181175,-166.666666666667,4,1,2,90,0,0
181216,-71.4285714285714,4,1,2,90,0,0
181258,-166.666666666667,4,1,2,90,0,0
181299,-71.4285714285714,4,1,2,90,0,0
181341,-166.666666666667,4,1,2,90,0,0
181382,-71.4285714285714,4,1,2,90,0,0
181425,-166.666666666667,4,1,2,90,0,0
181466,-71.4285714285714,4,1,2,90,0,0
181508,-166.666666666667,4,1,2,90,0,0
181549,-71.4285714285714,4,1,2,90,0,0
181591,-166.666666666667,4,1,2,90,0,0
181632,-71.4285714285714,4,1,2,90,0,0
181675,-151.515151515152,4,1,2,90,0,0
181800,-50,4,1,2,90,0,0
181841,-151.515151515152,4,1,2,90,0,0
181966,-50,4,1,2,90,0,0
182008,-151.515151515152,4,1,2,90,0,0
182133,-50,4,1,2,90,0,0
182175,-151.515151515152,4,1,2,90,0,0
182300,-50,4,1,2,90,0,0
182341,-151.515151515152,4,1,2,90,0,0
182466,-50,4,1,2,90,0,0
182508,-151.515151515152,4,1,2,90,0,0
182633,-50,4,1,2,90,0,0
182675,-151.515151515152,4,1,2,90,0,0
182800,-50,4,1,2,90,0,0
182841,-100,4,1,2,90,0,0
183008,-151.515151515152,4,1,2,90,0,0
183133,-50,4,1,2,90,0,0
183175,-151.515151515152,4,1,2,90,0,0
183300,-50,4,1,2,90,0,0
183341,-151.515151515152,4,1,2,90,0,0
183466,-50,4,1,2,90,0,0
183508,-151.515151515152,4,1,2,90,0,0
183633,-50,4,1,2,90,0,0
183675,-151.515151515152,4,1,2,90,0,0
183800,-50,4,1,2,90,0,0
183841,-151.515151515152,4,1,2,90,0,0
183966,-50,4,1,2,90,0,0
184008,-151.515151515152,4,1,2,90,0,0
184133,-50,4,1,2,90,0,0
184175,-151.515151515152,4,1,2,90,0,0
184300,-50,4,1,2,90,0,0
184341,-151.515151515152,4,1,2,90,0,0
184466,-50,4,1,2,90,0,0
184508,-151.515151515152,4,1,2,90,0,0
184633,-50,4,1,2,90,0,0
184675,-100,4,1,2,90,0,0
184841,-151.515151515152,4,1,2,90,0,0
184966,-50,4,1,2,90,0,0
185008,-151.515151515152,4,1,2,90,0,0
185133,-50,4,1,2,90,0,0
185175,-100,4,1,2,90,0,0
185341,-151.515151515152,4,1,2,90,0,0
185466,-50,4,1,2,90,0,0
185508,-151.515151515152,4,1,2,90,0,0
185633,-50,4,1,2,90,0,0
185675,-151.515151515152,4,1,2,90,0,0
185800,-50,4,1,2,90,0,0
185841,-100,4,1,2,90,0,0
186008,-151.515151515152,4,1,2,90,0,0
186133,-50,4,1,2,90,0,0
186175,-151.515151515152,4,1,2,90,0,0
186300,-50,4,1,2,90,0,0
186341,-100,4,1,2,90,0,0
186508,-151.515151515152,4,1,2,90,0,0
186633,-50,4,1,2,90,0,0
186675,-166.666666666667,4,1,2,90,0,0
186716,-71.4285714285714,4,1,2,90,0,0
186759,-166.666666666667,4,1,2,90,0,0
186800,-71.4285714285714,4,1,2,90,0,0
186842,-166.666666666667,4,1,2,90,0,0
186883,-71.4285714285714,4,1,2,90,0,0
186925,-166.666666666667,4,1,2,90,0,0
186966,-71.4285714285714,4,1,2,90,0,0
187008,-151.515151515152,4,1,2,90,0,0
187133,-50,4,1,2,90,0,0
187175,-151.515151515152,4,1,2,90,0,0
187300,-50,4,1,2,90,0,0
187341,-151.515151515152,4,1,2,90,0,0
187466,-50,4,1,2,90,0,0
187508,-100,4,1,2,90,0,0
187675,-151.515151515152,4,1,2,90,0,0
187800,-50,4,1,2,90,0,0
187841,-151.515151515152,4,1,2,90,0,0
187966,-50,4,1,2,90,0,0
188008,-151.515151515152,4,1,2,90,0,0
188133,-50,4,1,2,90,0,0
188175,-100,4,1,2,90,0,0
188341,-151.515151515152,4,1,2,90,0,0
188466,-50,4,1,2,90,0,0
188508,-100,4,1,2,90,0,0
188675,-151.515151515152,4,1,2,90,0,0
188800,-50,4,1,2,90,0,0
188841,-151.515151515152,4,1,2,90,0,0
188966,-50,4,1,2,90,0,0
189008,-151.515151515152,4,1,2,90,0,0
189133,-50,4,1,2,90,0,0
189175,-100,4,1,2,90,0,0
189258,-151.515151515152,4,1,2,90,0,0
189383,-50,4,1,2,90,0,0
189425,-100,4,1,2,90,0,0
189508,-151.515151515152,4,1,2,90,0,0
189633,-50,4,1,2,90,0,0
189675,-100,4,1,2,90,0,0
189841,-151.515151515152,4,1,2,90,0,0
189966,-50,4,1,2,90,0,0
190008,-151.515151515152,4,1,2,90,0,0
190133,-50,4,1,2,90,0,0
190175,-151.515151515152,4,1,2,90,0,0
190300,-50,4,1,2,90,0,0
190341,-100,4,1,2,90,0,0
190508,-151.515151515152,4,1,2,90,0,0
190633,-50,4,1,2,90,0,0
190675,-151.515151515152,4,1,2,90,0,0
190800,-50,4,1,2,90,0,0
190841,-100,4,1,2,90,0,0
191008,-151.515151515152,4,1,2,90,0,0
191133,-50,4,1,2,90,0,0
191175,-151.515151515152,4,1,2,90,0,0
191300,-50,4,1,2,90,0,0
191341,-100,4,1,2,90,0,0
191508,-151.515151515152,4,1,2,90,0,0
191633,-50,4,1,2,90,0,0
191675,-151.515151515152,4,1,2,90,0,0
191800,-50,4,1,2,90,0,0
191841,-100,4,1,2,90,0,0
192008,-151.515151515152,4,1,2,90,0,0
192133,-50,4,1,2,90,0,0
192175,-151.515151515152,4,1,2,90,0,0
192300,-50,4,1,2,90,0,0
192341,-100,4,1,2,90,0,0

[HitObjects]
64,192,342,5,4,3:0:0:0:
320,192,508,128,2,841:2:0:0:0:
64,192,841,1,4,3:0:0:0:
320,192,1008,128,2,1341:2:0:0:0:
64,192,1341,1,4,3:0:0:0:
192,192,1508,128,2,1591:2:0:0:0:
320,192,1675,128,4,1841:3:0:0:0:
64,192,1841,1,2,2:0:0:0:
192,192,2008,128,2,2091:2:0:0:0:
320,192,2175,128,4,2341:3:0:0:0:
64,192,2341,1,2,2:0:0:0:
192,192,2508,128,2,2591:2:0:0:0:
64,192,2675,128,4,2758:3:0:0:0:
320,192,2841,128,2,2925:2:0:0:0:
448,192,3008,1,4,3:0:0:0:
192,192,3175,128,2,3508:2:0:0:0:
448,192,3508,1,4,3:0:0:0:
192,192,3675,128,2,4008:2:0:0:0:
448,192,4008,1,4,3:0:0:0:
320,192,4175,128,2,4258:2:0:0:0:
192,192,4341,128,4,4508:3:0:0:0:
448,192,4508,1,2,2:0:0:0:
320,192,4675,128,2,4758:2:0:0:0:
192,192,4841,128,4,5008:3:0:0:0:
448,192,5008,1,2,2:0:0:0:
320,192,5175,128,2,5258:2:0:0:0:
448,192,5341,128,4,5425:3:0:0:0:
192,192,5508,128,2,5591:2:0:0:0:
64,192,5675,1,4,3:0:0:0:
320,192,5841,128,2,6175:2:0:0:0:
64,192,6175,1,4,3:0:0:0:
320,192,6341,128,2,6675:2:0:0:0:
64,192,6675,1,4,3:0:0:0:
192,192,6841,128,2,6925:2:0:0:0:
320,192,7008,128,4,7175:3:0:0:0:
64,192,7175,1,2,2:0:0:0:
192,192,7341,128,2,7425:2:0:0:0:
320,192,7508,128,4,7675:3:0:0:0:
64,192,7675,1,2,2:0:0:0:
192,192,7841,128,2,7925:2:0:0:0:
64,192,8008,128,4,8091:3:0:0:0:
320,192,8175,128,2,8258:2:0:0:0:
448,192,8341,1,4,3:0:0:0:
192,192,8508,128,2,8841:2:0:0:0:
448,192,8841,1,4,3:0:0:0:
192,192,9008,128,2,9341:2:0:0:0:
448,192,9341,1,4,3:0:0:0:
320,192,9508,128,2,9591:2:0:0:0:
64,192,9675,128,0,9841:3:0:0:0:
192,192,9841,1,0,3:0:0:0:
320,192,9925,1,0,3:0:0:0:
448,192,10008,1,0,0:0:0:0:
192,192,10008,1,0,3:0:0:0:
64,192,10175,128,0,10341:3:0:0:0:
192,192,10341,1,0,3:0:0:0:
320,192,10425,1,0,3:0:0:0:
448,192,10508,1,0,3:0:0:0:
192,192,10508,1,0,0:0:0:0:
448,192,10675,1,0,3:0:0:0:
320,192,10675,1,0,0:0:0:0:
192,192,10758,1,0,3:0:0:0:
64,192,10841,1,0,3:0:0:0:
448,192,10925,1,0,3:0:0:0:
320,192,11008,1,4,3:0:0:0:
192,192,11008,1,2,2:0:0:0:
64,192,11175,1,2,2:0:0:0:
192,192,11258,1,2,2:0:0:0:
320,192,11341,1,2,2:0:0:0:
448,192,11341,1,8,2:0:0:0:
64,192,11508,1,4,3:0:0:0:
320,192,11675,1,2,2:0:0:0:
192,192,11758,1,2,2:0:0:0:
64,192,11841,1,2,2:0:0:0:
320,192,12008,1,2,2:0:0:0:
448,192,12008,1,8,2:0:0:0:
192,192,12175,1,2,2:0:0:0:
320,192,12258,1,2,2:0:0:0:
192,192,12341,1,4,3:0:0:0:
320,192,12508,1,2,2:0:0:0:
192,192,12591,1,2,2:0:0:0:
64,192,12675,1,2,2:0:0:0:
448,192,12675,1,8,2:0:0:0:
320,192,12841,1,4,3:0:0:0:
192,192,13008,1,2,2:0:0:0:
64,192,13175,1,2,2:0:0:0:
192,192,13258,1,2,2:0:0:0:
320,192,13341,1,2,2:0:0:0:
448,192,13341,1,8,2:0:0:0:
448,192,13508,1,2,2:0:0:0:
320,192,13591,1,2,2:0:0:0:
192,192,13675,1,4,3:0:0:0:
320,192,13841,1,2,2:0:0:0:
192,192,13925,1,2,2:0:0:0:
64,192,14008,1,2,2:0:0:0:
448,192,14008,1,8,2:0:0:0:
320,192,14175,1,4,3:0:0:0:
192,192,14341,1,2,2:0:0:0:
320,192,14425,1,2,2:0:0:0:
448,192,14508,1,2,2:0:0:0:
320,192,14675,1,2,2:0:0:0:
192,192,14675,1,8,2:0:0:0:
64,192,14841,1,2,2:0:0:0:
192,192,14925,1,2,2:0:0:0:
320,192,15008,1,4,3:0:0:0:
320,192,15175,1,2,2:0:0:0:
192,192,15258,1,2,2:0:0:0:
320,192,15341,1,2,2:0:0:0:
448,192,15341,1,8,2:0:0:0:
192,192,15508,1,4,3:0:0:0:
448,192,15675,1,2,2:0:0:0:
320,192,15758,1,8,2:0:0:0:
192,192,15758,1,2,2:0:0:0:
192,192,16008,1,2,2:0:0:0:
320,192,16008,1,8,2:0:0:0:
320,192,16175,1,2,2:0:0:0:
192,192,16258,1,2,2:0:0:0:
64,192,16341,1,4,3:0:0:0:
320,192,16508,1,2,2:0:0:0:
192,192,16591,1,2,2:0:0:0:
64,192,16675,1,2,2:0:0:0:
448,192,16675,1,8,2:0:0:0:
192,192,16841,1,4,3:0:0:0:
64,192,17008,1,2,2:0:0:0:
192,192,17091,1,2,2:0:0:0:
320,192,17175,1,2,2:0:0:0:
192,192,17341,1,2,2:0:0:0:
448,192,17341,1,8,2:0:0:0:
64,192,17508,1,2,2:0:0:0:
192,192,17591,1,2,2:0:0:0:
448,192,17675,1,4,3:0:0:0:
448,192,17841,1,2,2:0:0:0:
320,192,17925,1,2,2:0:0:0:
192,192,18008,1,2,2:0:0:0:
64,192,18008,1,8,2:0:0:0:
448,192,18175,1,4,3:0:0:0:
64,192,18341,1,2,2:0:0:0:
192,192,18508,1,2,2:0:0:0:
320,192,18591,1,2,2:0:0:0:
448,192,18675,1,2,2:0:0:0:
64,192,18675,1,8,2:0:0:0:
192,192,18841,1,2,2:0:0:0:
320,192,18925,1,2,2:0:0:0:
448,192,19008,1,4,3:0:0:0:
192,192,19175,1,2,2:0:0:0:
320,192,19258,1,2,2:0:0:0:
192,192,19341,1,2,2:0:0:0:
64,192,19341,1,8,2:0:0:0:
448,192,19508,1,4,3:0:0:0:
64,192,19675,1,2,2:0:0:0:
192,192,19758,1,2,2:0:0:0:
320,192,19758,1,8,2:0:0:0:
192,192,20008,1,2,2:0:0:0:
320,192,20008,1,8,2:0:0:0:
448,192,20175,1,2,2:0:0:0:
320,192,20258,1,2,2:0:0:0:
192,192,20341,1,2,2:0:0:0:
64,192,20341,1,0,3:0:0:0:
448,192,20508,5,0,3:0:0:0:
320,192,20591,1,0,3:0:0:0:
64,192,20675,1,0,3:0:0:0:
192,192,20758,1,0,3:0:0:0:
448,192,20841,1,0,3:0:0:0:
320,192,20925,1,0,3:0:0:0:
192,192,21008,1,0,3:0:0:0:
320,192,21091,1,0,3:0:0:0:
64,192,21175,1,0,3:0:0:0:
192,192,21258,1,0,3:0:0:0:
320,192,21341,1,0,3:0:0:0:
192,192,21425,1,0,3:0:0:0:
320,192,21508,1,0,3:0:0:0:
448,192,21591,1,0,3:0:0:0:
64,192,21675,5,4,3:0:0:0:
192,192,21675,1,2,2:0:0:0:
320,192,21758,1,2,2:0:0:0:
448,192,21841,1,2,2:0:0:0:
320,192,21925,1,2,2:0:0:0:
64,192,22008,1,8,2:0:0:0:
448,192,22008,1,2,2:0:0:0:
320,192,22175,1,2,2:0:0:0:
192,192,22258,1,2,2:0:0:0:
64,192,22341,1,2,2:0:0:0:
320,192,22425,1,2,2:0:0:0:
192,192,22508,1,2,2:0:0:0:
320,192,22591,1,2,2:0:0:0:
448,192,22675,1,8,2:0:0:0:
64,192,22675,1,2,2:0:0:0:
192,192,22841,1,2,2:0:0:0:
64,192,22925,1,2,2:0:0:0:
448,192,23008,1,2,2:0:0:0:
320,192,23091,1,2,2:0:0:0:
64,192,23175,1,2,2:0:0:0:
192,192,23258,1,2,2:0:0:0:
320,192,23341,1,2,2:0:0:0:
448,192,23341,1,8,2:0:0:0:
448,192,23508,1,2,2:0:0:0:
320,192,23591,1,2,2:0:0:0:
64,192,23675,1,2,2:0:0:0:
320,192,23758,1,2,2:0:0:0:
192,192,23841,1,2,2:0:0:0:
64,192,23925,1,2,2:0:0:0:
448,192,24008,1,8,2:0:0:0:
320,192,24008,1,2,2:0:0:0:
64,192,24175,1,2,2:0:0:0:
192,192,24258,1,2,2:0:0:0:
320,192,24341,1,2,2:0:0:0:
192,192,24425,1,2,2:0:0:0:
448,192,24508,1,2,2:0:0:0:
320,192,24591,1,2,2:0:0:0:
192,192,24675,1,2,2:0:0:0:
64,192,24675,1,8,2:0:0:0:
320,192,24841,1,2,2:0:0:0:
192,192,24925,1,2,2:0:0:0:
64,192,25008,1,2,2:0:0:0:
192,192,25091,1,2,2:0:0:0:
320,192,25175,1,2,2:0:0:0:
448,192,25258,1,2,2:0:0:0:
64,192,25341,1,2,2:0:0:0:
192,192,25341,1,8,2:0:0:0:
320,192,25508,1,2,2:0:0:0:
192,192,25591,1,2,2:0:0:0:
448,192,25675,1,2,2:0:0:0:
64,192,25758,1,2,2:0:0:0:
192,192,25841,1,2,2:0:0:0:
320,192,25925,1,2,2:0:0:0:
448,192,26008,1,8,2:0:0:0:
64,192,26008,1,2,2:0:0:0:
64,192,26175,1,2,2:0:0:0:
192,192,26258,1,2,2:0:0:0:
320,192,26341,1,2,2:0:0:0:
64,192,26425,1,2,2:0:0:0:
192,192,26508,1,2,2:0:0:0:
320,192,26591,1,2,2:0:0:0:
448,192,26675,1,8,2:0:0:0:
192,192,26675,1,2,2:0:0:0:
320,192,26841,1,2,2:0:0:0:
192,192,26925,1,2,2:0:0:0:
320,192,27008,1,2,2:0:0:0:
64,192,27091,1,2,2:0:0:0:
448,192,27175,1,2,2:0:0:0:
64,192,27258,1,2,2:0:0:0:
192,192,27341,1,8,2:0:0:0:
320,192,27341,1,2,2:0:0:0:
448,192,27508,1,2,2:0:0:0:
320,192,27591,1,2,2:0:0:0:
448,192,27675,1,2,2:0:0:0:
64,192,27758,1,2,2:0:0:0:
192,192,27841,1,2,2:0:0:0:
64,192,27925,1,2,2:0:0:0:
448,192,28008,1,8,2:0:0:0:
320,192,28008,1,2,2:0:0:0:
192,192,28175,1,2,2:0:0:0:
64,192,28258,1,2,2:0:0:0:
320,192,28341,1,2,2:0:0:0:
192,192,28425,1,2,2:0:0:0:
448,192,28508,1,2,2:0:0:0:
320,192,28591,1,2,2:0:0:0:
192,192,28675,1,2,2:0:0:0:
64,192,28675,1,8,2:0:0:0:
320,192,28841,1,2,2:0:0:0:
448,192,28925,1,2,2:0:0:0:
192,192,29008,1,2,2:0:0:0:
320,192,29091,1,2,2:0:0:0:
64,192,29175,1,2,2:0:0:0:
192,192,29258,1,2,2:0:0:0:
320,192,29341,1,2,2:0:0:0:
448,192,29341,1,8,2:0:0:0:
320,192,29508,1,2,2:0:0:0:
192,192,29591,1,2,2:0:0:0:
448,192,29675,1,2,2:0:0:0:
320,192,29758,1,2,2:0:0:0:
192,192,29841,5,2,2:0:0:0:
64,192,29925,1,2,2:0:0:0:
448,192,30008,1,8,2:0:0:0:
320,192,30008,1,2,2:0:0:0:
192,192,30175,1,2,2:0:0:0:
320,192,30258,1,2,2:0:0:0:
64,192,30341,1,2,2:0:0:0:
192,192,30425,1,2,2:0:0:0:
320,192,30508,1,2,2:0:0:0:
448,192,30591,1,2,2:0:0:0:
192,192,30675,1,2,2:0:0:0:
64,192,30675,1,8,2:0:0:0:
320,192,30841,1,2,2:0:0:0:
448,192,30925,1,2,2:0:0:0:
64,192,31008,5,2,2:0:0:0:
192,192,31091,1,2,2:0:0:0:
448,192,31175,1,8,2:0:0:0:
320,192,31175,1,2,2:0:0:0:
64,192,31258,1,2,2:0:0:0:
448,192,31341,1,8,2:0:0:0:
320,192,31341,1,2,2:0:0:0:
192,192,31425,1,2,2:0:0:0:
64,192,31508,1,2,2:0:0:0:
320,192,31591,1,2,2:0:0:0:
192,192,31675,1,2,2:0:0:0:
64,192,31675,1,8,2:0:0:0:
448,192,31758,1,2,2:0:0:0:
320,192,31841,1,2,2:0:0:0:
192,192,31925,1,2,2:0:0:0:
448,192,32008,1,8,2:0:0:0:
320,192,32008,1,2,2:0:0:0:
64,192,32091,1,2,2:0:0:0:
448,192,32175,1,8,2:0:0:0:
320,192,32175,1,2,2:0:0:0:
192,192,32258,1,2,2:0:0:0:
64,192,32341,128,0,32675:0:0:0:0:
448,192,32675,1,0,3:0:0:0:
320,192,32675,1,8,2:0:0:0:
320,192,32841,1,0,3:0:0:0:
192,192,32925,1,0,3:0:0:0:
448,192,33008,1,0,3:0:0:0:
320,192,33091,1,0,3:0:0:0:
192,192,33175,1,0,3:0:0:0:
64,192,33258,1,0,3:0:0:0:
448,192,33341,1,8,2:0:0:0:
320,192,33341,1,0,3:0:0:0:
320,192,33508,1,0,3:0:0:0:
192,192,33591,1,0,3:0:0:0:
320,192,33675,1,0,3:0:0:0:
448,192,33758,1,0,3:0:0:0:
64,192,33841,1,0,3:0:0:0:
192,192,33925,1,0,3:0:0:0:
320,192,34008,1,0,3:0:0:0:
448,192,34008,1,8,2:0:0:0:
64,192,34175,1,0,3:0:0:0:
192,192,34258,1,0,3:0:0:0:
320,192,34341,1,0,3:0:0:0:
64,192,34425,1,0,3:0:0:0:
448,192,34508,1,8,2:0:0:0:
320,192,34508,1,0,3:0:0:0:
192,192,34591,1,0,3:0:0:0:
448,192,34675,1,8,2:0:0:0:
320,192,34675,1,0,3:0:0:0:
192,192,34758,1,0,3:0:0:0:
64,192,34841,1,0,3:0:0:0:
448,192,34925,1,0,3:0:0:0:
320,192,35008,1,0,3:0:0:0:
192,192,35091,1,0,3:0:0:0:
448,192,35175,1,0,3:0:0:0:
320,192,35258,1,0,3:0:0:0:
192,192,35341,1,0,3:0:0:0:
64,192,35341,1,8,2:0:0:0:
192,192,35508,1,0,3:0:0:0:
320,192,35591,1,0,3:0:0:0:
64,192,35675,1,0,3:0:0:0:
192,192,35758,1,0,3:0:0:0:
448,192,35841,1,0,3:0:0:0:
320,192,35925,1,0,3:0:0:0:
192,192,36008,1,0,3:0:0:0:
64,192,36008,1,8,2:0:0:0:
64,192,36175,1,0,3:0:0:0:
192,192,36258,1,0,3:0:0:0:
320,192,36341,1,0,3:0:0:0:
64,192,36425,1,0,3:0:0:0:
320,192,36508,1,0,3:0:0:0:
192,192,36591,1,0,3:0:0:0:
320,192,36675,1,0,3:0:0:0:
448,192,36675,1,8,2:0:0:0:
192,192,36841,1,0,3:0:0:0:
448,192,36925,1,0,3:0:0:0:
64,192,37008,1,0,3:0:0:0:
320,192,37091,1,0,3:0:0:0:
64,192,37175,1,8,2:0:0:0:
192,192,37175,1,0,3:0:0:0:
448,192,37258,1,0,3:0:0:0:
192,192,37341,1,0,3:0:0:0:
64,192,37341,1,8,2:0:0:0:
320,192,37425,1,0,3:0:0:0:
448,192,37508,1,0,3:0:0:0:
64,192,37591,1,0,3:0:0:0:
192,192,37675,1,0,3:0:0:0:
64,192,37758,1,0,3:0:0:0:
448,192,37841,1,0,3:0:0:0:
320,192,37925,1,0,3:0:0:0:
192,192,38008,1,0,3:0:0:0:
64,192,38008,1,8,2:0:0:0:
320,192,38175,1,0,3:0:0:0:
64,192,38258,1,0,3:0:0:0:
192,192,38341,1,0,3:0:0:0:
448,192,38425,1,0,3:0:0:0:
320,192,38508,1,0,3:0:0:0:
192,192,38591,1,0,3:0:0:0:
320,192,38675,1,0,3:0:0:0:
448,192,38675,1,8,2:0:0:0:
64,192,38841,1,0,3:0:0:0:
192,192,38925,1,0,3:0:0:0:
320,192,39008,1,0,3:0:0:0:
64,192,39091,1,0,3:0:0:0:
448,192,39175,1,0,3:0:0:0:
320,192,39258,1,0,3:0:0:0:
192,192,39341,1,0,3:0:0:0:
64,192,39341,1,8,2:0:0:0:
448,192,39508,1,0,3:0:0:0:
320,192,39591,1,0,3:0:0:0:
64,192,39675,1,0,3:0:0:0:
192,192,39758,1,0,3:0:0:0:
448,192,39841,1,8,2:0:0:0:
320,192,39841,1,0,3:0:0:0:
64,192,39925,1,0,3:0:0:0:
320,192,40008,1,0,3:0:0:0:
448,192,40008,1,8,2:0:0:0:
64,192,40091,1,0,3:0:0:0:
448,192,40175,1,8,2:0:0:0:
320,192,40175,1,0,3:0:0:0:
192,192,40258,1,0,3:0:0:0:
64,192,40341,5,0,3:0:0:0:
448,192,40341,1,8,2:0:0:0:
448,192,40675,1,8,2:0:0:0:
320,192,40675,1,4,3:0:0:0:
64,192,41008,1,8,2:0:0:0:
192,192,41008,1,4,3:0:0:0:
320,192,41175,1,4,3:0:0:0:
448,192,41175,1,8,2:0:0:0:
448,192,41508,1,0,0:0:0:0:
320,192,41508,1,4,3:0:0:0:
64,192,41675,1,2,2:0:0:0:
448,192,41675,1,4,3:0:0:0:
192,192,41841,1,2,2:0:0:0:
320,192,42008,1,0,2:0:0:0:
448,192,42175,1,0,2:0:0:0:
64,192,42341,1,8,2:0:0:0:
192,192,42341,1,0,2:0:0:0:
64,192,42508,1,8,2:0:0:0:
320,192,42508,1,0,2:0:0:0:
448,192,42675,1,4,2:0:0:0:
192,192,42675,1,8,2:0:0:0:
320,192,42841,1,8,2:0:0:0:
448,192,42841,1,4,2:0:0:0:
64,192,43008,128,0,43175:3:0:0:0:
448,192,43008,1,4,2:0:0:0:
320,192,43175,1,2,2:0:0:0:
192,192,43175,1,0,0:0:0:0:
64,192,43341,1,0,0:0:0:0:
448,192,43341,1,2,2:0:0:0:
192,192,43508,128,0,43675:3:0:0:0:
320,192,43675,1,2,2:0:0:0:
192,192,43841,1,2,2:0:0:0:
448,192,44008,128,0,44175:3:0:0:0:
320,192,44175,1,2,2:0:0:0:
64,192,44175,1,0,0:0:0:0:
192,192,44341,1,0,0:0:0:0:
448,192,44341,1,2,2:0:0:0:
320,192,44508,128,0,44675:3:0:0:0:
64,192,44508,1,2,2:0:0:0:
192,192,44675,1,2,2:0:0:0:
448,192,44841,1,0,0:0:0:0:
64,192,44841,1,2,2:0:0:0:
64,192,45008,128,0,45175:3:0:0:0:
320,192,45008,1,2,2:0:0:0:
192,192,45175,1,2,2:0:0:0:
64,192,45341,128,0,45508:3:0:0:0:
192,192,45508,128,0,45675:3:0:0:0:
448,192,45675,1,2,2:0:0:0:
64,192,45841,1,2,2:0:0:0:
192,192,45841,1,0,0:0:0:0:
320,192,46008,128,0,46175:3:0:0:0:
448,192,46008,1,2,2:0:0:0:
192,192,46341,1,2,2:0:0:0:
64,192,46508,128,0,46675:3:0:0:0:
192,192,46675,1,2,2:0:0:0:
448,192,46841,1,2,2:0:0:0:
320,192,46841,1,0,0:0:0:0:
320,192,47008,128,0,47175:3:0:0:0:
64,192,47008,1,2,2:0:0:0:
448,192,47175,1,2,2:0:0:0:
192,192,47175,1,0,0:0:0:0:
192,192,47341,1,0,0:0:0:0:
64,192,47341,1,2,2:0:0:0:
448,192,47508,128,0,47675:3:0:0:0:
320,192,47508,1,2,2:0:0:0:
192,192,47675,128,0,47841:3:0:0:0:
64,192,47675,1,2,2:0:0:0:
448,192,47841,1,2,2:0:0:0:
320,192,48008,128,0,48175:3:0:0:0:
192,192,48175,1,2,2:0:0:0:
320,192,48341,1,2,2:0:0:0:
448,192,48508,128,0,48675:3:0:0:0:
64,192,48508,1,2,2:0:0:0:
192,192,48675,1,2,2:0:0:0:
64,192,48841,128,0,49008:3:0:0:0:
192,192,49008,128,0,49175:3:0:0:0:
320,192,49175,1,2,2:0:0:0:
448,192,49341,1,2,2:0:0:0:
320,192,49508,128,0,49675:3:0:0:0:
64,192,49508,1,2,2:0:0:0:
448,192,49675,1,2,2:0:0:0:
192,192,49675,1,0,0:0:0:0:
64,192,49841,1,0,0:0:0:0:
320,192,49841,1,2,2:0:0:0:
192,192,50008,128,0,50175:3:0:0:0:
448,192,50175,1,0,0:0:0:0:
64,192,50175,1,2,2:0:0:0:
320,192,50341,1,0,0:0:0:0:
192,192,50341,1,2,2:0:0:0:
64,192,50508,128,0,50675:3:0:0:0:
448,192,50675,128,0,50841:3:0:0:0:
192,192,50841,1,2,2:0:0:0:
320,192,51008,128,0,51175:3:0:0:0:
192,192,51175,1,0,0:0:0:0:
448,192,51175,1,2,2:0:0:0:
320,192,51341,1,2,2:0:0:0:
64,192,51341,1,0,0:0:0:0:
448,192,51508,128,0,51675:3:0:0:0:
320,192,51675,1,2,2:0:0:0:
64,192,51841,1,2,2:0:0:0:
192,192,52008,128,0,52175:3:0:0:0:
64,192,52175,1,2,2:0:0:0:
320,192,52175,1,0,0:0:0:0:
448,192,52341,1,0,0:0:0:0:
192,192,52341,1,2,2:0:0:0:
64,192,52508,128,0,52675:3:0:0:0:
320,192,52508,1,2,2:0:0:0:
448,192,52675,1,2,2:0:0:0:
64,192,52841,1,4,3:0:0:0:
192,192,52925,1,4,3:0:0:0:
320,192,53008,1,4,3:0:0:0:
448,192,53091,1,4,3:0:0:0:
64,192,53175,1,8,2:0:0:0:
192,192,53175,1,2,2:0:0:0:
64,192,53341,1,8,2:0:0:0:
320,192,53341,1,2,2:0:0:0:
192,192,53508,1,8,3:0:0:0:
448,192,53508,1,4,0:0:0:0:
320,192,53675,1,8,3:0:0:0:
448,192,53675,1,4,0:0:0:0:
192,192,53841,128,0,54008:3:0:0:0:
64,192,53841,1,2,2:0:0:0:
320,192,54008,1,2,2:0:0:0:
64,192,54175,128,0,54341:3:0:0:0:
320,192,54341,128,0,54508:3:0:0:0:
192,192,54508,1,2,2:0:0:0:
320,192,54675,1,2,2:0:0:0:
192,192,54841,128,0,55008:3:0:0:0:
64,192,54841,1,2,2:0:0:0:
320,192,55008,1,0,0:0:0:0:
448,192,55008,1,2,2:0:0:0:
64,192,55175,1,2,2:0:0:0:
192,192,55175,1,0,0:0:0:0:
320,192,55341,128,0,55508:3:0:0:0:
64,192,55508,1,0,0:0:0:0:
448,192,55508,1,2,2:0:0:0:
192,192,55675,1,0,0:0:0:0:
320,192,55675,1,2,2:0:0:0:
448,192,55841,128,0,56008:3:0:0:0:
64,192,56008,128,0,56175:3:0:0:0:
320,192,56175,1,2,2:0:0:0:
448,192,56341,128,0,56508:3:0:0:0:
64,192,56508,1,2,2:0:0:0:
192,192,56508,1,0,0:0:0:0:
448,192,56675,1,2,2:0:0:0:
320,192,56675,1,0,0:0:0:0:
192,192,56841,128,0,57008:3:0:0:0:
64,192,57008,1,2,2:0:0:0:
192,192,57175,1,2,2:0:0:0:
64,192,57341,128,0,57508:3:0:0:0:
448,192,57508,1,2,2:0:0:0:
192,192,57508,1,0,0:0:0:0:
320,192,57675,1,0,0:0:0:0:
64,192,57675,1,2,2:0:0:0:
192,192,57841,128,0,58008:3:0:0:0:
448,192,57841,1,2,2:0:0:0:
320,192,58008,1,2,2:0:0:0:
320,192,58175,128,0,58341:3:0:0:0:
64,192,58175,1,2,2:0:0:0:
448,192,58341,128,0,58508:3:0:0:0:
192,192,58341,1,2,2:0:0:0:
320,192,58508,1,2,2:0:0:0:
64,192,58675,128,0,58841:3:0:0:0:
192,192,58841,1,2,2:0:0:0:
320,192,59008,1,2,2:0:0:0:
448,192,59175,128,0,59341:3:0:0:0:
64,192,59175,1,2,2:0:0:0:
320,192,59341,1,2,2:0:0:0:
64,192,59508,128,0,59675:3:0:0:0:
320,192,59675,128,0,59841:3:0:0:0:
192,192,59841,1,2,2:0:0:0:
64,192,60008,1,2,2:0:0:0:
192,192,60175,128,0,60341:3:0:0:0:
320,192,60175,1,2,2:0:0:0:
448,192,60341,1,0,0:0:0:0:
64,192,60341,1,2,2:0:0:0:
192,192,60508,1,2,2:0:0:0:
320,192,60508,1,0,0:0:0:0:
448,192,60675,128,0,60841:3:0:0:0:
320,192,60841,1,2,2:0:0:0:
192,192,60841,1,0,0:0:0:0:
64,192,61008,1,2,2:0:0:0:
448,192,61008,1,0,0:0:0:0:
192,192,61175,128,0,61341:3:0:0:0:
320,192,61341,128,0,61508:3:0:0:0:
192,192,61508,128,0,61675:3:0:0:0:
64,192,61508,1,2,2:0:0:0:
448,192,61675,128,0,61841:3:0:0:0:
64,192,61841,1,2,2:0:0:0:
320,192,62175,128,0,62341:3:0:0:0:
64,192,62341,1,2,2:0:0:0:
192,192,62675,128,0,62841:3:0:0:0:
448,192,62841,1,2,2:0:0:0:
64,192,63008,128,0,63175:3:0:0:0:
320,192,63341,128,0,63508:3:0:0:0:
192,192,63508,128,0,63675:3:0:0:0:
320,192,63841,128,0,64008:3:0:0:0:
192,192,64008,128,0,64175:3:0:0:0:
320,192,64175,128,0,64341:3:0:0:0:
64,192,64341,5,2,2:0:0:0:
192,192,64341,128,0,64841:3:0:0:0:
320,192,64508,1,2,2:0:0:0:
448,192,64675,1,2,2:0:0:0:
64,192,64675,1,2,2:0:0:0:
320,192,64841,128,0,65341:3:0:0:0:
448,192,65008,1,2,2:0:0:0:
192,192,65175,1,2,2:0:0:0:
64,192,65175,1,0,0:0:0:0:
448,192,65341,128,0,65841:3:0:0:0:
64,192,65508,1,2,2:0:0:0:
192,192,65675,1,2,2:0:0:0:
64,192,65841,128,0,66341:3:0:0:0:
192,192,66008,1,2,2:0:0:0:
320,192,66175,1,2,2:0:0:0:
192,192,66341,128,0,66675:3:0:0:0:
448,192,66508,1,0,0:0:0:0:
64,192,66508,1,2,2:0:0:0:
320,192,66675,128,0,67008:3:0:0:0:
64,192,66841,1,2,2:0:0:0:
192,192,67008,128,0,67508:3:0:0:0:
320,192,67175,1,2,2:0:0:0:
448,192,67341,1,0,0:0:0:0:
64,192,67341,1,2,2:0:0:0:
320,192,67508,128,0,67675:3:0:0:0:
448,192,67675,128,0,68008:3:0:0:0:
320,192,67841,1,2,2:0:0:0:
192,192,67841,1,0,0:0:0:0:
64,192,68008,128,0,68508:3:0:0:0:
192,192,68175,1,2,2:0:0:0:
320,192,68341,1,2,2:0:0:0:
192,192,68508,128,0,69008:3:0:0:0:
448,192,68675,1,2,2:0:0:0:
320,192,68841,1,2,2:0:0:0:
448,192,69008,128,0,69341:3:0:0:0:
192,192,69175,1,2,2:0:0:0:
64,192,69175,1,0,0:0:0:0:
320,192,69341,128,0,69841:3:0:0:0:
64,192,69508,1,2,2:0:0:0:
192,192,69675,1,2,2:0:0:0:
64,192,69841,128,0,70008:3:0:0:0:
192,192,70008,128,0,70341:3:0:0:0:
448,192,70008,1,2,2:0:0:0:
64,192,70175,1,2,2:0:0:0:
320,192,70341,128,0,70675:3:0:0:0:
192,192,70508,1,0,0:0:0:0:
64,192,70508,1,2,2:0:0:0:
448,192,70675,128,0,70841:3:0:0:0:
192,192,70841,128,0,71175:3:0:0:0:
64,192,71008,1,2,2:0:0:0:
320,192,71175,128,0,71341:3:0:0:0:
64,192,71341,128,0,71508:3:0:0:0:
192,192,71508,128,0,71675:3:0:0:0:
320,192,71675,128,0,72008:3:0:0:0:
192,192,71841,1,0,0:0:0:0:
448,192,71841,1,2,2:0:0:0:
64,192,72008,128,0,72341:3:0:0:0:
320,192,72175,1,2,2:0:0:0:
192,192,72341,128,0,72841:3:0:0:0:
320,192,72508,1,2,2:0:0:0:
64,192,72675,1,0,0:0:0:0:
448,192,72675,1,2,2:0:0:0:
320,192,72841,128,0,73008:3:0:0:0:
448,192,73008,128,0,73341:3:0:0:0:
320,192,73175,1,2,2:0:0:0:
64,192,73175,1,0,0:0:0:0:
192,192,73341,128,0,73508:3:0:0:0:
320,192,73508,128,0,73841:3:0:0:0:
64,192,73675,1,2,2:0:0:0:
192,192,73841,128,0,74008:3:0:0:0:
64,192,74008,128,0,74175:3:0:0:0:
320,192,74175,128,0,74341:3:0:0:0:
192,192,74175,1,2,2:0:0:0:
192,192,74341,1,0,0:0:0:0:
64,192,74341,1,2,2:0:0:0:
192,192,74508,1,2,2:0:0:0:
448,192,74508,1,0,0:0:0:0:
320,192,74675,1,0,0:0:0:0:
64,192,74675,1,2,2:0:0:0:
320,192,74841,1,0,0:0:0:0:
192,192,74841,1,2,2:0:0:0:
320,192,75008,1,2,2:0:0:0:
192,192,75008,128,0,75508:3:0:0:0:
64,192,75008,1,4,0:0:0:0:
448,192,75175,1,2,2:0:0:0:
320,192,75341,1,2,2:0:0:0:
64,192,75341,1,0,0:0:0:0:
448,192,75508,128,0,76008:3:0:0:0:
320,192,75675,1,2,2:0:0:0:
192,192,75841,1,0,0:0:0:0:
64,192,75841,1,2,2:0:0:0:
320,192,76008,128,0,76508:3:0:0:0:
192,192,76175,1,2,2:0:0:0:
448,192,76341,1,2,2:0:0:0:
64,192,76508,128,0,77008:3:0:0:0:
192,192,76675,1,2,2:0:0:0:
320,192,76841,1,2,2:0:0:0:
192,192,77008,128,0,77341:3:0:0:0:
448,192,77175,1,0,0:0:0:0:
64,192,77175,1,2,2:0:0:0:
320,192,77341,128,0,77675:3:0:0:0:
448,192,77508,1,2,2:0:0:0:
64,192,77675,128,0,78175:3:0:0:0:
192,192,77841,1,2,2:0:0:0:
448,192,78008,1,0,0:0:0:0:
320,192,78008,1,2,2:0:0:0:
192,192,78175,128,0,78341:3:0:0:0:
320,192,78341,128,0,78675:3:0:0:0:
64,192,78508,1,2,2:0:0:0:
448,192,78508,1,0,0:0:0:0:
192,192,78675,128,0,79175:3:0:0:0:
448,192,78841,1,2,2:0:0:0:
320,192,79008,1,2,2:0:0:0:
448,192,79175,128,0,79341:3:0:0:0:
64,192,79341,128,0,79508:3:0:0:0:
192,192,79508,128,0,79675:3:0:0:0:
320,192,79675,128,0,79841:3:0:0:0:
448,192,79841,128,0,80008:3:0:0:0:
64,192,79841,1,2,2:0:0:0:
192,192,80008,128,0,80508:3:0:0:0:
64,192,80175,1,2,2:0:0:0:
320,192,80341,1,2,2:0:0:0:
64,192,80508,128,0,80675:3:0:0:0:
320,192,80675,128,0,81008:3:0:0:0:
448,192,80675,1,2,2:0:0:0:
192,192,80675,1,0,0:0:0:0:
192,192,80841,1,2,2:0:0:0:
64,192,81008,128,0,81341:3:0:0:0:
448,192,81175,1,0,0:0:0:0:
320,192,81175,1,2,2:0:0:0:
192,192,81341,128,0,81508:3:0:0:0:
448,192,81508,128,0,82008:3:0:0:0:
320,192,81675,1,2,2:0:0:0:
64,192,81841,1,2,2:0:0:0:
192,192,82008,128,0,82175:3:0:0:0:
320,192,82175,128,0,82341:3:0:0:0:
448,192,82341,128,0,82675:3:0:0:0:
320,192,82508,1,0,0:0:0:0:
192,192,82508,1,2,2:0:0:0:
64,192,82675,128,0,83008:3:0:0:0:
320,192,82841,1,2,2:0:0:0:
192,192,83008,128,0,83341:3:0:0:0:
448,192,83175,1,2,2:0:0:0:
320,192,83341,128,0,83508:3:0:0:0:
64,192,83341,1,2,2:0:0:0:
192,192,83508,128,0,83841:3:0:0:0:
448,192,83675,1,2,2:0:0:0:
64,192,83841,128,0,84008:3:0:0:0:
320,192,83841,1,0,0:0:0:0:
448,192,83841,1,2,2:0:0:0:
192,192,84008,128,0,84175:3:0:0:0:
320,192,84175,128,0,84341:3:0:0:0:
448,192,84341,128,0,85675:3:0:0:0:
64,192,84341,1,2,2:0:0:0:
64,192,84508,5,2,2:0:0:0:
320,192,84675,1,2,2:0:0:0:
320,192,84841,1,2,2:0:0:0:
64,192,85008,1,2,2:0:0:0:
64,192,85175,1,2,2:0:0:0:
320,192,85341,1,2,2:0:0:0:
192,192,85341,1,8,2:0:0:0:
320,192,85508,1,2,2:0:0:0:
64,192,85675,128,2,85841:3:0:0:0:
192,192,85841,128,2,86008:3:0:0:0:
320,192,86008,128,2,86175:3:0:0:0:
192,192,86175,128,2,86341:3:0:0:0:
320,192,86341,128,2,86508:3:0:0:0:
448,192,86508,128,2,86675:3:0:0:0:
64,192,86675,128,2,86841:3:0:0:0:
320,192,86841,128,2,87008:3:0:0:0:
448,192,87008,128,2,87175:3:0:0:0:
192,192,87175,128,2,87341:3:0:0:0:
320,192,87341,128,2,87508:3:0:0:0:
192,192,87508,128,2,87675:3:0:0:0:
64,192,87675,128,2,87841:3:0:0:0:
192,192,87841,128,2,87925:3:0:0:0:
320,192,87925,128,2,88008:3:0:0:0:
448,192,88008,128,2,88175:3:0:0:0:
64,192,88175,128,2,88341:3:0:0:0:
192,192,88341,128,2,88508:3:0:0:0:
320,192,88508,128,2,88675:3:0:0:0:
192,192,88675,128,2,88841:3:0:0:0:
64,192,88841,128,2,89008:3:0:0:0:
192,192,89008,128,2,89175:3:0:0:0:
448,192,89175,128,2,89341:3:0:0:0:
320,192,89341,128,2,89508:3:0:0:0:
192,192,89508,128,2,89675:3:0:0:0:
320,192,89675,128,2,89841:3:0:0:0:
448,192,89841,128,2,90008:3:0:0:0:
192,192,90008,128,2,90175:3:0:0:0:
320,192,90175,128,2,90341:3:0:0:0:
64,192,90341,128,2,90508:3:0:0:0:
192,192,90508,128,2,90675:3:0:0:0:
64,192,90675,128,2,90841:3:0:0:0:
192,192,90841,128,2,90925:3:0:0:0:
320,192,90925,128,2,91008:3:0:0:0:
448,192,91008,128,2,91175:3:0:0:0:
64,192,91175,128,2,91341:3:0:0:0:
320,192,91341,128,2,91508:3:0:0:0:
192,192,91508,128,2,91675:3:0:0:0:
320,192,91675,128,2,91841:3:0:0:0:
448,192,91841,128,2,92008:3:0:0:0:
64,192,92008,128,2,92175:3:0:0:0:
320,192,92175,128,2,92341:3:0:0:0:
448,192,92341,128,2,92425:3:0:0:0:
320,192,92425,128,2,92508:3:0:0:0:
192,192,92508,128,2,92675:3:0:0:0:
320,192,92675,128,2,92841:3:0:0:0:
64,192,92841,128,2,93008:3:0:0:0:
448,192,93008,128,2,93175:3:0:0:0:
320,192,93175,128,2,93341:3:0:0:0:
192,192,93341,128,2,93508:3:0:0:0:
64,192,93508,128,2,93675:3:0:0:0:
448,192,93675,128,2,93841:3:0:0:0:
320,192,93841,128,2,94008:3:0:0:0:
64,192,94008,128,2,94175:3:0:0:0:
320,192,94175,128,2,94341:3:0:0:0:
192,192,94341,128,2,94508:3:0:0:0:
320,192,94508,128,2,94675:3:0:0:0:
448,192,94675,128,2,94841:3:0:0:0:
64,192,94841,128,2,95008:3:0:0:0:
192,192,95008,128,2,95175:3:0:0:0:
320,192,95175,128,2,95341:3:0:0:0:
448,192,95341,128,2,95508:3:0:0:0:
192,192,95508,128,2,95591:3:0:0:0:
320,192,95591,128,2,95675:3:0:0:0:
448,192,95675,128,2,95841:3:0:0:0:
64,192,95841,128,2,96008:3:0:0:0:
192,192,96008,128,2,96175:3:0:0:0:
448,192,96175,128,2,96341:3:0:0:0:
320,192,96341,128,2,96425:3:0:0:0:
192,192,96425,128,2,96508:3:0:0:0:
64,192,96508,128,2,96675:3:0:0:0:
320,192,96675,128,2,96758:3:0:0:0:
192,192,96758,128,2,96841:3:0:0:0:
320,192,96841,128,2,97008:3:0:0:0:
64,192,97008,128,2,97091:3:0:0:0:
448,192,97091,128,2,97175:3:0:0:0:
192,192,97175,128,2,97341:3:0:0:0:
320,192,97341,128,2,97508:3:0:0:0:
64,192,97508,128,2,97675:3:0:0:0:
192,192,97675,128,2,97841:3:0:0:0:
320,192,97841,128,2,98008:3:0:0:0:
448,192,98008,128,2,98175:3:0:0:0:
320,192,98175,128,2,98258:3:0:0:0:
192,192,98258,128,2,98341:3:0:0:0:
448,192,98341,128,2,98508:3:0:0:0:
64,192,98508,128,2,98675:3:0:0:0:
192,192,98675,128,2,98841:3:0:0:0:
320,192,98841,128,2,99008:3:0:0:0:
64,192,99008,128,2,99175:3:0:0:0:
192,192,99175,128,2,99341:3:0:0:0:
448,192,99341,128,2,99508:3:0:0:0:
64,192,99508,128,2,99675:3:0:0:0:
320,192,99675,128,2,99841:3:0:0:0:
448,192,99841,128,2,100008:3:0:0:0:
64,192,100008,128,2,100175:3:0:0:0:
192,192,100175,128,2,100258:3:0:0:0:
320,192,100258,128,2,100341:3:0:0:0:
448,192,100341,128,2,100508:3:0:0:0:
64,192,100508,128,2,100675:3:0:0:0:
192,192,100675,128,2,100841:3:0:0:0:
448,192,100841,128,2,100925:3:0:0:0:
64,192,100925,128,2,101008:3:0:0:0:
320,192,101008,128,2,101175:3:0:0:0:
192,192,101175,128,2,101258:3:0:0:0:
320,192,101258,128,2,101341:3:0:0:0:
448,192,101341,128,2,101508:3:0:0:0:
192,192,101508,128,2,101675:3:0:0:0:
320,192,101675,128,2,101841:3:0:0:0:
64,192,101841,128,2,102008:3:0:0:0:
448,192,102008,128,2,102175:3:0:0:0:
192,192,102175,128,2,102341:3:0:0:0:
320,192,102341,128,2,102508:3:0:0:0:
64,192,102508,128,2,102675:3:0:0:0:
448,192,102675,128,2,102841:3:0:0:0:
192,192,102841,128,2,102925:3:0:0:0:
320,192,102925,128,2,103008:3:0:0:0:
448,192,103008,128,2,103175:3:0:0:0:
64,192,103175,128,2,103341:3:0:0:0:
192,192,103341,128,2,103508:3:0:0:0:
320,192,103508,128,2,103675:3:0:0:0:
192,192,103675,128,2,103841:3:0:0:0:
448,192,103841,128,2,104008:3:0:0:0:
64,192,104008,128,2,104091:3:0:0:0:
192,192,104091,128,2,104175:3:0:0:0:
320,192,104175,128,2,104341:3:0:0:0:
448,192,104341,128,2,104508:3:0:0:0:
64,192,104508,128,2,104675:3:0:0:0:
320,192,104675,128,2,104841:3:0:0:0:
448,192,104841,128,2,105008:3:0:0:0:
320,192,105008,128,2,105175:3:0:0:0:
192,192,105175,128,2,105341:3:0:0:0:
64,192,105341,128,2,105508:3:0:0:0:
192,192,105508,128,2,105591:3:0:0:0:
320,192,105591,128,2,105675:3:0:0:0:
448,192,105675,128,2,105841:3:0:0:0:
192,192,105841,128,2,106008:3:0:0:0:
320,192,106008,128,2,106175:3:0:0:0:
64,192,106175,128,2,106341:3:0:0:0:
192,192,106341,128,2,106508:3:0:0:0:
320,192,106508,128,2,106675:3:0:0:0:
64,192,106675,128,2,106758:3:0:0:0:
448,192,106758,128,2,106841:3:0:0:0:
64,192,106841,128,2,106925:3:0:0:0:
448,192,106925,128,2,107008:3:0:0:0:
64,192,107008,5,4,3:0:0:0:
192,192,107008,1,2,2:0:0:0:
448,192,107175,1,2,2:0:0:0:
320,192,107341,1,10,2:0:0:0:
192,192,107508,1,2,2:0:0:0:
448,192,107591,1,2,2:0:0:0:
192,192,107675,1,2,2:0:0:0:
320,192,107841,1,2,2:0:0:0:
64,192,107925,1,2,2:0:0:0:
320,192,108008,1,10,2:0:0:0:
448,192,108175,1,2,2:0:0:0:
320,192,108341,1,0,0:0:0:0:
192,192,108341,1,2,2:0:0:0:
448,192,108508,1,2,2:0:0:0:
320,192,108675,1,10,2:0:0:0:
192,192,108841,1,2,2:0:0:0:
64,192,108925,1,2,2:0:0:0:
192,192,109008,1,2,2:0:0:0:
320,192,109175,1,2,2:0:0:0:
448,192,109258,1,2,2:0:0:0:
320,192,109341,1,10,2:0:0:0:
192,192,109508,1,2,2:0:0:0:
64,192,109675,1,0,0:0:0:0:
320,192,109675,1,2,2:0:0:0:
448,192,109841,1,2,2:0:0:0:
320,192,110008,1,10,2:0:0:0:
64,192,110175,1,2,2:0:0:0:
448,192,110341,1,2,2:0:0:0:
320,192,110508,1,2,2:0:0:0:
192,192,110591,1,2,2:0:0:0:
320,192,110675,1,10,2:0:0:0:
448,192,110841,1,2,2:0:0:0:
64,192,111008,1,2,2:0:0:0:
192,192,111008,1,0,0:0:0:0:
64,192,111175,1,2,2:0:0:0:
448,192,111341,1,10,2:0:0:0:
64,192,111508,1,2,2:0:0:0:
192,192,111675,1,2,2:0:0:0:
448,192,111841,1,2,2:0:0:0:
64,192,111925,1,2,2:0:0:0:
448,192,112008,128,10,112133:2:0:0:0:
448,192,112175,128,2,112300:2:0:0:0:
64,192,112341,1,2,2:0:0:0:
192,192,112341,1,0,0:0:0:0:
448,192,112425,1,2,2:0:0:0:
64,192,112508,1,2,2:0:0:0:
192,192,112675,1,10,2:0:0:0:
320,192,112841,1,2,2:0:0:0:
64,192,113008,1,2,2:0:0:0:
448,192,113175,1,2,2:0:0:0:
64,192,113258,1,2,2:0:0:0:
448,192,113341,1,10,2:0:0:0:
320,192,113508,1,2,2:0:0:0:
192,192,113675,1,0,0:0:0:0:
64,192,113675,1,2,2:0:0:0:
448,192,113841,1,2,2:0:0:0:
320,192,113925,1,2,2:0:0:0:
192,192,114008,1,10,2:0:0:0:
448,192,114091,1,2,2:0:0:0:
192,192,114175,1,2,2:0:0:0:
64,192,114341,1,2,2:0:0:0:
448,192,114508,1,2,2:0:0:0:
320,192,114675,1,10,2:0:0:0:
64,192,114758,1,2,2:0:0:0:
320,192,114841,1,2,2:0:0:0:
64,192,115008,1,2,2:0:0:0:
192,192,115008,1,0,0:0:0:0:
448,192,115175,1,2,2:0:0:0:
320,192,115341,1,10,2:0:0:0:
64,192,115508,1,2,2:0:0:0:
448,192,115675,1,2,2:0:0:0:
192,192,115841,1,2,2:0:0:0:
64,192,115925,1,2,2:0:0:0:
192,192,116008,1,10,2:0:0:0:
448,192,116175,1,2,2:0:0:0:
320,192,116341,1,2,2:0:0:0:
192,192,116341,1,0,0:0:0:0:
320,192,116508,1,2,2:0:0:0:
192,192,116675,1,10,2:0:0:0:
64,192,116758,1,2,2:0:0:0:
448,192,116841,1,2,2:0:0:0:
320,192,116925,1,2,2:0:0:0:
192,192,117008,1,2,2:0:0:0:
64,192,117091,1,2,2:0:0:0:
448,192,117175,1,2,2:0:0:0:
320,192,117258,1,2,2:0:0:0:
192,192,117341,1,8,2:0:0:0:
64,192,117341,1,2,2:0:0:0:
320,192,117425,1,2,2:0:0:0:
448,192,117508,1,2,2:0:0:0:
64,192,117508,1,2,2:0:0:0:
192,192,117591,1,2,2:0:0:0:
448,192,117675,1,2,2:0:0:0:
320,192,117675,1,0,2:0:0:0:
64,192,117675,128,4,117841:2:0:0:0:
320,192,117841,1,2,2:0:0:0:
448,192,117925,1,2,2:0:0:0:
64,192,118008,1,10,2:0:0:0:
192,192,118091,1,2,2:0:0:0:
320,192,118175,1,2,2:0:0:0:
448,192,118341,1,2,2:0:0:0:
320,192,118508,1,2,2:0:0:0:
192,192,118591,1,2,2:0:0:0:
320,192,118675,1,10,2:0:0:0:
64,192,118841,1,2,2:0:0:0:
448,192,118925,1,2,2:0:0:0:
64,192,119008,1,2,2:0:0:0:
192,192,119008,1,0,0:0:0:0:
448,192,119175,1,2,2:0:0:0:
64,192,119258,1,2,2:0:0:0:
448,192,119425,1,2,2:0:0:0:
64,192,119508,1,2,2:0:0:0:
320,192,119675,1,2,2:0:0:0:
192,192,119841,1,2,2:0:0:0:
448,192,120008,1,10,2:0:0:0:
192,192,120091,1,2,2:0:0:0:
448,192,120175,1,2,2:0:0:0:
320,192,120341,1,2,2:0:0:0:
192,192,120341,1,0,0:0:0:0:
64,192,120508,1,2,2:0:0:0:
192,192,120675,1,10,2:0:0:0:
320,192,120758,1,2,2:0:0:0:
192,192,120841,1,2,2:0:0:0:
448,192,121008,1,2,2:0:0:0:
64,192,121175,1,2,2:0:0:0:
448,192,121258,1,2,2:0:0:0:
64,192,121341,1,10,2:0:0:0:
192,192,121508,1,2,2:0:0:0:
448,192,121675,1,2,2:0:0:0:
320,192,121675,1,0,0:0:0:0:
64,192,121758,1,2,2:0:0:0:
320,192,121841,1,2,2:0:0:0:
320,192,122008,1,10,2:0:0:0:
192,192,122175,1,2,2:0:0:0:
64,192,122341,1,2,2:0:0:0:
320,192,122425,1,2,2:0:0:0:
64,192,122508,1,2,2:0:0:0:
448,192,122675,1,2,2:0:0:0:
320,192,122675,1,8,2:0:0:0:
192,192,122758,1,2,2:0:0:0:
64,192,122841,1,2,2:0:0:0:
448,192,122841,1,2,2:0:0:0:
320,192,122925,1,2,2:0:0:0:
192,192,123008,1,2,2:0:0:0:
64,192,123008,1,0,0:0:0:0:
320,192,123175,1,2,2:0:0:0:
448,192,123341,1,10,2:0:0:0:
192,192,123508,1,2,2:0:0:0:
64,192,123591,1,2,2:0:0:0:
192,192,123675,1,2,2:0:0:0:
320,192,123841,1,2,2:0:0:0:
448,192,124008,1,10,2:0:0:0:
320,192,124175,1,2,2:0:0:0:
448,192,124258,1,2,2:0:0:0:
320,192,124341,1,2,2:0:0:0:
192,192,124341,1,0,0:0:0:0:
64,192,124425,1,2,2:0:0:0:
320,192,124508,1,2,2:0:0:0:
192,192,124591,1,2,2:0:0:0:
320,192,124675,1,10,2:0:0:0:
448,192,124758,1,2,2:0:0:0:
320,192,124841,1,2,2:0:0:0:
192,192,124925,1,2,2:0:0:0:
448,192,125008,1,2,2:0:0:0:
64,192,125091,1,2,2:0:0:0:
192,192,125175,1,2,2:0:0:0:
448,192,125258,1,2,2:0:0:0:
64,192,125341,1,10,2:0:0:0:
192,192,125425,1,2,2:0:0:0:
448,192,125508,1,2,2:0:0:0:
320,192,125591,1,2,2:0:0:0:
64,192,125675,1,2,2:0:0:0:
448,192,125758,1,2,2:0:0:0:
64,192,125841,1,2,2:0:0:0:
320,192,125925,1,2,2:0:0:0:
192,192,126008,1,10,2:0:0:0:
64,192,126091,1,2,2:0:0:0:
448,192,126175,1,2,2:0:0:0:
192,192,126258,1,2,2:0:0:0:
448,192,126341,1,2,2:0:0:0:
320,192,126425,1,2,2:0:0:0:
64,192,126508,1,2,2:0:0:0:
320,192,126591,1,2,2:0:0:0:
64,192,126675,1,10,2:0:0:0:
192,192,126758,1,2,2:0:0:0:
320,192,126841,1,2,2:0:0:0:
448,192,126925,1,2,2:0:0:0:
320,192,127008,1,2,2:0:0:0:
64,192,127091,1,2,2:0:0:0:
448,192,127175,5,2,2:0:0:0:
320,192,127258,1,2,2:0:0:0:
64,192,127341,1,10,2:0:0:0:
448,192,127425,1,2,2:0:0:0:
64,192,127508,1,2,2:0:0:0:
448,192,127591,1,2,2:0:0:0:
192,192,127675,128,2,127758:2:0:0:0:
320,192,127758,128,2,127841:2:0:0:0:
192,192,127841,128,2,127925:2:0:0:0:
320,192,127925,128,2,128008:2:0:0:0:
192,192,128008,128,14,128341:2:0:0:0:
64,192,128341,5,4,0:0:0:0:
448,192,128341,128,2,128508:3:0:0:0:
320,192,128341,1,0,0:0:0:0:
192,192,128508,128,2,128675:3:0:0:0:
448,192,128675,128,2,128841:3:0:0:0:
64,192,128675,1,8,1:0:0:0:
320,192,128841,128,2,129008:3:0:0:0:
64,192,129008,128,2,129175:3:0:0:0:
192,192,129175,128,2,129341:3:0:0:0:
448,192,129341,128,2,129508:3:0:0:0:
64,192,129341,1,8,1:0:0:0:
320,192,129508,128,2,129675:3:0:0:0:
64,192,129675,128,2,129841:3:0:0:0:
448,192,129675,1,4,3:0:0:0:
320,192,129841,128,2,130008:3:0:0:0:
448,192,130008,128,2,130175:3:0:0:0:
192,192,130008,1,8,1:0:0:0:
64,192,130175,128,2,130341:3:0:0:0:
192,192,130341,128,2,130508:3:0:0:0:
320,192,130508,128,2,130675:3:0:0:0:
64,192,130675,128,2,130841:3:0:0:0:
448,192,130675,1,8,1:0:0:0:
192,192,130841,128,2,131008:3:0:0:0:
448,192,131008,128,2,131175:3:0:0:0:
64,192,131008,1,4,3:0:0:0:
320,192,131175,128,2,131341:3:0:0:0:
64,192,131341,128,2,131508:3:0:0:0:
192,192,131341,1,8,1:0:0:0:
320,192,131508,128,2,131675:3:0:0:0:
192,192,131675,128,2,131841:3:0:0:0:
448,192,131841,128,2,132008:3:0:0:0:
64,192,132008,128,2,132175:3:0:0:0:
320,192,132008,1,8,1:0:0:0:
192,192,132175,128,2,132341:3:0:0:0:
320,192,132341,128,2,132508:3:0:0:0:
448,192,132341,1,4,3:0:0:0:
192,192,132508,128,2,132675:3:0:0:0:
320,192,132675,128,2,132841:3:0:0:0:
64,192,132675,1,8,1:0:0:0:
448,192,132841,128,2,133008:3:0:0:0:
64,192,133008,128,2,133175:3:0:0:0:
320,192,133175,128,2,133341:3:0:0:0:
192,192,133341,1,8,2:0:0:0:
64,192,133425,1,8,2:0:0:0:
448,192,133508,1,8,2:0:0:0:
320,192,133591,1,8,2:0:0:0:
192,192,133675,128,2,133841:3:0:0:0:
64,192,133675,1,4,2:0:0:0:
320,192,133841,128,2,134008:3:0:0:0:
448,192,134008,128,2,134175:3:0:0:0:
64,192,134008,1,8,1:0:0:0:
320,192,134175,128,2,134341:3:0:0:0:
192,192,134341,128,2,134508:3:0:0:0:
320,192,134508,128,2,134675:3:0:0:0:
64,192,134675,128,2,134841:3:0:0:0:
448,192,134675,1,8,1:0:0:0:
192,192,134841,128,2,135008:3:0:0:0:
448,192,135008,1,4,3:0:0:0:
320,192,135008,128,2,135175:3:0:0:0:
192,192,135175,128,2,135341:3:0:0:0:
448,192,135341,128,2,135508:3:0:0:0:
320,192,135341,1,8,1:0:0:0:
64,192,135508,128,2,135675:3:0:0:0:
320,192,135675,128,2,135841:3:0:0:0:
448,192,135841,128,2,136008:3:0:0:0:
64,192,136008,128,2,136175:3:0:0:0:
320,192,136008,1,8,1:0:0:0:
192,192,136175,128,2,136341:3:0:0:0:
320,192,136341,128,2,136508:3:0:0:0:
64,192,136341,1,4,3:0:0:0:
192,192,136508,128,2,136675:3:0:0:0:
64,192,136675,128,2,136841:3:0:0:0:
448,192,136675,1,8,1:0:0:0:
192,192,136841,128,2,137008:3:0:0:0:
320,192,137008,128,2,137175:3:0:0:0:
448,192,137175,128,2,137341:3:0:0:0:
192,192,137341,128,2,137508:3:0:0:0:
64,192,137341,1,8,1:0:0:0:
320,192,137508,128,2,137675:3:0:0:0:
192,192,137675,128,2,137841:3:0:0:0:
448,192,137675,1,4,3:0:0:0:
64,192,137841,128,2,138008:3:0:0:0:
320,192,138008,128,2,138175:3:0:0:0:
192,192,138008,1,8,1:0:0:0:
448,192,138175,128,2,138341:3:0:0:0:
320,192,138341,1,2,3:0:0:0:
192,192,138425,1,2,3:0:0:0:
64,192,138508,1,2,3:0:0:0:
448,192,138591,1,2,3:0:0:0:
192,192,138675,1,8,2:0:0:0:
320,192,138758,1,8,2:0:0:0:
448,192,138841,1,8,2:0:0:0:
64,192,138925,1,8,2:0:0:0:
192,192,139008,128,2,139341:3:0:0:0:
320,192,139008,1,4,2:0:0:0:
320,192,139341,1,8,2:0:0:0:
448,192,139341,128,2,139508:3:0:0:0:
192,192,139508,128,2,139675:3:0:0:0:
64,192,139675,128,2,139841:3:0:0:0:
320,192,139841,128,2,140008:3:0:0:0:
64,192,140008,128,2,140175:3:0:0:0:
448,192,140008,1,8,2:0:0:0:
192,192,140175,128,2,140341:3:0:0:0:
320,192,140341,128,2,140508:3:0:0:0:
448,192,140341,1,4,3:0:0:0:
64,192,140508,128,2,140675:3:0:0:0:
448,192,140675,128,2,140841:3:0:0:0:
320,192,140675,1,8,2:0:0:0:
192,192,140841,128,2,141008:3:0:0:0:
320,192,141008,128,2,141175:3:0:0:0:
448,192,141175,128,2,141341:3:0:0:0:
64,192,141341,128,2,141508:3:0:0:0:
320,192,141341,1,8,2:0:0:0:
192,192,141508,128,2,141675:3:0:0:0:
448,192,141675,128,2,141841:3:0:0:0:
320,192,141675,1,4,3:0:0:0:
192,192,141841,128,2,142008:3:0:0:0:
64,192,142008,128,2,142175:3:0:0:0:
448,192,142008,1,8,2:0:0:0:
320,192,142175,128,2,142341:3:0:0:0:
192,192,142341,128,2,142508:3:0:0:0:
448,192,142508,128,2,142675:3:0:0:0:
64,192,142675,128,2,142841:3:0:0:0:
320,192,142675,1,8,2:0:0:0:
192,192,142841,128,2,143008:3:0:0:0:
320,192,143008,128,2,143175:3:0:0:0:
448,192,143008,1,4,3:0:0:0:
64,192,143175,128,2,143341:3:0:0:0:
192,192,143341,128,2,143508:3:0:0:0:
320,192,143341,1,8,2:0:0:0:
448,192,143508,128,2,143675:3:0:0:0:
192,192,143675,128,2,143841:3:0:0:0:
320,192,143841,128,2,144008:3:0:0:0:
448,192,144008,1,8,2:0:0:0:
64,192,144091,1,8,2:0:0:0:
192,192,144175,1,8,2:0:0:0:
320,192,144258,1,8,2:0:0:0:
448,192,144341,128,2,144508:3:0:0:0:
192,192,144341,1,4,2:0:0:0:
64,192,144508,128,2,144675:3:0:0:0:
448,192,144675,128,2,144841:3:0:0:0:
192,192,144675,1,8,2:0:0:0:
320,192,144841,128,2,145008:3:0:0:0:
192,192,145008,128,2,145175:3:0:0:0:
320,192,145175,128,2,145341:3:0:0:0:
64,192,145341,128,2,145508:3:0:0:0:
448,192,145341,1,8,2:0:0:0:
192,192,145508,128,2,145675:3:0:0:0:
320,192,145675,128,2,145841:3:0:0:0:
448,192,145675,1,4,3:0:0:0:
64,192,145841,128,2,146008:3:0:0:0:
448,192,146008,128,2,146175:3:0:0:0:
192,192,146008,1,8,2:0:0:0:
320,192,146175,128,2,146341:3:0:0:0:
192,192,146341,128,2,146508:3:0:0:0:
448,192,146508,128,2,146675:3:0:0:0:
64,192,146675,128,2,146841:3:0:0:0:
320,192,146675,1,8,2:0:0:0:
192,192,146841,128,2,147008:3:0:0:0:
320,192,147008,128,2,147175:3:0:0:0:
448,192,147008,1,4,3:0:0:0:
192,192,147175,128,2,147341:3:0:0:0:
64,192,147341,128,2,147508:3:0:0:0:
448,192,147341,1,8,2:0:0:0:
320,192,147508,128,2,147675:3:0:0:0:
192,192,147675,128,2,147841:3:0:0:0:
448,192,147841,128,2,148008:3:0:0:0:
64,192,148008,128,2,148175:3:0:0:0:
320,192,148008,1,8,2:0:0:0:
192,192,148175,128,2,148341:3:0:0:0:
320,192,148341,128,2,148508:3:0:0:0:
64,192,148341,1,4,3:0:0:0:
192,192,148508,128,2,148675:3:0:0:0:
320,192,148675,128,2,148841:3:0:0:0:
64,192,148675,1,8,2:0:0:0:
448,192,148841,128,2,149008:3:0:0:0:
64,192,149008,128,2,149175:3:0:0:0:
320,192,149008,1,8,2:0:0:0:
192,192,149175,128,2,149341:3:0:0:0:
448,192,149175,1,0,0:0:0:0:
320,192,149341,128,2,149508:3:0:0:0:
64,192,149341,1,0,0:0:0:0:
448,192,149508,128,2,149675:3:0:0:0:
192,192,149508,1,8,2:0:0:0:
64,192,149675,5,4,0:0:0:0:
320,192,149675,128,0,150008:0:0:0:0:
192,192,149675,128,0,149841:3:0:0:0:
64,192,149841,128,0,150008:3:0:0:0:
192,192,150008,128,8,150341:2:0:0:0:
448,192,150175,128,0,150341:3:0:0:0:
320,192,150341,128,0,150675:3:0:0:0:
192,192,150508,128,0,150675:3:0:0:0:
64,192,150675,128,8,151008:2:0:0:0:
320,192,150841,128,0,151008:3:0:0:0:
192,192,151008,128,0,151341:3:0:0:0:
448,192,151008,128,0,151175:0:0:0:0:
320,192,151175,128,0,151341:3:0:0:0:
448,192,151341,128,8,151675:2:0:0:0:
64,192,151508,128,0,151675:3:0:0:0:
192,192,151675,128,0,152008:3:0:0:0:
448,192,151841,128,0,152008:3:0:0:0:
64,192,152008,128,8,152341:2:0:0:0:
320,192,152175,128,0,152341:3:0:0:0:
192,192,152341,128,0,152675:3:0:0:0:
448,192,152341,128,0,152508:0:0:0:0:
64,192,152508,128,0,152675:3:0:0:0:
320,192,152675,128,8,153008:2:0:0:0:
192,192,152841,128,0,153008:3:0:0:0:
448,192,153008,128,0,153341:3:0:0:0:
192,192,153175,128,0,153341:3:0:0:0:
64,192,153341,128,8,153675:2:0:0:0:
320,192,153508,128,0,153675:3:0:0:0:
448,192,153675,128,0,154008:3:0:0:0:
192,192,153675,128,0,153841:0:0:0:0:
64,192,153841,128,0,154008:3:0:0:0:
192,192,154008,128,8,154341:2:0:0:0:
320,192,154175,128,0,154341:3:0:0:0:
448,192,154341,128,0,154675:3:0:0:0:
320,192,154508,128,8,154675:2:0:0:0:
192,192,154675,1,8,2:0:0:0:
64,192,154675,1,0,3:0:0:0:
320,192,154758,1,8,2:0:0:0:
64,192,154841,1,0,3:0:0:0:
448,192,154841,1,8,2:0:0:0:
320,192,154925,1,8,2:0:0:0:
192,192,155008,128,0,155341:3:0:0:0:
64,192,155008,128,4,155175:1:0:0:0:
320,192,155175,128,0,155341:3:0:0:0:
448,192,155341,128,8,155675:2:0:0:0:
192,192,155508,128,0,155675:3:0:0:0:
64,192,155675,128,0,156008:3:0:0:0:
320,192,155841,128,0,156008:3:0:0:0:
192,192,156008,128,8,156341:2:0:0:0:
320,192,156175,128,0,156341:3:0:0:0:
448,192,156341,128,0,156675:3:0:0:0:
64,192,156341,128,0,156508:0:0:0:0:
320,192,156508,128,0,156675:3:0:0:0:
192,192,156675,128,8,157008:2:0:0:0:
320,192,156841,128,0,157008:3:0:0:0:
64,192,157008,128,0,157341:3:0:0:0:
320,192,157175,128,8,157341:2:0:0:0:
448,192,157341,128,0,157675:3:0:0:0:
64,192,157508,128,0,157675:3:0:0:0:
320,192,157675,128,0,158008:3:0:0:0:
192,192,157675,128,0,157841:0:0:0:0:
64,192,157841,128,0,158008:3:0:0:0:
448,192,158008,128,8,158341:2:0:0:0:
320,192,158175,128,0,158341:3:0:0:0:
64,192,158341,128,0,158675:3:0:0:0:
320,192,158508,128,0,158675:3:0:0:0:
448,192,158675,128,8,159008:2:0:0:0:
64,192,158841,128,0,159008:3:0:0:0:
320,192,159008,128,0,159341:3:0:0:0:
192,192,159008,128,0,159175:0:0:0:0:
448,192,159175,128,0,159341:3:0:0:0:
64,192,159341,128,8,159675:2:0:0:0:
320,192,159508,128,0,159675:3:0:0:0:
192,192,159675,128,0,160008:3:0:0:0:
64,192,159841,128,0,160008:3:0:0:0:
448,192,160008,1,0,3:0:0:0:
320,192,160008,1,8,2:0:0:0:
192,192,160091,1,8,2:0:0:0:
448,192,160175,1,0,3:0:0:0:
64,192,160175,1,8,2:0:0:0:
192,192,160258,1,8,2:0:0:0:
320,192,160341,128,4,160508:1:0:0:0:
448,192,160341,128,0,160675:3:0:0:0:
64,192,160508,128,0,160675:3:0:0:0:
192,192,160675,128,8,161008:2:0:0:0:
320,192,160841,128,0,161008:3:0:0:0:
448,192,161008,128,0,161341:3:0:0:0:
192,192,161175,128,0,161341:3:0:0:0:
320,192,161341,128,8,161675:2:0:0:0:
64,192,161508,128,0,161675:3:0:0:0:
192,192,161675,128,0,162008:3:0:0:0:
448,192,161675,128,0,161841:0:0:0:0:
64,192,161841,128,0,162008:3:0:0:0:
320,192,162008,128,8,162341:2:0:0:0:
448,192,162175,128,0,162341:3:0:0:0:
64,192,162341,128,0,162675:3:0:0:0:
448,192,162508,128,0,162675:3:0:0:0:
192,192,162675,128,8,163008:2:0:0:0:
448,192,162841,128,0,163008:3:0:0:0:
64,192,163008,128,0,163341:3:0:0:0:
320,192,163008,128,0,163175:0:0:0:0:
192,192,163175,128,0,163341:3:0:0:0:
320,192,163341,128,8,163675:2:0:0:0:
448,192,163508,128,0,163675:3:0:0:0:
64,192,163675,128,0,164008:3:0:0:0:
320,192,163841,128,0,164008:3:0:0:0:
192,192,164008,128,8,164341:2:0:0:0:
320,192,164175,128,0,164341:3:0:0:0:
448,192,164341,128,0,164675:3:0:0:0:
64,192,164341,128,0,164508:0:0:0:0:
320,192,164508,128,0,164675:3:0:0:0:
64,192,164675,128,8,165008:2:0:0:0:
320,192,164841,128,0,165008:3:0:0:0:
448,192,165008,128,0,165341:3:0:0:0:
320,192,165175,128,8,165341:2:0:0:0:
64,192,165341,1,0,3:0:0:0:
192,192,165341,1,8,2:0:0:0:
320,192,165425,1,8,2:0:0:0:
448,192,165508,1,8,2:0:0:0:
192,192,165508,1,0,3:0:0:0:
320,192,165591,1,8,2:0:0:0:
192,192,165675,128,0,166008:3:0:0:0:
64,192,165675,128,4,165841:1:0:0:0:
448,192,165841,128,0,166008:3:0:0:0:
320,192,166008,128,8,166341:2:0:0:0:
64,192,166175,128,0,166341:3:0:0:0:
192,192,166341,128,0,166675:3:0:0:0:
320,192,166508,128,0,166675:3:0:0:0:
448,192,166675,128,8,167008:2:0:0:0:
192,192,166841,128,0,167008:3:0:0:0:
320,192,167008,128,0,167341:3:0:0:0:
64,192,167008,128,0,167175:0:0:0:0:
192,192,167175,128,0,167341:3:0:0:0:
64,192,167341,128,8,167675:2:0:0:0:
448,192,167508,128,0,167675:3:0:0:0:
192,192,167675,128,0,168008:3:0:0:0:
448,192,167841,128,0,168008:3:0:0:0:
64,192,168008,128,8,168341:2:0:0:0:
192,192,168175,128,0,168341:3:0:0:0:
320,192,168341,128,0,168508:0:0:0:0:
448,192,168341,128,0,168675:3:0:0:0:
192,192,168508,128,0,168675:3:0:0:0:
64,192,168675,128,8,169008:2:0:0:0:
320,192,168841,128,0,169008:3:0:0:0:
192,192,169008,128,0,169341:3:0:0:0:
448,192,169175,128,0,169341:3:0:0:0:
64,192,169341,128,8,169675:2:0:0:0:
192,192,169508,128,0,169675:3:0:0:0:
320,192,169675,128,0,169841:0:0:0:0:
448,192,169675,128,0,170008:3:0:0:0:
64,192,169841,128,0,170008:3:0:0:0:
192,192,170008,128,8,170341:2:0:0:0:
320,192,170175,128,0,170341:3:0:0:0:
448,192,170341,128,0,170675:3:0:0:0:
320,192,170508,128,4,170675:3:0:0:0:
64,192,170675,128,0,170758:3:0:0:0:
192,192,170675,128,8,170758:2:0:0:0:
448,192,170758,128,8,170841:2:0:0:0:
64,192,170841,128,0,170925:3:0:0:0:
192,192,170841,128,8,170925:2:0:0:0:
320,192,170925,128,8,171008:2:0:0:0:
64,192,171008,5,2,2:0:0:0:
192,192,171008,1,4,1:0:0:0:
320,192,171091,1,2,2:0:0:0:
64,192,171175,1,2,2:0:0:0:
448,192,171341,1,8,2:0:0:0:
320,192,171341,1,2,2:0:0:0:
192,192,171508,1,2,2:0:0:0:
64,192,171675,1,2,2:0:0:0:
192,192,171841,1,2,2:0:0:0:
448,192,172008,1,8,2:0:0:0:
320,192,172008,1,2,2:0:0:0:
192,192,172175,1,2,2:0:0:0:
64,192,172258,1,2,2:0:0:0:
192,192,172341,1,2,2:0:0:0:
320,192,172508,1,2,2:0:0:0:
448,192,172675,1,8,2:0:0:0:
64,192,172675,1,2,2:0:0:0:
320,192,172841,1,2,2:0:0:0:
192,192,173008,1,2,2:0:0:0:
448,192,173175,1,2,2:0:0:0:
320,192,173341,1,8,2:0:0:0:
192,192,173341,1,2,2:0:0:0:
448,192,173508,1,2,2:0:0:0:
64,192,173675,1,2,2:0:0:0:
448,192,173841,1,2,2:0:0:0:
192,192,174008,1,8,2:0:0:0:
320,192,174008,1,2,2:0:0:0:
64,192,174175,1,2,2:0:0:0:
448,192,174258,1,2,2:0:0:0:
64,192,174341,1,2,2:0:0:0:
320,192,174508,1,2,2:0:0:0:
192,192,174591,1,2,2:0:0:0:
320,192,174675,1,2,2:0:0:0:
448,192,174675,1,8,2:0:0:0:
192,192,174841,1,2,2:0:0:0:
64,192,175008,1,2,2:0:0:0:
448,192,175175,1,2,2:0:0:0:
320,192,175341,1,8,2:0:0:0:
64,192,175341,1,2,2:0:0:0:
192,192,175508,1,2,2:0:0:0:
448,192,175591,1,2,2:0:0:0:
192,192,175675,1,2,2:0:0:0:
320,192,175841,1,2,2:0:0:0:
448,192,176008,1,8,2:0:0:0:
64,192,176008,1,2,2:0:0:0:
320,192,176091,1,2,2:0:0:0:
192,192,176175,1,2,2:0:0:0:
64,192,176258,1,2,2:0:0:0:
448,192,176341,1,0,0:0:0:0:
320,192,176341,1,2,2:0:0:0:
320,192,176508,1,2,2:0:0:0:
448,192,176508,1,0,0:0:0:0:
192,192,176675,1,8,2:0:0:0:
64,192,176675,1,2,2:0:0:0:
320,192,176841,1,2,2:0:0:0:
448,192,176925,1,2,2:0:0:0:
320,192,177008,1,2,2:0:0:0:
192,192,177175,1,2,2:0:0:0:
64,192,177258,1,2,2:0:0:0:
192,192,177341,1,2,2:0:0:0:
448,192,177341,1,8,2:0:0:0:
320,192,177508,1,2,2:0:0:0:
192,192,177675,1,2,2:0:0:0:
320,192,177841,1,2,2:0:0:0:
64,192,177925,1,2,2:0:0:0:
320,192,178008,1,2,2:0:0:0:
448,192,178008,1,8,2:0:0:0:
192,192,178175,1,2,2:0:0:0:
448,192,178341,1,2,2:0:0:0:
64,192,178508,1,2,2:0:0:0:
448,192,178591,1,2,2:0:0:0:
64,192,178758,1,2,2:0:0:0:
448,192,178841,1,2,2:0:0:0:
320,192,179008,1,2,2:0:0:0:
192,192,179091,1,2,2:0:0:0:
320,192,179175,1,2,2:0:0:0:
448,192,179341,1,8,2:0:0:0:
64,192,179341,1,2,2:0:0:0:
192,192,179508,1,2,2:0:0:0:
320,192,179591,1,2,2:0:0:0:
192,192,179675,1,2,2:0:0:0:
448,192,179841,1,2,2:0:0:0:
64,192,179925,1,2,2:0:0:0:
448,192,180008,1,8,2:0:0:0:
192,192,180008,1,2,2:0:0:0:
320,192,180175,1,2,2:0:0:0:
192,192,180341,1,2,2:0:0:0:
64,192,180508,1,2,2:0:0:0:
448,192,180675,1,8,2:0:0:0:
320,192,180675,1,2,2:0:0:0:
192,192,180841,1,2,2:0:0:0:
64,192,181008,1,2,2:0:0:0:
320,192,181091,1,2,2:0:0:0:
64,192,181175,1,2,2:0:0:0:
320,192,181258,1,2,2:0:0:0:
192,192,181341,128,8,181425:2:0:0:0:
448,192,181425,128,2,181508:2:0:0:0:
192,192,181508,128,2,181591:2:0:0:0:
448,192,181591,128,2,181675:2:0:0:0:
192,192,181675,1,2,2:0:0:0:
64,192,181675,1,4,2:0:0:0:
320,192,181841,1,2,2:0:0:0:
448,192,182008,1,8,2:0:0:0:
320,192,182008,1,2,2:0:0:0:
64,192,182175,1,2,2:0:0:0:
448,192,182341,1,2,2:0:0:0:
64,192,182508,1,2,2:0:0:0:
448,192,182675,1,8,2:0:0:0:
320,192,182675,1,2,2:0:0:0:
192,192,182841,1,2,2:0:0:0:
64,192,182925,1,2,2:0:0:0:
192,192,183008,1,2,2:0:0:0:
320,192,183175,1,2,2:0:0:0:
448,192,183341,1,8,2:0:0:0:
64,192,183341,1,2,2:0:0:0:
192,192,183508,1,2,2:0:0:0:
320,192,183675,1,2,2:0:0:0:
448,192,183841,1,2,2:0:0:0:
320,192,184008,1,8,2:0:0:0:
64,192,184008,1,2,2:0:0:0:
192,192,184175,1,2,2:0:0:0:
64,192,184341,1,2,2:0:0:0:
192,192,184508,1,2,2:0:0:0:
448,192,184675,1,8,2:0:0:0:
320,192,184675,1,2,2:0:0:0:
64,192,184758,1,2,2:0:0:0:
448,192,184841,1,2,2:0:0:0:
320,192,185008,1,2,2:0:0:0:
192,192,185175,1,2,2:0:0:0:
64,192,185258,1,2,2:0:0:0:
192,192,185341,1,2,2:0:0:0:
320,192,185341,1,8,2:0:0:0:
448,192,185508,1,2,2:0:0:0:
64,192,185675,1,2,2:0:0:0:
320,192,185841,1,2,2:0:0:0:
192,192,185925,1,2,2:0:0:0:
320,192,186008,1,8,2:0:0:0:
64,192,186008,1,2,2:0:0:0:
448,192,186175,1,2,2:0:0:0:
64,192,186341,1,2,2:0:0:0:
448,192,186425,1,2,2:0:0:0:
64,192,186508,1,2,2:0:0:0:
448,192,186675,1,8,2:0:0:0:
320,192,186675,1,2,2:0:0:0:
192,192,186758,1,2,2:0:0:0:
64,192,186841,1,2,2:0:0:0:
448,192,186925,1,2,2:0:0:0:
320,192,187008,1,2,2:0:0:0:
192,192,187008,1,0,0:0:0:0:
192,192,187175,1,0,0:0:0:0:
320,192,187175,1,2,2:0:0:0:
64,192,187341,1,2,2:0:0:0:
448,192,187341,1,8,2:0:0:0:
192,192,187508,1,2,2:0:0:0:
448,192,187591,1,2,2:0:0:0:
192,192,187675,1,2,2:0:0:0:
320,192,187841,1,2,2:0:0:0:
192,192,188008,1,8,2:0:0:0:
64,192,188008,1,2,2:0:0:0:
320,192,188175,1,2,2:0:0:0:
64,192,188258,1,2,2:0:0:0:
320,192,188341,1,2,2:0:0:0:
64,192,188508,1,2,2:0:0:0:
320,192,188591,1,2,2:0:0:0:
448,192,188675,1,8,2:0:0:0:
64,192,188675,1,2,2:0:0:0:
192,192,188841,1,2,2:0:0:0:
320,192,189008,1,2,2:0:0:0:
192,192,189175,1,2,2:0:0:0:
320,192,189258,1,2,2:0:0:0:
192,192,189425,1,2,2:0:0:0:
320,192,189508,1,2,2:0:0:0:
448,192,189675,1,2,2:0:0:0:
320,192,189758,1,2,2:0:0:0:
448,192,189841,1,2,2:0:0:0:
320,192,190008,1,8,2:0:0:0:
192,192,190008,1,2,2:0:0:0:
448,192,190175,1,2,2:0:0:0:
64,192,190341,1,2,2:0:0:0:
192,192,190425,1,2,2:0:0:0:
64,192,190508,1,2,2:0:0:0:
320,192,190675,1,8,2:0:0:0:
192,192,190675,1,2,2:0:0:0:
64,192,190841,1,2,2:0:0:0:
448,192,190925,1,2,2:0:0:0:
64,192,191008,1,2,2:0:0:0:
192,192,191175,5,2,2:0:0:0:
320,192,191341,1,2,2:0:0:0:
448,192,191341,1,8,2:0:0:0:
192,192,191425,1,2,2:0:0:0:
448,192,191508,1,2,2:0:0:0:
64,192,191675,1,2,2:0:0:0:
192,192,191841,1,2,2:0:0:0:
320,192,191925,1,2,2:0:0:0:
192,192,192008,1,8,2:0:0:0:
64,192,192008,1,2,2:0:0:0:
448,192,192175,1,8,0:0:0:0:
320,192,192175,1,2,2:0:0:0:
192,192,192341,5,2,2:0:0:0:
64,192,192341,1,4,1:0:0:0:
