osu file format v14

[General]
AudioFilename: 06 perthed again (yambabom remix).mp3
AudioLeadIn: 0
PreviewTime: 106966
Countdown: 1
SampleSet: Normal
StackLeniency: 0.7
Mode: 0
LetterboxInBreaks: 0
WidescreenStoryboard: 0

[Editor]
Bookmarks: 10841,12341,23841,26508,41508,112008,115841
DistanceSpacing: 1.3
BeatDivisor: 4
GridSize: 16
TimelineZoom: 2.699999

[Metadata]
Title:perthed again (yambabom remix)
TitleUnicode:perthed again (yambabom remix)
Artist:Hitori Tori
ArtistUnicode:Hitori Tori
Creator:Flyville
Version:Insane
Source:
Tags:
BeatmapID:871992
BeatmapSetID:400790

[Difficulty]
HPDrainRate:7
CircleSize:4
OverallDifficulty:8
ApproachRate:9
SliderMultiplier:1.8
SliderTickRate:1

[Events]
//Background and Video events
0,0,"Perthed Again BG.jpg",0,0
//Break Periods
2,85875,95741
//Storyboard Layer 0 (Background)
//Storyboard Layer 1 (Fail)
//Storyboard Layer 2 (Pass)
//Storyboard Layer 3 (Foreground)
//Storyboard Sound Samples

[TimingPoints]
342,333.333333333333,4,1,0,80,1,0
52925,-100,4,1,0,20,0,0
53008,-100,4,1,0,80,0,0
53091,-100,4,1,0,20,0,0
53175,-100,4,1,0,80,0,0
53258,-100,4,1,0,20,0,0
53341,-100,4,1,0,80,0,0
53425,-100,4,1,0,20,0,0
53508,-100,4,1,0,80,0,0
74258,-100,4,1,0,20,0,0
74341,-100,4,1,0,80,0,0
74425,-100,4,1,0,20,0,0
74508,-100,4,1,0,80,0,0
74591,-100,4,1,0,20,0,0
74675,-100,4,1,0,80,0,0
74758,-100,4,1,0,20,0,0
74841,-100,4,1,0,80,0,0
101675,-125,4,1,0,60,0,0
104341,-125,4,1,0,80,0,0
106675,-100,4,1,0,80,0,0
117675,-90.9090909090909,4,1,0,80,0,0
118008,-100,4,1,0,80,0,0
119008,-80,4,1,0,80,0,0
119258,-80,4,1,0,80,0,0
119508,-80,4,1,0,80,0,0
120341,-100,4,1,0,80,0,0
128008,-125,4,1,0,80,0,0
128341,-100,4,1,0,80,0,1
146341,-80,4,1,0,80,0,1
146591,-80,4,1,0,80,0,1
146841,-80,4,1,0,80,0,1
148008,-100,4,1,0,80,0,1
149591,-90.9090909090909,4,1,0,80,0,0
149675,-83.3333333333333,4,1,0,80,0,1
171008,-100,4,1,0,80,0,0

[Colours]
Combo1 : 250,110,4
Combo2 : 200,0,0

[HitObjects]
340,256,342,5,0,0:0:0:0:
263,188,508,2,0,P|215:96|260:16,1,180,2|0,0:2|0:0,0:0:0:0:
319,100,1008,2,0,P|367:192|322:272,1,180,2|0,0:2|0:0,0:0:0:0:
178,275,1508,5,8,0:2:0:0:
104,200,1675,2,0,B|60:118|60:118|102:10,1,180,2|0,0:2|0:0,0:0:0:0:
168,112,2175,2,0,B|211:193|211:193|169:301,1,180,2|0,0:2|0:0,0:0:0:0:
288,288,2675,5,8,0:2:0:0:
331,179,2841,1,8,0:2:0:0:
376,68,3008,5,8,0:2:0:0:
424,194,3175,2,0,P|384:294|323:272,1,180,2|0,0:2|0:0,0:0:0:0:
199,284,3675,2,0,P|98:244|120:183,1,180,2|0,0:2|0:0,0:0:0:0:
199,29,4175,5,8,0:2:0:0:
250,144,4341,2,0,P|298:226|367:289,1,180,2|0,0:2|0:0,0:0:0:0:
459,350,4841,2,0,P|471:261|459:173,1,180,2|0,0:2|0:0,0:0:0:0:
360,284,5341,5,8,0:2:0:0:
360,168,5508,1,8,0:2:0:0:
360,52,5675,5,8,0:2:0:0:
228,84,5841,2,0,B|160:84|160:84|120:104|120:104|52:104,1,180,2|0,0:2|0:0,0:0:0:0:
52,232,6341,2,0,B|120:232|120:232|160:212|160:212|228:212,1,180,2|0,0:2|0:0,0:0:0:0:
416,212,6841,5,8,0:2:0:0:
296,256,7008,2,0,B|320:212|296:168|296:168|272:124|296:80,1,180,2|0,0:2|0:0,0:0:0:0:
160,80,7508,2,0,B|184:124|160:168|160:168|136:212|160:256,1,180,2|0,0:2|0:0,0:0:0:0:
296,332,8008,5,8,0:2:0:0:
296,188,8175,1,8,0:2:0:0:
296,332,8341,5,8,0:2:0:0:
400,248,8508,2,0,P|424:160|400:72,1,180,2|0,0:2|0:0,0:0:0:0:
296,188,9008,2,0,P|207:212|120:188,1,180,2|0,0:2|0:0,0:0:0:0:
208,96,9508,1,0,0:0:0:0:
126,271,9675,6,0,B|107:311|107:311|131:363,1,90,2|0,0:2|0:0,0:0:0:0:
213,311,10008,1,8,0:2:0:0:
293,138,10175,2,0,B|312:96|312:96|293:56,1,90,2|0,0:2|0:0,0:0:0:0:
208,96,10508,1,8,0:2:0:0:
304,260,10675,2,0,L|340:321,3,45,8|0|0|0,0:2|0:0|0:0|0:0,0:0:0:0:
365,275,11008,6,0,B|390:188,1,90
304,32,11341,2,0,B|278:118,1,90,8|0,0:0|0:0,0:0:0:0:
214,223,11675,2,0,P|157:140|171:57,1,180,2|8,0:0|0:0,0:0:0:0:
304,32,12175,1,0,0:0:0:0:
435,125,12341,6,0,B|472:156|472:156|480:204,1,90
401,53,12675,2,0,B|363:84|363:84|355:132,1,90,8|0,0:0|0:0,0:0:0:0:
334,258,13008,1,0,0:0:0:0:
334,258,13175,1,2,0:2:0:0:
281,153,13341,1,8,0:0:0:0:
225,51,13509,1,2,0:2:0:0:
106,91,13675,5,0,0:0:0:0:
2,163,13841,2,0,P|90:215|178:195,1,180,2|0,0:0|0:0,0:0:0:0:
106,91,14341,2,0,P|208:86|276:145,1,180,2|8,0:0|0:0,0:0:0:0:
316,276,14841,1,8,0:0:0:0:
408,176,15008,6,0,L|472:104,1,90
440,259,15341,2,0,L|404:167,1,90,8|0,0:0|0:0,0:0:0:0:
356,42,15675,1,0,0:0:0:0:
356,42,15841,1,2,0:2:0:0:
272,123,16008,1,8,0:0:0:0:
190,206,16175,1,2,0:2:0:0:
148,88,16341,5,0,0:0:0:0:
56,144,16508,2,0,B|56:212|56:212|76:252|76:252|76:320,1,180,2|0,0:0|0:0,0:0:0:0:
190,206,17008,2,0,B|282:186|282:186|366:206,1,180,2|8,0:0|0:0,0:0:0:0:
316,328,17508,1,0,0:0:0:0:
176,300,17675,6,0,P|124:272|108:236,1,90
108,96,18008,2,0,P|160:124|176:160,1,90,8|0,0:0|0:0,0:0:0:0:
249,271,18341,1,0,0:0:0:0:
249,271,18508,1,2,0:2:0:0:
344,203,18675,1,8,0:0:0:0:
441,136,18841,1,2,0:2:0:0:
445,268,19008,5,0,0:0:0:0:
360,328,19175,2,0,B|268:308|268:308|228:232,1,180,2|0,0:0|0:0,0:0:0:0:
168,80,19675,2,0,B|260:100|260:100|300:176,1,180,2|8,0:0|0:0,0:0:0:0:
424,328,20175,5,0,0:0:0:0:
427,305,20258,1,0,0:0:0:0:
430,282,20341,2,0,L|455:88,1,180,2|0,0:2|0:0,0:0:0:0:
240,136,20841,2,0,L|265:330,1,180,2|0,0:2|0:0,0:0:0:0:
94,254,21341,1,8,0:2:0:0:
288,224,21675,2,0,P|354:168|336:72,1,180,4|0,0:0|0:0,0:0:0:0:
184,116,22175,5,0,0:0:0:0:
172,120,22258,1,0,0:0:0:0:
160,124,22341,2,0,L|64:148,1,90
40,308,22675,2,0,L|136:284,1,90,8|0,0:0|0:0,0:0:0:0:
288,252,23008,6,0,P|301:303|287:350,1,90
199,300,23341,1,8,0:0:0:0:
344,292,23508,2,0,P|389:286|429:249,1,90
470,141,23841,1,2,0:2:0:0:
357,212,24008,1,8,0:0:0:0:
464,320,24175,1,2,0:2:0:0:
329,329,24341,5,0,0:0:0:0:
226,255,24508,2,0,P|193:214|181:161,1,90,0|8,0:0|0:0,0:0:0:0:
232,64,24841,1,0,0:0:0:0:
232,64,24925,1,0,0:0:0:0:
232,64,25008,2,0,L|296:132,1,90
407,245,25341,2,0,L|339:309,1,90,8|0,0:0|0:0,0:0:0:0:
178,306,25675,6,0,P|122:298|86:275,1,90
168,180,26008,1,8,0:0:0:0:
103,71,26175,2,0,P|158:53|206:60,1,90
320,86,26508,1,2,0:2:0:0:
393,152,26675,1,8,0:0:0:0:
407,245,26841,1,2,0:2:0:0:
284,305,27008,5,0,0:0:0:0:
169,190,27175,2,0,L|98:121,1,90,0|8,0:0|0:0,0:0:0:0:
180,284,27508,1,0,0:0:0:0:
192,280,27591,1,0,0:0:0:0:
204,276,27675,2,0,P|260:176|228:120,1,180,0|8,0:0|0:0,0:0:0:0:
312,268,28175,1,0,0:0:0:0:
392,136,28341,6,0,L|448:40,1,90
440,52,28675,1,8,0:0:0:0:
286,125,28841,2,0,L|342:29,1,90
206,32,29175,1,2,0:2:0:0:
116,72,29341,1,8,0:0:0:0:
192,135,29508,1,2,0:2:0:0:
124,236,29675,5,0,0:0:0:0:
40,132,29841,2,0,P|20:76|36:20,1,90,0|8,0:0|0:0,0:0:0:0:
16,212,30175,2,0,P|72:208|120:156,1,90
116,72,30508,1,0,0:0:0:0:
252,64,30675,1,8,0:0:0:0:
216,204,30841,1,0,0:0:0:0:
400,296,31008,6,0,B|446:310|446:310|492:289,1,90
440,204,31341,1,8,0:2:0:0:
216,204,31508,2,0,B|167:203|167:203|130:170,1,90
212,112,31841,1,0,0:0:0:0:
220,300,32008,2,0,B|219:348|219:348|186:385,1,90,8|0,0:2|0:0,0:0:0:0:
104,192,32341,6,0,P|169:138|239:186,1,180,2|8,0:2|0:0,0:0:0:0:
172,208,32841,1,0,0:0:0:0:
172,180,32925,1,0,0:0:0:0:
172,152,33008,1,0,0:0:0:0:
288,52,33175,2,0,B|328:88|328:88|348:132,1,90,0|8,0:0|0:0,0:0:0:0:
340,260,33508,1,0,0:0:0:0:
231,344,33675,5,2,0:2:0:0:
161,304,33841,1,2,0:2:0:0:
231,265,34008,1,8,0:0:0:0:
161,225,34175,1,2,0:2:0:0:
231,185,34341,1,2,0:2:0:0:
306,289,34508,1,8,0:0:0:0:
306,153,34675,1,8,0:0:0:0:
306,289,34841,1,0,0:2:0:0:
382,221,35008,5,0,0:0:0:0:
381,344,35175,2,0,B|429:352|471:332|471:332|491:290|482:242,1,180
401,133,35675,2,0,L|381:225,1,90
256,205,36008,2,0,L|236:113,1,90,8|0,0:0|0:0,0:0:0:0:
141,30,36341,5,2,0:2:0:0:
62,30,36508,1,2,0:2:0:0:
103,99,36675,1,8,0:0:0:0:
24,99,36841,1,2,0:2:0:0:
62,167,37008,1,2,0:2:0:0:
160,240,37175,1,8,0:0:0:0:
60,244,37341,1,8,0:0:0:0:
200,164,37508,1,0,0:0:0:0:
292,260,37675,5,0,0:0:0:0:
360,144,37841,2,0,B|385:102|385:102|420:78,1,90,0|8,0:0|0:0,0:0:0:0:
412,236,38175,1,0,0:0:0:0:
280,148,38341,2,0,B|239:120|239:120|216:85,1,90
176,212,38675,1,8,0:0:0:0:
228,336,38841,1,0,0:0:0:0:
368,236,39008,5,2,0:2:0:0:
440,236,39175,1,2,0:2:0:0:
368,156,39341,1,8,0:0:0:0:
296,156,39508,1,2,0:2:0:0:
368,84,39675,1,2,0:2:0:0:
440,84,39841,1,8,0:0:0:0:
296,84,40008,1,8,0:0:0:0:
440,156,40175,1,8,0:0:0:0:
296,236,40341,5,0,0:0:0:0:
72,56,40675,1,8,0:0:0:0:
76,324,41008,5,0,0:0:0:0:
76,324,41175,1,8,0:0:0:0:
436,324,41508,1,0,0:0:0:0:
436,324,41675,5,0,0:0:0:0:
312,324,41841,1,0,0:0:0:0:
184,324,42008,5,8,0:2:0:0:
264,228,42175,1,0,0:0:0:0:
344,131,42341,1,2,0:2:0:0:
344,228,42508,5,8,0:2:0:0:
260,132,42675,1,8,0:2:0:0:
176,37,42841,1,8,0:2:0:0:
80,168,43008,6,0,P|48:244|84:340,1,180,2|8,0:2|0:2,0:0:0:0:
172,252,43508,2,0,P|204:176|168:80,1,180,2|0,0:2|0:0,0:0:0:0:
124,160,44008,2,0,P|212:168|264:84,1,180,10|0,0:2|0:0,0:0:0:0:
388,60,44508,5,2,0:2:0:0:
352,180,44675,1,8,0:2:0:0:
440,136,44841,1,0,0:0:0:0:
452,272,45008,2,0,P|444:324|408:360,1,90,2|0,0:2|0:0,0:0:0:0:
476,200,45341,1,10,0:2:0:0:
368,284,45508,2,0,P|320:307|270:298,1,90,2|0,0:2|0:0,0:0:0:0:
142,224,45841,5,0,0:0:0:0:
168,88,46008,2,0,L|248:264,1,180,10|0,0:2|0:0,0:0:0:0:
108,344,46508,2,0,L|28:168,1,180,2|0,0:2|0:0,0:0:0:0:
88,48,47008,5,2,0:2:0:0:
88,48,47175,1,0,0:0:0:0:
140,172,47341,1,8,0:2:0:0:
240,84,47508,1,2,0:2:0:0:
320,196,47675,2,0,P|351:221|408:219,1,90,2|0,0:2|0:0,0:0:0:0:
412,64,48008,2,0,L|380:152,1,90,10|0,0:2|0:0,0:0:0:0:
332,304,48341,5,0,0:0:0:0:
192,220,48508,2,0,B|152:196|152:196|136:144,1,90,2|8,0:2|0:2,0:0:0:0:
200,304,48841,1,0,0:0:0:0:
336,208,49008,2,0,B|376:180|376:180|392:132,1,90,2|0,0:2|0:0,0:0:0:0:
384,290,49341,5,8,0:2:0:0:
336,208,49508,1,2,0:2:0:0:
290,291,49675,1,0,0:0:0:0:
219,182,49841,1,0,0:3:0:0:
150,292,50008,1,10,0:2:0:0:
150,194,50175,1,0,0:0:0:0:
219,303,50341,1,0,0:0:0:0:
288,193,50508,1,2,0:2:0:0:
352,302,50675,1,8,0:2:0:0:
420,176,50841,1,0,0:0:0:0:
420,176,51008,6,0,P|429:127|427:78,1,90,2|0,0:2|0:0,0:0:0:0:
272,80,51341,1,8,0:2:0:0:
148,112,51508,2,0,L|56:136,1,90,2|0,0:2|0:0,0:0:0:0:
64,296,51841,5,0,0:0:0:0:
188,328,52008,2,0,L|280:352,1,90,10|0,0:2|0:0,0:0:0:0:
404,252,52341,5,0,0:0:0:0:
372,128,52508,2,0,L|348:36,1,90,2|8,0:2|0:2,0:0:0:0:
192,128,52841,6,0,L|244:136,1,45,10|0,0:2|0:0,0:0:0:0:
128,148,53008,2,0,L|180:156,1,45,10|0,0:2|0:0,0:0:0:0:
64,168,53175,2,0,L|116:176,1,45,10|0,0:2|0:0,0:0:0:0:
4,200,53341,2,0,L|56:208,1,45,10|0,0:2|0:0,0:0:0:0:
24,92,53508,1,8,0:2:0:0:
180,48,53675,2,0,P|274:62|339:140,1,180,6|8,0:2|0:2,0:0:0:0:
371,261,54175,1,0,0:0:0:0:
247,213,54341,2,0,B|227:253|227:253|247:293,1,90,2|0,0:2|0:0,0:0:0:0:
331,121,54675,1,8,0:2:0:0:
462,48,54841,2,0,B|482:88|482:88|462:128,1,90,2|0,0:2|0:0,0:0:0:0:
349,52,55175,5,0,0:0:0:0:
223,52,55341,1,10,0:2:0:0:
135,140,55508,1,0,0:0:0:0:
263,140,55675,1,0,0:0:0:0:
191,240,55841,2,0,L|139:316,1,90,2|8,0:2|0:2,0:0:0:0:
289,348,56175,1,0,0:0:0:0:
361,236,56341,6,0,B|381:196|381:196|361:156,1,90,2|0,0:2|0:0,0:0:0:0:
241,60,56675,1,8,0:2:0:0:
169,172,56841,2,0,B|149:212|149:212|169:252,1,90,2|0,0:2|0:0,0:0:0:0:
269,204,57175,1,0,0:0:0:0:
329,76,57341,2,0,P|381:60|437:72,1,90,10|0,0:2|0:0,0:0:0:0:
389,188,57675,5,0,0:0:0:0:
473,284,57841,1,2,0:2:0:0:
473,284,58008,1,8,0:2:0:0:
345,332,58175,2,0,B|303:349|303:349|249:340,1,90,2|2,0:2|0:2,0:0:0:0:
200,200,58508,1,0,0:0:0:0:
200,200,58675,2,0,B|234:229|234:229|288:238,1,90,10|0,0:2|0:0,0:0:0:0:
264,128,59008,5,0,0:0:0:0:
251,29,59175,1,2,0:2:0:0:
182,105,59341,1,8,0:2:0:0:
182,105,59508,1,0,0:0:0:0:
108,40,59675,6,0,L|41:111,1,90,2|0,0:2|0:0,0:0:0:0:
47,259,60008,1,8,0:2:0:0:
109,325,60175,2,0,L|42:254,1,90,2|0,0:2|0:0,0:0:0:0:
195,217,60508,1,0,0:0:0:0:
257,151,60675,2,0,L|190:222,1,90,10|0,0:2|0:0,0:0:0:0:
347,246,61008,1,0,0:0:0:0:
409,312,61175,2,0,L|342:241,1,90,2|8,0:2|0:2,0:0:0:0:
344,144,61508,1,0,0:0:0:0:
436,200,61675,5,2,0:2:0:0:
408,96,61841,2,0,B|368:72|344:32|344:32|320:72|280:96,1,180
136,216,62341,2,0,B|110:259|101:298|101:298|141:295|188:276,1,180
252,164,62841,1,0,0:0:0:0:
252,164,63008,5,0,0:0:0:0:
64,36,63341,1,0,0:0:0:0:
64,128,63508,2,0,P|146:151|110:105,1,180
200,48,64008,5,8,0:2:0:0:
200,48,64175,1,8,0:2:0:0:
352,96,64341,6,0,P|367:156|252:188,1,180,6|8,0:2|0:2,0:0:0:0:
300,140,64841,2,0,P|341:179|267:271,1,180,2|0,0:2|0:0,0:0:0:0:
276,204,65341,2,0,P|331:216|306:338,1,180,10|0,0:2|0:0,0:0:0:0:
236,332,65841,5,2,0:2:0:0:
144,248,66008,1,8,0:2:0:0:
144,336,66175,1,0,0:0:0:0:
148,160,66341,1,2,0:2:0:0:
148,160,66508,1,0,0:0:0:0:
48,248,66675,2,0,B|16:280|16:280|48:312,1,90,10|0,0:2|0:0,0:0:0:0:
144,248,67008,5,2,0:2:0:0:
236,168,67175,1,0,0:0:0:0:
236,296,67341,1,8,0:2:0:0:
316,196,67508,1,2,0:2:0:0:
312,84,67675,2,0,P|264:68|208:80,1,90,2|0,0:2|0:0,0:0:0:0:
316,196,68008,2,0,P|382:172|413:133,1,90,10|0,0:2|0:0,0:0:0:0:
376,24,68341,5,0,0:2:0:0:
280,156,68508,1,2,0:2:0:0:
292,20,68675,1,8,0:2:0:0:
392,148,68841,1,0,0:2:0:0:
240,84,69008,1,2,0:2:0:0:
392,32,69175,1,0,0:0:0:0:
272,168,69341,2,0,P|240:196|184:216,1,90,10|0,0:2|0:0,0:0:0:0:
116,132,69675,5,0,0:0:0:0:
148,280,69841,1,2,0:2:0:0:
40,168,70008,2,0,P|36:104|68:64,1,90,10|0,0:2|0:0,0:0:0:0:
196,44,70341,2,0,B|244:40|244:40|296:72,1,90,2|0,0:2|0:0,0:0:0:0:
360,160,70675,1,8,0:2:0:0:
288,264,70841,2,0,B|240:268|240:268|188:236,1,90,2|0,0:2|0:2,0:0:0:0:
244,108,71175,5,2,0:2:0:0:
330,210,71341,1,10,0:2:0:0:
197,234,71508,1,2,0:2:0:0:
268,88,71675,1,2,0:2:0:0:
345,233,71841,1,0,0:0:0:0:
178,228,72008,1,10,0:2:0:0:
276,88,72175,1,0,0:0:0:0:
348,244,72341,6,0,P|357:296|258:360,1,180,2|8,0:2|0:2,0:0:0:0:
276,281,72841,1,2,0:2:0:0:
344,128,73008,2,0,P|353:75|316:20,1,90,2|0,0:2|0:0,0:0:0:0:
216,96,73341,1,10,0:2:0:0:
304,200,73508,2,0,P|364:208|408:180,1,90,2|0,0:2|0:0,0:0:0:0:
500,118,73841,1,2,0:2:0:0:
505,253,74008,1,10,0:2:0:0:
390,197,74175,6,0,L|381:146,1,45,10|0,0:2|0:0,0:0:0:0:
355,293,74341,2,0,L|346:343,1,45,10|0,0:2|0:0,0:0:0:0:
320,197,74508,2,0,L|311:146,1,45,10|0,0:2|0:0,0:0:0:0:
285,293,74675,2,0,L|276:343,1,45,10|0,0:2|0:0,0:0:0:0:
246,173,74841,1,8,0:2:0:0:
172,296,75008,6,0,P|79:334|10:283,1,180,6|8,0:2|0:2,0:0:0:0:
95,242,75508,2,0,P|186:202|258:257,1,180,2|0,0:2|0:0,0:0:0:0:
326,296,76008,2,0,P|233:334|164:283,1,180,10|0,0:2|0:0,0:0:0:0:
313,198,76508,1,2,0:2:0:0:
177,202,76675,1,8,0:2:0:0:
326,296,76841,1,2,0:2:0:0:
172,296,77008,2,0,P|126:296|72:271,1,90,2|0,0:2|0:0,0:0:0:0:
24,160,77341,2,0,P|33:112|59:73,1,90,10|0,0:2|0:0,0:0:0:0:
152,160,77675,5,2,0:2:0:0:
212,40,77841,1,0,0:0:0:0:
212,40,78008,1,8,0:2:0:0:
292,152,78175,1,2,0:2:0:0:
415,97,78341,2,0,P|477:80|519:88,1,90,2|0,0:2|0:2,0:0:0:0:
478,217,78675,2,0,P|456:270|416:294,1,90,10|0,0:2|0:0,0:0:0:0:
344,220,79008,5,0,0:0:0:0:
344,220,79175,1,2,0:2:0:0:
184,220,79341,1,10,0:2:0:0:
316,308,79508,1,2,0:2:0:0:
264,156,79675,1,2,0:2:0:0:
212,308,79841,1,2,0:2:0:0:
344,220,80008,2,0,P|366:143|297:59,1,180,10|8,0:2|0:2,0:0:0:0:
188,68,80508,5,0,0:2:0:0:
104,164,80675,2,0,P|84:216|88:264,1,90,10|0,0:2|0:0,0:0:0:0:
208,232,81008,2,0,P|264:208|292:180,1,90,2|0,0:2|0:0,0:0:0:0:
268,64,81341,1,10,0:2:0:0:
175,149,81508,2,0,P|190:207|214:239,1,90,2|0,0:2|0:2,0:0:0:0:
308,308,81841,5,2,0:2:0:0:
200,316,82008,1,10,0:2:0:0:
336,304,82175,1,2,0:2:0:0:
176,320,82341,1,2,0:2:0:0:
304,220,82508,1,0,0:0:0:0:
260,376,82675,1,10,0:2:0:0:
184,232,82841,1,0,0:0:0:0:
116,116,83008,6,0,P|132:72|160:40,1,90,2|0,0:2|0:0,0:0:0:0:
252,140,83341,1,10,0:2:0:0:
252,140,83508,2,0,P|238:184|212:218,1,90,2|0,0:2|0:0,0:0:0:0:
116,116,83841,2,0,P|132:72|160:40,2,90,2|10|0,0:2|0:2|0:2,0:0:0:0:
104,216,84341,5,6,0:2:0:0:
96,316,84508,1,2,0:2:0:0:
136,196,84675,1,2,0:2:0:0:
96,316,84841,1,2,0:2:0:0:
164,180,85008,1,2,0:2:0:0:
96,316,85175,1,2,0:2:0:0:
196,160,85341,1,10,0:2:0:0:
96,316,85508,1,2,0:2:0:0:
224,144,85675,5,0,0:0:0:0:
256,192,96341,6,0,L|348:192,1,90
300,72,96675,1,8,0:0:0:0:
284,72,96758,1,0,0:0:0:0:
268,72,96841,1,0,0:0:0:0:
140,72,97008,1,8,0:0:0:0:
140,200,97175,2,0,L|140:296,1,90,8|0,0:0|0:0,0:0:0:0:
40,292,97508,1,8,0:0:0:0:
40,192,97675,5,8,0:0:0:0:
40,92,97841,2,0,P|72:44|108:20,1,90,8|0,0:0|0:0,0:0:0:0:
160,136,98175,1,8,0:0:0:0:
172,148,98258,1,0,0:0:0:0:
184,160,98341,1,0,0:0:0:0:
280,244,98508,1,8,0:0:0:0:
216,308,98675,1,8,0:0:0:0:
336,188,98841,2,0,P|374:166|427:158,1,90,8|0,0:0|0:0,0:0:0:0:
420,284,99175,6,0,P|392:320|336:340,1,90,8|0,0:0|0:0,0:0:0:0:
228,340,99508,1,8,0:0:0:0:
128,260,99675,1,8,0:0:0:0:
128,244,99758,1,0,0:0:0:0:
128,228,99841,2,0,L|128:136,1,90,8|0,0:0|0:0,0:0:0:0:
236,56,100175,6,0,L|236:112|236:112,2,45,8|0|8,0:0|0:0|0:0,0:0:0:0:
156,56,100508,1,0,0:0:0:0:
312,56,100675,1,8,0:0:0:0:
312,184,100841,1,8,0:0:0:0:
312,200,100925,1,0,0:0:0:0:
312,216,101008,1,0,0:0:0:0:
440,216,101175,1,8,0:0:0:0:
440,135,101341,1,8,0:0:0:0:
440,56,101508,1,8,0:0:0:0:
344,144,101675,6,0,L|276:208,1,72,0|8,0:0|0:0,0:0:0:0:
160,188,102008,2,0,L|228:124,1,72,8|0,0:0|0:0,0:0:0:0:
84,132,102341,2,0,L|16:196,1,72,8|0,0:0|0:0,0:0:0:0:
132,264,102675,2,0,P|188:264|224:236,1,72,8|8,0:0|0:0,0:0:0:0:
292,164,103008,6,0,P|328:156|380:176,1,72,0|8,0:0|0:0,0:0:0:0:
292,272,103341,2,0,P|300:308|280:360,1,72,0|8,0:0|0:0,0:0:0:0:
184,272,103675,2,0,P|148:280|96:260,1,72,0|8,0:0|0:0,0:0:0:0:
184,164,104008,2,0,P|176:128|196:76,1,72,8|8,0:0|0:0,0:0:0:0:
192,72,104258,1,0,0:0:0:0:
200,48,104341,6,0,P|168:67|113:66,1,72,0|8,0:0|0:0,0:0:0:0:
120,200,104675,2,0,P|97:229|44:247,1,72,0|8,0:0|0:0,0:0:0:0:
248,208,105008,2,0,P|236:256|216:288,1,72,8|8,0:0|0:0,0:0:0:0:
368,132,105341,2,0,P|388:176|388:224,1,72,0|8,0:0|0:0,0:0:0:0:
392,216,105591,1,0,0:0:0:0:
392,232,105675,5,8,0:0:0:0:
456,112,105841,1,0,0:0:0:0:
348,40,106008,2,0,P|284:56|260:84,1,72,8|8,0:0|0:0,0:0:0:0:
268,68,106258,1,0,0:0:0:0:
256,80,106341,1,0,0:0:0:0:
172,188,106508,1,0,0:0:0:0:
304,280,106675,6,0,L|356:252,1,45
440,208,106841,2,0,L|440:260,1,45
392,100,107008,2,0,P|352:80|308:116,1,90
236,244,107341,1,8,0:0:0:0:
360,188,107508,1,0,0:0:0:0:
216,112,107675,1,0,0:0:0:0:
100,176,107841,1,0,0:0:0:0:
108,156,107925,1,0,0:0:0:0:
116,136,108008,2,0,L|148:48,1,90,8|0,0:0|0:0,0:0:0:0:
308,52,108341,5,0,0:0:0:0:
288,148,108508,1,0,0:0:0:0:
412,44,108675,1,8,0:0:0:0:
376,192,108841,1,0,0:0:0:0:
386,171,108925,1,0,0:0:0:0:
397,150,109008,1,0,0:0:0:0:
488,272,109175,1,0,0:0:0:0:
478,250,109259,1,0,0:0:0:0:
468,228,109342,1,8,0:0:0:0:
392,324,109508,1,0,0:0:0:0:
264,324,109675,5,0,0:0:0:0:
276,200,109841,1,0,0:0:0:0:
148,300,110008,2,0,P|104:316|52:296,1,90,8|0,0:0|0:0,0:0:0:0:
48,180,110341,1,0,0:0:0:0:
172,120,110508,1,0,0:0:0:0:
160,140,110591,1,0,0:0:0:0:
148,160,110675,2,0,L|96:248,1,90,8|0,0:0|0:0,0:0:0:0:
260,200,111008,5,0,0:0:0:0:
188,264,111175,1,0,0:0:0:0:
344,228,111341,1,8,0:0:0:0:
272,296,111508,1,0,0:0:0:0:
332,144,111675,1,0,0:0:0:0:
453,200,111841,1,0,0:0:0:0:
453,200,111925,1,0,0:0:0:0:
453,200,112008,1,8,0:0:0:0:
428,72,112175,1,0,0:0:0:0:
308,32,112341,5,0,0:0:0:0:
308,32,112425,1,0,0:0:0:0:
308,32,112508,1,0,0:0:0:0:
244,124,112675,2,0,B|244:172|244:172|268:208,1,90,8|0,0:0|0:0,0:0:0:0:
384,140,113008,1,0,0:0:0:0:
324,292,113175,1,0,0:0:0:0:
332,272,113258,1,0,0:0:0:0:
340,252,113341,1,8,0:0:0:0:
212,292,113508,1,0,0:0:0:0:
144,176,113675,5,0,0:0:0:0:
84,296,113841,1,0,0:0:0:0:
54,275,113924,1,0,0:0:0:0:
30,248,114007,1,8,0:0:0:0:
16,216,114090,1,0,0:0:0:0:
10,180,114174,1,0,0:0:0:0:
64,56,114341,1,0,0:0:0:0:
106,174,114508,2,0,P|127:214|163:251,1,90,0|8,0:0|0:0,0:0:0:0:
164,252,114841,1,0,0:0:0:0:
252,120,115008,5,0,0:0:0:0:
272,216,115175,1,0,0:0:0:0:
156,104,115341,1,8,0:0:0:0:
156,104,115508,1,0,0:0:0:0:
272,32,115675,1,0,0:0:0:0:
324,156,115841,1,0,0:0:0:0:
326,137,115925,1,0,0:0:0:0:
328,120,116008,1,8,0:0:0:0:
430,194,116175,1,0,0:0:0:0:
411,60,116341,5,0,0:0:0:0:
272,32,116508,1,0,0:0:0:0:
144,100,116675,5,8,0:0:0:0:
121,114,116758,1,0,0:0:0:0:
102,134,116841,1,0,0:0:0:0:
89,157,116924,1,0,0:0:0:0:
83,183,117008,1,0,0:0:0:0:
86,210,117091,1,0,0:0:0:0:
99,233,117174,1,0,0:0:0:0:
120,250,117258,1,0,0:0:0:0:
146,256,117341,1,8,0:0:0:0:
172,249,117424,1,0,0:0:0:0:
184,226,117508,1,0,0:0:0:0:
175,201,117591,1,0,0:0:0:0:
152,188,117675,6,0,P|134:123|157:86,1,99.0000030212403,6|0,0:2|0:0,0:0:0:0:
296,40,118008,5,8,0:0:0:0:
284,164,118175,2,0,P|296:224|320:256,1,90,0|2,0:0|0:0,0:0:0:0:
444,156,118508,1,0,0:0:0:0:
444,156,118591,1,0,0:0:0:0:
444,156,118675,1,8,0:0:0:0:
368,288,118841,1,0,0:0:0:0:
364,296,118925,1,0,0:0:0:0:
360,304,119008,6,0,P|308:340|258:351,1,112.5,2|0,0:0|0:0,0:0:0:0:
248,316,119258,2,0,P|281:262|291:210,1,112.5,2|0,0:0|0:0,0:0:0:0:
268,196,119508,2,0,P|216:232|164:244,1,112.5,2|0,0:0|0:0,0:0:0:0:
44,260,119841,1,0,0:0:0:0:
80,132,120008,1,8,0:0:0:0:
82,123,120091,1,0,0:0:0:0:
84,114,120175,1,0,0:0:0:0:
204,52,120341,6,0,P|252:48|296:56,1,90,2|0,0:0|0:0,0:0:0:0:
305,60,120591,1,0,0:0:0:0:
317,65,120675,1,8,0:0:0:0:
272,220,120841,1,0,0:0:0:0:
412,136,121008,1,2,0:0:0:0:
389,274,121175,1,0,0:0:0:0:
388,282,121258,1,0,0:0:0:0:
386,290,121341,1,8,0:0:0:0:
256,340,121508,1,0,0:0:0:0:
188,184,121675,5,2,0:0:0:0:
104,288,121841,1,0,0:0:0:0:
97,299,121925,1,0,0:0:0:0:
89,310,122008,2,0,L|57:353,2,45,8|0|0,0:0|0:0|0:0,0:0:0:0:
244,260,122341,1,2,0:0:0:0:
96,192,122508,1,0,0:0:0:0:
172,336,122675,5,8,0:0:0:0:
160,301,122758,1,8,0:0:0:0:
159,266,122841,1,8,0:0:0:0:
168,231,122924,1,8,0:0:0:0:
187,200,123008,6,0,P|220:164|260:144,1,90,2|0,0:0|0:0,0:0:0:0:
412,104,123341,2,0,P|352:64|312:48,1,90,8|8,0:0|0:0,0:0:0:0:
324,52,123591,1,0,0:0:0:0:
312,48,123675,1,0,0:0:0:0:
164,112,123841,1,0,0:0:0:0:
312,180,124008,1,8,0:0:0:0:
160,236,124175,1,0,0:0:0:0:
140,244,124258,1,0,0:0:0:0:
120,252,124341,6,0,L|64:272,5,45,2|0|0|0|8|0,0:0|0:0|0:0|0:0|0:0|0:0,0:0:0:0:
62,148,124841,1,8,0:0:0:0:
56,128,124924,1,0,0:0:0:0:
49,108,125008,6,0,L|34:64,5,45,2|0|0|0|8|0,0:0|0:0|0:0|0:0|0:0|0:0,0:0:0:0:
148,64,125508,2,0,L|204:64,1,45
264,148,125675,2,0,L|312:148,1,45
376,64,125841,2,0,L|424:64,1,45
444,160,126008,6,0,L|480:220,3,45,8|0|0|0,0:0|0:0|0:0|0:0,0:0:0:0:
368,231,126341,1,8,0:0:0:0:
331,248,126424,1,0,0:0:0:0:
296,268,126508,2,0,L|232:301,3,45,2|0|8|0,0:0|0:0|0:0|0:0,0:0:0:0:
220,212,126841,1,8,0:0:0:0:
255,191,126924,1,0,0:0:0:0:
291,173,127008,6,0,L|354:140,3,45,2|0|0|0,0:0|0:0|0:0|0:0,0:0:0:0:
276,88,127341,2,0,L|248:40,3,45,2|0|0|0,0:0|0:0|0:0|0:0,0:0:0:0:
168,68,127675,2,0,L|112:80,1,45
60,164,127841,2,0,L|20:212,1,45
90,289,128008,6,0,P|143:284|194:237,1,108,2|0,0:0|0:0,0:0:0:0:
204,224,128341,6,0,P|236:176|265:144,1,90,4|0,0:0|0:0,0:0:0:0:
376,48,128675,1,8,0:0:0:0:
336,192,128841,1,0,0:0:0:0:
332,206,128925,1,0,0:0:0:0:
328,220,129008,1,0,0:0:0:0:
230,332,129175,1,0,0:0:0:0:
377,330,129341,2,0,P|427:305|443:270,1,90,8|0,0:0|0:0,0:0:0:0:
444,140,129675,5,2,0:0:0:0:
336,56,129841,1,0,0:0:0:0:
444,36,130008,1,8,0:0:0:0:
340,164,130175,1,0,0:0:0:0:
184,180,130341,2,0,P|128:176|87:147,1,90
85,147,130591,1,0,0:0:0:0:
72,134,130675,1,8,0:0:0:0:
164,48,130841,1,0,0:0:0:0:
276,160,131008,6,0,L|348:232,1,90,2|0,0:0|0:0,0:0:0:0:
164,276,131341,2,0,L|66:317,1,90,8|0,0:0|0:0,0:0:0:0:
64,318,131591,1,0,0:0:0:0:
47,325,131675,1,0,0:0:0:0:
116,212,131841,1,0,0:0:0:0:
236,328,132008,1,8,0:0:0:0:
236,140,132175,1,0,0:0:0:0:
336,140,132341,5,2,0:0:0:0:
136,140,132508,1,0,0:0:0:0:
236,236,132675,1,8,0:0:0:0:
236,60,132841,1,0,0:0:0:0:
236,52,132925,1,0,0:0:0:0:
236,44,133008,1,0,0:0:0:0:
364,48,133175,1,0,0:0:0:0:
448,184,133341,5,8,0:0:0:0:
470,215,133424,1,0,0:0:0:0:
480,254,133507,1,0,0:0:0:0:
473,293,133591,1,8,0:0:0:0:
453,326,133675,6,0,P|392:340|344:333,2,90,2|0|8,0:0|0:0|0:0,0:0:0:0:
468,156,134175,1,0,0:0:0:0:
344,252,134341,1,0,0:0:0:0:
304,100,134508,1,0,0:0:0:0:
301,90,134591,1,0,0:0:0:0:
297,80,134675,2,0,P|228:36|192:56,1,90,8|0,0:0|0:0,0:0:0:0:
72,96,135008,5,2,0:0:0:0:
28,248,135175,1,0,0:0:0:0:
156,156,135341,1,8,0:0:0:0:
100,304,135508,2,0,L|81:353,2,45
224,344,135841,1,0,0:0:0:0:
344,304,136008,1,8,0:0:0:0:
464,344,136175,1,0,0:0:0:0:
495,189,136341,5,2,0:0:0:0:
468,56,136508,1,0,0:0:0:0:
327,139,136675,2,0,L|233:195,1,90,8|0,0:0|0:0,0:0:0:0:
238,192,136925,1,0,0:0:0:0:
226,199,137008,1,0,0:0:0:0:
99,301,137175,1,0,0:0:0:0:
66,171,137341,2,0,P|66:107|78:59,1,99.0000030212403,8|0,0:0|0:0,0:0:0:0:
233,45,137675,5,2,0:0:0:0:
327,139,137841,1,0,0:0:0:0:
233,234,138008,1,8,0:0:0:0:
138,139,138175,1,0,0:0:0:0:
272,92,138341,5,0,0:0:0:0:
295,85,138424,1,0,0:0:0:0:
319,79,138507,1,0,0:0:0:0:
343,73,138591,1,0,0:0:0:0:
367,67,138675,5,8,0:0:0:0:
345,106,138758,1,8,0:0:0:0:
323,145,138841,1,8,0:0:0:0:
301,184,138925,1,8,0:0:0:0:
279,223,139008,6,0,P|293:282|363:239,1,135,2|0,0:0|0:0,0:0:0:0:
384,238,139341,6,0,L|437:146,1,90,12|0,0:0|0:0,0:0:0:0:
478,73,139675,1,0,0:0:0:0:
468,234,139841,1,0,0:0:0:0:
320,165,140008,1,8,0:0:0:0:
213,261,140175,1,0,0:0:0:0:
203,270,140258,1,0,0:0:0:0:
193,279,140341,6,0,P|134:302|87:287,1,90,2|0,0:0|0:0,0:0:0:0:
116,148,140675,1,8,0:0:0:0:
36,260,140841,1,0,0:0:0:0:
205,173,141008,1,0,0:0:0:0:
284,320,141175,2,0,P|292:252|319:220,1,90,0|8,0:0|0:0,0:0:0:0:
376,296,141508,1,0,0:0:0:0:
288,164,141675,6,0,L|222:64,1,90,2|0,0:0|0:0,0:0:0:0:
64,184,142008,2,0,L|130:282,1,90,8|0,0:0|0:0,0:0:0:0:
121,270,142258,1,0,0:0:0:0:
127,281,142341,1,0,0:0:0:0:
129,93,142508,1,0,0:0:0:0:
129,78,142591,1,0,0:0:0:0:
129,63,142675,1,8,0:0:0:0:
288,60,142841,1,0,0:0:0:0:
208,160,143008,5,2,0:0:0:0:
364,132,143175,1,0,0:0:0:0:
210,66,143341,1,8,0:0:0:0:
121,155,143508,1,0,0:0:0:0:
104,181,143591,1,0,0:0:0:0:
98,212,143674,1,0,0:0:0:0:
104,242,143758,1,0,0:0:0:0:
121,268,143841,1,0,0:0:0:0:
228,284,144008,5,8,0:0:0:0:
228,230,144091,1,0,0:0:0:0:
228,176,144174,1,0,0:0:0:0:
228,122,144258,1,8,0:0:0:0:
228,68,144341,6,0,P|176:32|137:29,1,90,2|0,0:0|0:0,0:0:0:0:
140,164,144675,1,8,0:0:0:0:
328,164,144841,1,0,0:0:0:0:
342,164,144925,1,0,0:0:0:0:
356,164,145008,1,0,0:0:0:0:
344,64,145175,1,0,0:0:0:0:
344,260,145341,2,0,L|344:363,1,90,8|0,0:0|0:0,0:0:0:0:
428,260,145675,5,2,0:0:0:0:
260,260,145841,1,0,0:0:0:0:
244,260,145925,1,0,0:0:0:0:
228,260,146008,1,8,0:0:0:0:
88,352,146175,1,0,0:0:0:0:
68,184,146341,6,0,P|72:124|100:80,1,112.5,2|0,0:0|0:0,0:0:0:0:
135,115,146591,2,0,P|169:164|175:215,1,112.5,2|0,0:0|0:0,0:0:0:0:
227,191,146841,2,0,P|251:140|249:85,1,112.5,2|2,0:0|0:0,0:0:0:0:
246,74,147091,5,0,0:0:0:0:
242,63,147175,1,0,0:0:0:0:
175,215,147341,1,8,0:0:0:0:
318,307,147508,1,0,0:0:0:0:
327,313,147591,1,0,0:0:0:0:
335,320,147675,1,0,0:0:0:0:
200,313,147841,1,0,0:0:0:0:
340,223,148008,2,0,P|376:189|390:144,1,90,8|0,0:0|0:0,0:0:0:0:
340,24,148341,5,2,0:0:0:0:
169,124,148508,1,0,0:0:0:0:
340,223,148675,1,8,0:0:0:0:
169,322,148841,1,0,0:0:0:0:
340,322,149008,5,10,0:0:0:0:
169,222,149175,1,0,0:0:0:0:
340,123,149342,1,8,0:0:0:0:
169,24,149508,1,0,0:0:0:0:
81,156,149675,6,0,P|59:223|77:283,1,107.999996704102,6|0,0:0|0:0,0:0:0:0:
212,340,150008,1,8,0:0:0:0:
252,172,150175,2,0,L|280:56,2,107.999996704102
196,56,150675,5,8,0:0:0:0:
340,188,150841,1,0,0:0:0:0:
352,200,150925,1,0,0:0:0:0:
364,212,151008,1,2,0:0:0:0:
460,108,151175,1,0,0:0:0:0:
460,228,151341,1,8,0:0:0:0:
460,348,151508,1,0,0:0:0:0:
288,324,151675,2,0,P|236:300|220:240,1,107.999996704102
254,71,152008,2,0,P|306:95|322:155,1,107.999996704102,8|0,0:0|0:0,0:0:0:0:
324,332,152341,5,2,0:0:0:0:
184,144,152508,1,0,0:0:0:0:
180,332,152675,1,8,0:0:0:0:
323,139,152841,1,0,0:0:0:0:
330,130,152925,1,0,0:0:0:0:
337,121,153008,1,0,0:0:0:0:
264,232,153175,1,0,0:0:0:0:
416,148,153341,2,0,L|516:92,1,107.999996704102,8|0,0:0|0:0,0:0:0:0:
360,220,153675,5,2,0:0:0:0:
420,60,153841,1,0,0:0:0:0:
484,220,154008,1,8,0:0:0:0:
275,160,154175,1,0,0:0:0:0:
242,151,154341,1,0,0:0:0:0:
210,142,154508,1,8,0:0:0:0:
218,280,154675,5,8,0:0:0:0:
262,256,154758,1,0,0:0:0:0:
306,232,154841,1,0,0:0:0:0:
350,208,154925,1,8,0:0:0:0:
394,184,155008,6,0,L|490:132,1,107.999996704102,2|0,0:0|0:0,0:0:0:0:
488,132,155341,1,8,0:0:0:0:
296,132,155508,2,0,L|392:80,1,107.999996704102
220,52,155841,1,0,0:0:0:0:
316,220,156008,1,8,0:0:0:0:
312,52,156175,1,0,0:0:0:0:
220,220,156341,5,2,0:0:0:0:
368,132,156508,1,0,0:0:0:0:
172,132,156675,1,8,0:0:0:0:
268,300,156841,1,0,0:0:0:0:
368,132,157008,1,0,0:0:0:0:
368,300,157175,1,8,0:0:0:0:
272,132,157341,2,0,B|248:92|248:92|244:48|268:28,1,107.999996704102,0|8,0:0|0:0,0:0:0:0:
424,60,157675,5,2,0:0:0:0:
456,184,157841,1,0,0:0:0:0:
424,308,158008,2,0,B|404:344|372:344|372:344|336:320,1,107.999996704102,8|0,0:0|0:0,0:0:0:0:
196,224,158341,1,0,0:0:0:0:
360,224,158508,1,0,0:0:0:0:
192,320,158675,2,0,P|148:332|96:304,1,107.999996704102,8|0,0:0|0:0,0:0:0:0:
60,136,159008,5,2,0:0:0:0:
44,232,159175,1,0,0:0:0:0:
144,92,159341,1,8,0:0:0:0:
128,188,159508,1,0,0:0:0:0:
236,56,159675,1,0,0:0:0:0:
236,56,159841,1,0,0:0:0:0:
364,192,160008,5,8,0:0:0:0:
310,192,160091,1,8,0:0:0:0:
256,192,160174,1,8,0:0:0:0:
202,192,160258,1,8,0:0:0:0:
148,192,160341,6,0,B|104:192|104:192|56:212|56:276|104:296|104:296|144:296,1,215.999993408203,6|8,0:0|0:0,0:0:0:0:
336,296,160841,2,0,B|376:304|400:284|400:284|420:236,1,107.999996704102
420,76,161175,2,0,B|408:40|408:40|368:24|336:44,1,107.999996704102,0|8,0:0|0:0,0:0:0:0:
296,176,161508,1,0,0:0:0:0:
288,164,161591,1,0,0:0:0:0:
280,152,161675,5,2,0:0:0:0:
204,36,161841,1,0,0:0:0:0:
204,220,162008,1,8,0:0:0:0:
112,88,162175,2,0,B|80:40|80:40|24:72,1,107.999996704102
60,192,162508,1,0,0:0:0:0:
204,120,162675,1,8,0:0:0:0:
316,236,162841,1,0,0:0:0:0:
172,308,163008,6,0,P|100:311|63:294,1,107.999996704102,2|0,0:0|0:0,0:0:0:0:
132,184,163341,1,8,0:0:0:0:
276,316,163508,1,0,0:0:0:0:
284,324,163591,1,0,0:0:0:0:
292,332,163675,1,0,0:0:0:0:
404,268,163841,1,0,0:0:0:0:
232,204,164008,1,8,0:0:0:0:
196,328,164175,1,0,0:0:0:0:
324,220,164341,6,0,P|348:168|336:116,1,107.999996704102,2|0,0:0|0:0,0:0:0:0:
204,36,164675,1,8,0:0:0:0:
80,140,164841,2,0,P|56:192|68:244,1,107.999996704102
188,340,165175,1,8,0:0:0:0:
304,228,165341,1,8,0:0:0:0:
327,179,165424,1,0,0:0:0:0:
332,126,165507,1,0,0:0:0:0:
317,74,165591,1,8,0:0:0:0:
284,30,165675,6,0,P|232:12|188:40,2,107.999996704102,2|0|8,0:0|0:0|0:0,0:0:0:0:
219,155,166175,1,0,0:0:0:0:
215,163,166258,1,0,0:0:0:0:
210,172,166341,1,0,0:0:0:0:
268,296,166508,1,0,0:0:0:0:
376,224,166675,2,0,P|396:172|371:123,1,107.999996704102,8|0,0:0|0:0,0:0:0:0:
256,84,167008,5,2,0:0:0:0:
256,268,167175,1,0,0:0:0:0:
324,176,167341,1,8,0:0:0:0:
76,176,167508,1,0,0:0:0:0:
144,268,167675,1,0,0:0:0:0:
144,88,167841,1,0,0:0:0:0:
204,180,168008,1,8,0:0:0:0:
204,180,168175,1,0,0:0:0:0:
200,332,168341,5,2,0:0:0:0:
320,240,168508,1,0,0:0:0:0:
449,233,168675,2,0,P|438:296|411:333,1,107.999996704102,8|0,0:0|0:0,0:0:0:0:
405,339,168925,1,0,0:0:0:0:
397,346,169008,1,0,0:0:0:0:
256,336,169175,1,0,0:0:0:0:
380,188,169341,1,8,0:0:0:0:
256,84,169508,1,0,0:0:0:0:
256,248,169675,5,2,0:0:0:0:
132,144,169841,1,0,0:0:0:0:
52,260,170008,1,8,0:0:0:0:
41,284,170091,1,0,0:0:0:0:
48,310,170174,1,0,0:0:0:0:
68,327,170258,1,0,0:0:0:0:
96,328,170341,5,0,0:0:0:0:
137,318,170424,1,0,0:0:0:0:
167,288,170507,1,0,0:0:0:0:
176,246,170591,1,0,0:0:0:0:
176,196,170675,6,0,L|260:172,1,53.9999983520508,8|0,0:0|0:0,0:0:0:0:
164,104,170841,2,0,L|80:80,1,53.9999983520508
180,16,171008,5,4,0:0:0:0:
