osu file format v14

[General]
AudioFilename: 06 perthed again (yambabom remix).mp3
AudioLeadIn: 0
PreviewTime: 106997
Countdown: 0
SampleSet: None
StackLeniency: 0.7
Mode: 1
LetterboxInBreaks: 0
WidescreenStoryboard: 1

[Editor]
Bookmarks: 32330,40330,42997,61664,85664,96330,148164
DistanceSpacing: 0.8
BeatDivisor: 4
GridSize: 4
TimelineZoom: 1.1

[Metadata]
Title:perthed again (yambabom remix)
TitleUnicode:perthed again (yambabom remix)
Artist:Hitori Tori
ArtistUnicode:Hitori Tori
Creator:DarkStoorM
Version:I-TaikoGen
Source:
Tags:
BeatmapID:1960065
BeatmapSetID:938318

[Difficulty]
HPDrainRate:0
CircleSize:4
OverallDifficulty:8
ApproachRate:5
SliderMultiplier:2.2
SliderTickRate:2

[Events]
//Background and Video events
0,0,"uh.png",0,0
//Break Periods
//Storyboard Layer 0 (Background)
//Storyboard Layer 1 (Fail)
//Storyboard Layer 2 (Pass)
//Storyboard Layer 3 (Foreground)
//Storyboard Sound Samples

[TimingPoints]
342,333.333333333333,4,1,0,100,1,0
21675,-100,4,1,0,90,0,1
32341,-100,4,1,0,50,0,1
32397,-100,4,1,0,25,0,1
32453,-100,4,1,0,5,0,1
32508,-100,4,1,0,10,0,1
32564,-100,4,1,0,50,0,1
32619,-100,4,1,0,75,0,1
32675,-100,4,1,0,100,0,1
42341,-100,4,1,0,100,0,1
42508,-100,4,1,0,100,0,1
42675,-100,4,1,0,100,0,1
42841,-100,4,1,0,100,0,1
43008,-100,4,1,0,100,0,1
62175,-100,4,1,0,100,0,1
62675,-100,4,1,0,100,0,1
63008,-100,4,1,0,100,0,1
64175,-100,4,1,0,100,0,1
64341,-100,4,1,0,100,0,1
64508,-100,4,1,0,100,0,1
64675,-100,4,1,0,100,0,1
85008,-100,4,1,0,100,0,0
85175,-100,4,1,0,100,0,0
85341,-100,4,1,0,100,0,0
85508,-100,4,1,0,100,0,0
85591,-100,4,1,0,100,0,0
85675,-100,4,1,0,100,0,0
106175,-100,4,1,0,100,0,0
106341,-100,4,1,0,100,0,0
106508,-100,4,1,0,100,0,0
106675,-100,4,1,0,100,0,0
106841,-100,4,1,0,100,0,0
107008,-100,4,1,0,100,0,1
149675,-100,4,1,0,100,0,1
149758,-100,4,1,0,100,0,1
149841,-100,4,1,0,100,0,1
149925,-100,4,1,0,100,0,1
150008,-100,4,1,0,100,0,1
152341,-100,4,1,0,100,0,1
155008,-100,4,1,0,100,0,1
157675,-100,4,1,0,100,0,1
160341,-100,4,1,0,100,0,1
163008,-100,4,1,0,100,0,1
165675,-100,4,1,0,100,0,1
168341,-100,4,1,0,100,0,1
171008,-100,4,1,0,100,0,0
194992,-100,4,1,0,50,0,0
195675,-100,4,1,0,30,0,0
196341,-100,4,1,0,10,0,0
197008,-100,4,1,0,5,0,0

[Colours]
Combo1 : 255,0,0
Combo2 : 255,128,64

[HitObjects]
256,192,342,1,0,0:0:0:0:
256,192,425,1,0,0:0:0:0:
256,192,508,1,2,0:0:0:0:
256,192,592,1,0,0:0:0:0:
256,192,675,1,0,0:0:0:0:
256,192,842,1,0,0:0:0:0:
256,192,1008,1,0,0:0:0:0:
256,192,1092,1,0,0:0:0:0:
256,192,1175,1,2,0:0:0:0:
256,192,1258,1,0,0:0:0:0:
256,192,1342,1,6,0:0:0:0:
256,192,1508,1,2,0:0:0:0:
256,192,1591,1,0,0:0:0:0:
256,192,1675,1,2,0:0:0:0:
256,192,1841,1,2,0:0:0:0:
256,192,2008,1,0,0:0:0:0:
256,192,2091,1,2,0:0:0:0:
256,192,2175,1,0,0:0:0:0:
256,192,2258,1,2,0:0:0:0:
256,192,2342,1,0,0:0:0:0:
256,192,2508,1,0,0:0:0:0:
256,192,2592,1,2,0:0:0:0:
256,192,2675,1,2,0:0:0:0:
256,192,2758,1,2,0:0:0:0:
256,192,2842,1,0,0:0:0:0:
256,192,3008,1,6,0:0:0:0:
256,192,3175,1,2,0:0:0:0:
256,192,3342,1,0,0:0:0:0:
256,192,3425,1,2,0:0:0:0:
256,192,3508,1,2,0:0:0:0:
256,192,3592,1,2,0:0:0:0:
256,192,3675,1,0,0:0:0:0:
256,192,3758,1,0,0:0:0:0:
256,192,3842,1,2,0:0:0:0:
256,192,4008,1,0,0:0:0:0:
256,192,4092,1,0,0:0:0:0:
256,192,4175,1,0,0:0:0:0:
256,192,4258,1,0,0:0:0:0:
256,192,4342,1,0,0:0:0:0:
256,192,4508,1,0,0:0:0:0:
256,192,4592,1,2,0:0:0:0:
256,192,4675,1,4,0:0:0:0:
256,192,4842,1,0,0:0:0:0:
256,192,4925,1,2,0:0:0:0:
256,192,5008,1,2,0:0:0:0:
256,192,5092,1,0,0:0:0:0:
256,192,5175,1,2,0:0:0:0:
256,192,5258,1,0,0:0:0:0:
256,192,5341,1,6,0:0:0:0:
256,192,5508,1,0,0:0:0:0:
256,192,5675,1,6,0:0:0:0:
256,192,5841,1,2,0:0:0:0:
256,192,6008,1,2,0:0:0:0:
256,192,6175,1,0,0:0:0:0:
256,192,6258,1,2,0:0:0:0:
256,192,6341,1,4,0:0:0:0:
256,192,6508,1,6,0:0:0:0:
256,192,6675,1,0,0:0:0:0:
256,192,6758,1,0,0:0:0:0:
256,192,6841,1,6,0:0:0:0:
256,192,7008,1,2,0:0:0:0:
256,192,7091,1,2,0:0:0:0:
256,192,7175,1,2,0:0:0:0:
256,192,7258,1,0,0:0:0:0:
256,192,7341,1,2,0:0:0:0:
256,192,7508,1,0,0:0:0:0:
256,192,7591,1,2,0:0:0:0:
256,192,7675,1,0,0:0:0:0:
256,192,7758,1,2,0:0:0:0:
256,192,7841,1,4,0:0:0:0:
256,192,8008,1,2,0:0:0:0:
256,192,8175,1,2,0:0:0:0:
256,192,8258,1,0,0:0:0:0:
256,192,8341,1,0,0:0:0:0:
256,192,8425,1,2,0:0:0:0:
256,192,8508,1,2,0:0:0:0:
256,192,8675,1,0,0:0:0:0:
256,192,8758,1,0,0:0:0:0:
256,192,8841,1,0,0:0:0:0:
256,192,8925,1,0,0:0:0:0:
256,192,9008,1,6,0:0:0:0:
256,192,9175,1,0,0:0:0:0:
256,192,9258,1,2,0:0:0:0:
256,192,9341,1,2,0:0:0:0:
256,192,9425,1,0,0:0:0:0:
256,192,9508,1,0,0:0:0:0:
256,192,9675,1,0,0:0:0:0:
256,192,9758,1,2,0:0:0:0:
256,192,9842,1,0,0:0:0:0:
256,192,9925,1,2,0:0:0:0:
256,192,10008,1,0,0:0:0:0:
256,192,10092,1,2,0:0:0:0:
256,192,10175,1,0,0:0:0:0:
256,192,10342,1,0,0:0:0:0:
256,192,10425,1,2,0:0:0:0:
256,192,10508,1,2,0:0:0:0:
256,192,10592,1,2,0:0:0:0:
256,192,10675,1,2,0:0:0:0:
256,192,10842,1,0,0:0:0:0:
256,192,10925,1,2,0:0:0:0:
256,192,11008,1,0,0:0:0:0:
256,192,11175,1,4,0:0:0:0:
256,192,11342,1,4,0:0:0:0:
256,192,11508,1,0,0:0:0:0:
256,192,11592,1,0,0:0:0:0:
256,192,11675,1,2,0:0:0:0:
256,192,11842,1,2,0:0:0:0:
256,192,12008,1,6,0:0:0:0:
256,192,12175,1,0,0:0:0:0:
256,192,12258,1,0,0:0:0:0:
256,192,12342,1,0,0:0:0:0:
256,192,12425,1,0,0:0:0:0:
256,192,12508,1,6,0:0:0:0:
256,192,12675,1,2,0:0:0:0:
256,192,12758,1,0,0:0:0:0:
256,192,12842,1,2,0:0:0:0:
256,192,12925,1,0,0:0:0:0:
256,192,13008,1,0,0:0:0:0:
256,192,13175,1,2,0:0:0:0:
256,192,13342,1,2,0:0:0:0:
256,192,13425,1,2,0:0:0:0:
256,192,13508,1,0,0:0:0:0:
256,192,13592,1,2,0:0:0:0:
256,192,13675,1,0,0:0:0:0:
256,192,13842,1,6,0:0:0:0:
256,192,14008,1,2,0:0:0:0:
256,192,14092,1,2,0:0:0:0:
256,192,14175,1,0,0:0:0:0:
256,192,14342,1,0,0:0:0:0:
256,192,14425,1,0,0:0:0:0:
256,192,14508,1,6,0:0:0:0:
256,192,14675,1,2,0:0:0:0:
256,192,14758,1,0,0:0:0:0:
256,192,14842,1,6,0:0:0:0:
256,192,15008,1,4,0:0:0:0:
256,192,15175,1,2,0:0:0:0:
256,192,15258,1,0,0:0:0:0:
256,192,15342,1,0,0:0:0:0:
256,192,15425,1,0,0:0:0:0:
256,192,15508,1,0,0:0:0:0:
256,192,15592,1,0,0:0:0:0:
256,192,15675,1,2,0:0:0:0:
256,192,15842,1,0,0:0:0:0:
256,192,15925,1,0,0:0:0:0:
256,192,16008,1,6,0:0:0:0:
256,192,16175,1,2,0:0:0:0:
256,192,16258,1,0,0:0:0:0:
256,192,16342,1,0,0:0:0:0:
256,192,16425,1,0,0:0:0:0:
256,192,16508,1,2,0:0:0:0:
256,192,16592,1,2,0:0:0:0:
256,192,16675,1,0,0:0:0:0:
256,192,16842,1,0,0:0:0:0:
256,192,16925,1,2,0:0:0:0:
256,192,17008,1,0,0:0:0:0:
256,192,17092,1,2,0:0:0:0:
256,192,17175,1,2,0:0:0:0:
256,192,17258,1,0,0:0:0:0:
256,192,17342,1,2,0:0:0:0:
256,192,17508,1,0,0:0:0:0:
256,192,17675,1,0,0:0:0:0:
256,192,17842,1,2,0:0:0:0:
256,192,17925,1,0,0:0:0:0:
256,192,18008,1,2,0:0:0:0:
256,192,18092,1,0,0:0:0:0:
256,192,18175,1,0,0:0:0:0:
256,192,18342,1,0,0:0:0:0:
256,192,18425,1,0,0:0:0:0:
256,192,18508,1,2,0:0:0:0:
256,192,18592,1,0,0:0:0:0:
256,192,18675,1,6,0:0:0:0:
256,192,18842,1,2,0:0:0:0:
256,192,18925,1,2,0:0:0:0:
256,192,19008,1,2,0:0:0:0:
256,192,19092,1,0,0:0:0:0:
256,192,19175,1,0,0:0:0:0:
256,192,19258,1,0,0:0:0:0:
256,192,19342,1,0,0:0:0:0:
256,192,19508,1,0,0:0:0:0:
256,192,19592,1,0,0:0:0:0:
256,192,19675,1,2,0:0:0:0:
256,192,19758,1,2,0:0:0:0:
256,192,19841,1,0,0:0:0:0:
256,192,20008,1,0,0:0:0:0:
256,192,20175,1,0,0:0:0:0:
256,192,20258,1,2,0:0:0:0:
256,192,20341,1,2,0:0:0:0:
256,192,20425,1,0,0:0:0:0:
256,192,20508,1,2,0:0:0:0:
256,192,20591,1,0,0:0:0:0:
256,192,20675,1,2,0:0:0:0:
256,192,20841,1,2,0:0:0:0:
256,192,20925,1,0,0:0:0:0:
256,192,21008,1,2,0:0:0:0:
256,192,21091,1,0,0:0:0:0:
256,192,21175,1,2,0:0:0:0:
256,192,21341,1,2,0:0:0:0:
256,192,21425,1,2,0:0:0:0:
256,192,21508,1,0,0:0:0:0:
256,192,21591,1,0,0:0:0:0:
256,192,21675,1,0,0:0:0:0:
256,192,21841,1,0,0:0:0:0:
256,192,21925,1,2,0:0:0:0:
256,192,22008,1,2,0:0:0:0:
256,192,22091,1,0,0:0:0:0:
256,192,22175,1,2,0:0:0:0:
256,192,22341,1,2,0:0:0:0:
256,192,22508,1,4,0:0:0:0:
256,192,22675,1,0,0:0:0:0:
256,192,22841,1,4,0:0:0:0:
256,192,23008,1,0,0:0:0:0:
256,192,23091,1,2,0:0:0:0:
256,192,23175,1,2,0:0:0:0:
256,192,23341,1,2,0:0:0:0:
256,192,23425,1,0,0:0:0:0:
256,192,23508,1,0,0:0:0:0:
256,192,23591,1,0,0:0:0:0:
256,192,23675,1,2,0:0:0:0:
256,192,23841,1,2,0:0:0:0:
256,192,23925,1,2,0:0:0:0:
256,192,24008,1,2,0:0:0:0:
256,192,24175,1,6,0:0:0:0:
256,192,24341,1,0,0:0:0:0:
256,192,24425,1,0,0:0:0:0:
256,192,24508,1,2,0:0:0:0:
256,192,24591,1,2,0:0:0:0:
256,192,24675,1,0,0:0:0:0:
256,192,24841,1,4,0:0:0:0:
256,192,25008,1,0,0:0:0:0:
256,192,25175,1,2,0:0:0:0:
256,192,25258,1,2,0:0:0:0:
256,192,25341,1,0,0:0:0:0:
256,192,25425,1,2,0:0:0:0:
256,192,25508,1,0,0:0:0:0:
256,192,25675,1,0,0:0:0:0:
256,192,25758,1,0,0:0:0:0:
256,192,25841,1,2,0:0:0:0:
256,192,25925,1,0,0:0:0:0:
256,192,26008,1,2,0:0:0:0:
256,192,26091,1,2,0:0:0:0:
256,192,26175,1,0,0:0:0:0:
256,192,26341,1,6,0:0:0:0:
256,192,26508,1,2,0:0:0:0:
256,192,26591,1,2,0:0:0:0:
256,192,26675,1,0,0:0:0:0:
256,192,26758,1,0,0:0:0:0:
256,192,26841,1,2,0:0:0:0:
256,192,26925,1,2,0:0:0:0:
256,192,27008,1,0,0:0:0:0:
256,192,27175,1,0,0:0:0:0:
256,192,27258,1,2,0:0:0:0:
256,192,27341,1,0,0:0:0:0:
256,192,27425,1,0,0:0:0:0:
256,192,27508,1,2,0:0:0:0:
256,192,27675,1,2,0:0:0:0:
256,192,27841,1,2,0:0:0:0:
256,192,27925,1,0,0:0:0:0:
256,192,28008,1,0,0:0:0:0:
256,192,28091,1,2,0:0:0:0:
256,192,28175,1,0,0:0:0:0:
256,192,28341,1,0,0:0:0:0:
256,192,28425,1,0,0:0:0:0:
256,192,28508,1,0,0:0:0:0:
256,192,28675,1,0,0:0:0:0:
256,192,28758,1,2,0:0:0:0:
256,192,28841,1,2,0:0:0:0:
256,192,28925,1,0,0:0:0:0:
256,192,29008,1,2,0:0:0:0:
256,192,29091,1,0,0:0:0:0:
256,192,29175,1,2,0:0:0:0:
256,192,29341,1,2,0:0:0:0:
256,192,29425,1,0,0:0:0:0:
256,192,29508,1,2,0:0:0:0:
256,192,29591,1,2,0:0:0:0:
256,192,29675,1,2,0:0:0:0:
256,192,29841,1,2,0:0:0:0:
256,192,30008,1,0,0:0:0:0:
256,192,30091,1,2,0:0:0:0:
256,192,30175,1,2,0:0:0:0:
256,192,30258,1,0,0:0:0:0:
256,192,30341,1,2,0:0:0:0:
256,192,30508,1,0,0:0:0:0:
256,192,30591,1,2,0:0:0:0:
256,192,30675,1,0,0:0:0:0:
256,192,30758,1,2,0:0:0:0:
256,192,30841,1,2,0:0:0:0:
256,192,31008,1,2,0:0:0:0:
256,192,31175,1,2,0:0:0:0:
256,192,31258,1,2,0:0:0:0:
256,192,31341,1,2,0:0:0:0:
256,192,31425,1,2,0:0:0:0:
256,192,31508,1,0,0:0:0:0:
256,192,31675,1,6,0:0:0:0:
256,192,31841,1,2,0:0:0:0:
256,192,31925,1,2,0:0:0:0:
256,192,32008,1,2,0:0:0:0:
256,192,32175,1,0,0:0:0:0:
256,192,32258,1,2,0:0:0:0:
256,192,32341,1,0,0:0:0:0:
256,192,32425,1,2,0:0:0:0:
256,192,32508,1,2,0:0:0:0:
256,192,32591,1,2,0:0:0:0:
256,192,32675,1,0,0:0:0:0:
256,192,32841,1,0,0:0:0:0:
256,192,32925,1,0,0:0:0:0:
256,192,33008,1,2,0:0:0:0:
256,192,33175,1,2,0:0:0:0:
256,192,33341,1,2,0:0:0:0:
256,192,33425,1,2,0:0:0:0:
256,192,33508,1,0,0:0:0:0:
256,192,33591,1,2,0:0:0:0:
256,192,33675,1,0,0:0:0:0:
256,192,33758,1,2,0:0:0:0:
256,192,33841,1,0,0:0:0:0:
256,192,34008,1,0,0:0:0:0:
256,192,34175,1,2,0:0:0:0:
256,192,34258,1,0,0:0:0:0:
256,192,34341,1,0,0:0:0:0:
256,192,34425,1,2,0:0:0:0:
256,192,34508,1,2,0:0:0:0:
256,192,34591,1,0,0:0:0:0:
256,192,34675,1,6,0:0:0:0:
256,192,34841,1,2,0:0:0:0:
256,192,34925,1,0,0:0:0:0:
256,192,35008,1,2,0:0:0:0:
256,192,35175,1,0,0:0:0:0:
256,192,35258,1,2,0:0:0:0:
256,192,35341,1,0,0:0:0:0:
256,192,35425,1,2,0:0:0:0:
256,192,35508,1,2,0:0:0:0:
256,192,35675,1,2,0:0:0:0:
256,192,35758,1,2,0:0:0:0:
256,192,35841,1,2,0:0:0:0:
256,192,35925,1,2,0:0:0:0:
256,192,36008,1,2,0:0:0:0:
256,192,36175,1,0,0:0:0:0:
256,192,36258,1,0,0:0:0:0:
256,192,36341,1,2,0:0:0:0:
256,192,36508,1,0,0:0:0:0:
256,192,36591,1,2,0:0:0:0:
256,192,36675,1,2,0:0:0:0:
256,192,36758,1,0,0:0:0:0:
256,192,36841,1,0,0:0:0:0:
256,192,36925,1,0,0:0:0:0:
256,192,37008,1,0,0:0:0:0:
256,192,37175,1,2,0:0:0:0:
256,192,37258,1,0,0:0:0:0:
256,192,37341,1,6,0:0:0:0:
256,192,37508,1,0,0:0:0:0:
256,192,37591,1,0,0:0:0:0:
256,192,37675,1,6,0:0:0:0:
256,192,37841,1,2,0:0:0:0:
256,192,37925,1,0,0:0:0:0:
256,192,38008,1,0,0:0:0:0:
256,192,38091,1,2,0:0:0:0:
256,192,38175,1,2,0:0:0:0:
256,192,38341,1,2,0:0:0:0:
256,192,38425,1,0,0:0:0:0:
256,192,38508,1,2,0:0:0:0:
256,192,38591,1,2,0:0:0:0:
256,192,38675,1,0,0:0:0:0:
256,192,38841,1,2,0:0:0:0:
256,192,38925,1,0,0:0:0:0:
256,192,39008,1,2,0:0:0:0:
256,192,39091,1,0,0:0:0:0:
256,192,39175,1,2,0:0:0:0:
256,192,39342,1,2,0:0:0:0:
256,192,39508,1,2,0:0:0:0:
256,192,39592,1,0,0:0:0:0:
256,192,39675,1,2,0:0:0:0:
256,192,39758,1,2,0:0:0:0:
256,192,39842,1,4,0:0:0:0:
256,192,40008,1,2,0:0:0:0:
256,192,40092,1,0,0:0:0:0:
256,192,40175,1,0,0:0:0:0:
256,192,40258,1,2,0:0:0:0:
256,192,40342,1,2,0:0:0:0:
256,192,40425,1,0,0:0:0:0:
256,192,40508,1,6,0:0:0:0:
256,192,40675,1,0,0:0:0:0:
256,192,40758,1,0,0:0:0:0:
256,192,40842,1,2,0:0:0:0:
256,192,40925,1,0,0:0:0:0:
256,192,41008,1,0,0:0:0:0:
256,192,41175,1,0,0:0:0:0:
256,192,41258,1,2,0:0:0:0:
256,192,41342,1,4,0:0:0:0:
256,192,41508,1,0,0:0:0:0:
256,192,41592,1,2,0:0:0:0:
256,192,41675,1,0,0:0:0:0:
256,192,41842,1,2,0:0:0:0:
256,192,42008,1,2,0:0:0:0:
256,192,42175,1,0,0:0:0:0:
256,192,42258,1,0,0:0:0:0:
256,192,42342,1,2,0:0:0:0:
256,192,42508,1,2,0:0:0:0:
256,192,42592,1,2,0:0:0:0:
256,192,42675,1,0,0:0:0:0:
256,192,42758,1,2,0:0:0:0:
256,192,42842,1,0,0:0:0:0:
256,192,43008,1,0,0:0:0:0:
256,192,43175,1,0,0:0:0:0:
256,192,43258,1,2,0:0:0:0:
256,192,43342,1,2,0:0:0:0:
256,192,43425,1,2,0:0:0:0:
256,192,43508,1,0,0:0:0:0:
256,192,43675,1,6,0:0:0:0:
256,192,43842,1,0,0:0:0:0:
256,192,43925,1,0,0:0:0:0:
256,192,44008,1,0,0:0:0:0:
256,192,44092,1,2,0:0:0:0:
256,192,44175,1,0,0:0:0:0:
256,192,44342,1,2,0:0:0:0:
256,192,44425,1,0,0:0:0:0:
256,192,44508,1,2,0:0:0:0:
256,192,44592,1,0,0:0:0:0:
256,192,44675,1,2,0:0:0:0:
256,192,44842,1,0,0:0:0:0:
256,192,45008,1,0,0:0:0:0:
256,192,45092,1,0,0:0:0:0:
256,192,45175,1,0,0:0:0:0:
256,192,45258,1,0,0:0:0:0:
256,192,45342,1,0,0:0:0:0:
256,192,45508,1,4,0:0:0:0:
256,192,45675,1,2,0:0:0:0:
256,192,45758,1,2,0:0:0:0:
256,192,45842,1,0,0:0:0:0:
256,192,45925,1,0,0:0:0:0:
256,192,46008,1,2,0:0:0:0:
256,192,46092,1,2,0:0:0:0:
256,192,46175,1,0,0:0:0:0:
256,192,46342,1,2,0:0:0:0:
256,192,46425,1,0,0:0:0:0:
256,192,46508,1,0,0:0:0:0:
256,192,46592,1,0,0:0:0:0:
256,192,46675,1,6,0:0:0:0:
256,192,46842,1,6,0:0:0:0:
256,192,47008,1,2,0:0:0:0:
256,192,47092,1,2,0:0:0:0:
256,192,47175,1,0,0:0:0:0:
256,192,47258,1,0,0:0:0:0:
256,192,47342,1,2,0:0:0:0:
256,192,47508,1,2,0:0:0:0:
256,192,47592,1,0,0:0:0:0:
256,192,47675,1,0,0:0:0:0:
256,192,47758,1,2,0:0:0:0:
256,192,47842,1,0,0:0:0:0:
256,192,48008,1,6,0:0:0:0:
256,192,48175,1,0,0:0:0:0:
256,192,48342,1,2,0:0:0:0:
256,192,48425,1,0,0:0:0:0:
256,192,48508,1,0,0:0:0:0:
256,192,48592,1,2,0:0:0:0:
256,192,48675,1,2,0:0:0:0:
256,192,48758,1,0,0:0:0:0:
256,192,48842,1,0,0:0:0:0:
256,192,49008,1,4,0:0:0:0:
256,192,49175,1,2,0:0:0:0:
256,192,49342,1,2,0:0:0:0:
256,192,49508,1,2,0:0:0:0:
256,192,49592,1,0,0:0:0:0:
256,192,49675,1,2,0:0:0:0:
256,192,49758,1,0,0:0:0:0:
256,192,49842,1,2,0:0:0:0:
256,192,50008,1,2,0:0:0:0:
256,192,50175,1,0,0:0:0:0:
256,192,50258,1,2,0:0:0:0:
256,192,50342,1,0,0:0:0:0:
256,192,50425,1,2,0:0:0:0:
256,192,50508,1,0,0:0:0:0:
256,192,50675,1,2,0:0:0:0:
256,192,50758,1,0,0:0:0:0:
256,192,50842,1,6,0:0:0:0:
256,192,51008,1,2,0:0:0:0:
256,192,51175,1,2,0:0:0:0:
256,192,51258,1,2,0:0:0:0:
256,192,51342,1,2,0:0:0:0:
256,192,51425,1,2,0:0:0:0:
256,192,51508,1,0,0:0:0:0:
256,192,51592,1,2,0:0:0:0:
256,192,51675,1,0,0:0:0:0:
256,192,51842,1,2,0:0:0:0:
256,192,52008,1,0,0:0:0:0:
256,192,52092,1,2,0:0:0:0:
256,192,52175,1,0,0:0:0:0:
256,192,52342,1,2,0:0:0:0:
256,192,52425,1,2,0:0:0:0:
256,192,52508,1,0,0:0:0:0:
256,192,52675,1,6,0:0:0:0:
256,192,52842,1,2,0:0:0:0:
256,192,52925,1,0,0:0:0:0:
256,192,53008,1,6,0:0:0:0:
256,192,53175,1,2,0:0:0:0:
256,192,53258,1,0,0:0:0:0:
256,192,53342,1,0,0:0:0:0:
256,192,53425,1,2,0:0:0:0:
256,192,53508,1,4,0:0:0:0:
256,192,53675,1,6,0:0:0:0:
256,192,53842,1,0,0:0:0:0:
256,192,53925,1,2,0:0:0:0:
256,192,54008,1,2,0:0:0:0:
256,192,54092,1,2,0:0:0:0:
256,192,54175,1,0,0:0:0:0:
256,192,54342,1,0,0:0:0:0:
256,192,54425,1,0,0:0:0:0:
256,192,54508,1,2,0:0:0:0:
256,192,54592,1,2,0:0:0:0:
256,192,54675,1,0,0:0:0:0:
256,192,54842,1,0,0:0:0:0:
256,192,54925,1,2,0:0:0:0:
256,192,55008,1,2,0:0:0:0:
256,192,55092,1,0,0:0:0:0:
256,192,55175,1,0,0:0:0:0:
256,192,55342,1,2,0:0:0:0:
256,192,55508,1,6,0:0:0:0:
256,192,55675,1,0,0:0:0:0:
256,192,55842,1,2,0:0:0:0:
256,192,55925,1,2,0:0:0:0:
256,192,56008,1,0,0:0:0:0:
256,192,56175,1,2,0:0:0:0:
256,192,56258,1,0,0:0:0:0:
256,192,56342,1,2,0:0:0:0:
256,192,56425,1,0,0:0:0:0:
256,192,56508,1,0,0:0:0:0:
256,192,56675,1,0,0:0:0:0:
256,192,56842,1,6,0:0:0:0:
256,192,57008,1,0,0:0:0:0:
256,192,57092,1,2,0:0:0:0:
256,192,57175,1,0,0:0:0:0:
256,192,57258,1,2,0:0:0:0:
256,192,57342,1,4,0:0:0:0:
256,192,57508,1,0,0:0:0:0:
256,192,57675,1,6,0:0:0:0:
256,192,57842,1,4,0:0:0:0:
256,192,58008,1,2,0:0:0:0:
256,192,58092,1,2,0:0:0:0:
256,192,58175,1,0,0:0:0:0:
256,192,58342,1,0,0:0:0:0:
256,192,58425,1,2,0:0:0:0:
256,192,58508,1,0,0:0:0:0:
256,192,58592,1,0,0:0:0:0:
256,192,58675,1,0,0:0:0:0:
256,192,58842,1,6,0:0:0:0:
256,192,59008,1,2,0:0:0:0:
256,192,59175,1,2,0:0:0:0:
256,192,59258,1,2,0:0:0:0:
256,192,59342,1,0,0:0:0:0:
256,192,59425,1,2,0:0:0:0:
256,192,59508,1,2,0:0:0:0:
256,192,59675,1,2,0:0:0:0:
256,192,59758,1,2,0:0:0:0:
256,192,59842,1,0,0:0:0:0:
256,192,59925,1,0,0:0:0:0:
256,192,60008,1,2,0:0:0:0:
256,192,60092,1,0,0:0:0:0:
256,192,60175,1,6,0:0:0:0:
256,192,60342,1,2,0:0:0:0:
256,192,60425,1,0,0:0:0:0:
256,192,60508,1,2,0:0:0:0:
256,192,60592,1,2,0:0:0:0:
256,192,60675,1,4,0:0:0:0:
256,192,60842,1,0,0:0:0:0:
256,192,60925,1,2,0:0:0:0:
256,192,61008,1,0,0:0:0:0:
256,192,61175,1,2,0:0:0:0:
256,192,61342,1,0,0:0:0:0:
256,192,61425,1,0,0:0:0:0:
256,192,61508,1,2,0:0:0:0:
256,192,61592,1,2,0:0:0:0:
256,192,61675,1,2,0:0:0:0:
256,192,61758,1,0,0:0:0:0:
256,192,61842,1,2,0:0:0:0:
256,192,62008,1,2,0:0:0:0:
256,192,62175,1,2,0:0:0:0:
256,192,62258,1,2,0:0:0:0:
256,192,62342,1,4,0:0:0:0:
256,192,62508,1,2,0:0:0:0:
256,192,62592,1,0,0:0:0:0:
256,192,62675,1,0,0:0:0:0:
256,192,62758,1,0,0:0:0:0:
256,192,62842,1,2,0:0:0:0:
256,192,62925,1,2,0:0:0:0:
256,192,63008,1,2,0:0:0:0:
256,192,63175,1,0,0:0:0:0:
256,192,63258,1,0,0:0:0:0:
256,192,63342,1,2,0:0:0:0:
256,192,63425,1,0,0:0:0:0:
256,192,63508,1,2,0:0:0:0:
256,192,63675,1,2,0:0:0:0:
256,192,63758,1,2,0:0:0:0:
256,192,63842,1,4,0:0:0:0:
256,192,64008,1,0,0:0:0:0:
256,192,64092,1,0,0:0:0:0:
256,192,64175,1,0,0:0:0:0:
256,192,64258,1,0,0:0:0:0:
256,192,64342,1,0,0:0:0:0:
256,192,64508,1,2,0:0:0:0:
256,192,64592,1,0,0:0:0:0:
256,192,64675,1,0,0:0:0:0:
256,192,64758,1,0,0:0:0:0:
256,192,64842,1,2,0:0:0:0:
256,192,64925,1,2,0:0:0:0:
256,192,65008,1,2,0:0:0:0:
256,192,65175,1,0,0:0:0:0:
256,192,65258,1,0,0:0:0:0:
256,192,65342,1,0,0:0:0:0:
256,192,65425,1,0,0:0:0:0:
256,192,65508,1,2,0:0:0:0:
256,192,65592,1,0,0:0:0:0:
256,192,65675,1,6,0:0:0:0:
256,192,65842,1,0,0:0:0:0:
256,192,65925,1,0,0:0:0:0:
256,192,66008,1,2,0:0:0:0:
256,192,66092,1,2,0:0:0:0:
256,192,66175,1,0,0:0:0:0:
256,192,66258,1,2,0:0:0:0:
256,192,66342,1,0,0:0:0:0:
256,192,66508,1,0,0:0:0:0:
256,192,66592,1,2,0:0:0:0:
256,192,66675,1,2,0:0:0:0:
256,192,66758,1,0,0:0:0:0:
256,192,66842,1,2,0:0:0:0:
256,192,67008,1,2,0:0:0:0:
256,192,67092,1,2,0:0:0:0:
256,192,67175,1,0,0:0:0:0:
256,192,67258,1,0,0:0:0:0:
256,192,67342,1,2,0:0:0:0:
256,192,67425,1,0,0:0:0:0:
256,192,67508,1,0,0:0:0:0:
256,192,67675,1,2,0:0:0:0:
256,192,67758,1,2,0:0:0:0:
256,192,67842,1,2,0:0:0:0:
256,192,67925,1,0,0:0:0:0:
256,192,68008,1,6,0:0:0:0:
256,192,68175,1,0,0:0:0:0:
256,192,68258,1,2,0:0:0:0:
256,192,68342,1,0,0:0:0:0:
256,192,68425,1,0,0:0:0:0:
256,192,68508,1,0,0:0:0:0:
256,192,68592,1,0,0:0:0:0:
256,192,68675,1,2,0:0:0:0:
256,192,68842,1,2,0:0:0:0:
256,192,68925,1,2,0:0:0:0:
256,192,69008,1,0,0:0:0:0:
256,192,69092,1,2,0:0:0:0:
256,192,69175,1,2,0:0:0:0:
256,192,69342,1,0,0:0:0:0:
256,192,69425,1,0,0:0:0:0:
256,192,69508,1,2,0:0:0:0:
256,192,69675,1,2,0:0:0:0:
256,192,69758,1,0,0:0:0:0:
256,192,69842,1,0,0:0:0:0:
256,192,69925,1,0,0:0:0:0:
256,192,70008,1,2,0:0:0:0:
256,192,70175,1,0,0:0:0:0:
256,192,70342,1,0,0:0:0:0:
256,192,70425,1,0,0:0:0:0:
256,192,70508,1,0,0:0:0:0:
256,192,70675,1,2,0:0:0:0:
256,192,70842,1,0,0:0:0:0:
256,192,70925,1,0,0:0:0:0:
256,192,71008,1,2,0:0:0:0:
256,192,71092,1,2,0:0:0:0:
256,192,71175,1,4,0:0:0:0:
256,192,71342,1,0,0:0:0:0:
256,192,71425,1,2,0:0:0:0:
256,192,71508,1,2,0:0:0:0:
256,192,71592,1,0,0:0:0:0:
256,192,71675,1,6,0:0:0:0:
256,192,71842,1,0,0:0:0:0:
256,192,72008,1,2,0:0:0:0:
256,192,72092,1,2,0:0:0:0:
256,192,72175,1,0,0:0:0:0:
256,192,72258,1,2,0:0:0:0:
256,192,72342,1,0,0:0:0:0:
256,192,72508,1,0,0:0:0:0:
256,192,72592,1,0,0:0:0:0:
256,192,72675,1,6,0:0:0:0:
256,192,72842,1,0,0:0:0:0:
256,192,72925,1,2,0:0:0:0:
256,192,73008,1,2,0:0:0:0:
256,192,73175,1,0,0:0:0:0:
256,192,73342,1,0,0:0:0:0:
256,192,73425,1,0,0:0:0:0:
256,192,73508,1,2,0:0:0:0:
256,192,73592,1,2,0:0:0:0:
256,192,73675,1,0,0:0:0:0:
256,192,73758,1,0,0:0:0:0:
256,192,73842,1,2,0:0:0:0:
256,192,74008,1,0,0:0:0:0:
256,192,74175,1,6,0:0:0:0:
256,192,74342,1,2,0:0:0:0:
256,192,74425,1,0,0:0:0:0:
256,192,74508,1,2,0:0:0:0:
256,192,74675,1,2,0:0:0:0:
256,192,74842,1,6,0:0:0:0:
256,192,75008,1,0,0:0:0:0:
256,192,75175,1,2,0:0:0:0:
256,192,75342,1,0,0:0:0:0:
256,192,75425,1,2,0:0:0:0:
256,192,75508,1,0,0:0:0:0:
256,192,75592,1,0,0:0:0:0:
256,192,75675,1,6,0:0:0:0:
256,192,75842,1,0,0:0:0:0:
256,192,76008,1,2,0:0:0:0:
256,192,76092,1,2,0:0:0:0:
256,192,76175,1,0,0:0:0:0:
256,192,76258,1,0,0:0:0:0:
256,192,76342,1,2,0:0:0:0:
256,192,76508,1,0,0:0:0:0:
256,192,76592,1,0,0:0:0:0:
256,192,76675,1,2,0:0:0:0:
256,192,76758,1,2,0:0:0:0:
256,192,76842,1,0,0:0:0:0:
256,192,77008,1,2,0:0:0:0:
256,192,77175,1,0,0:0:0:0:
256,192,77258,1,0,0:0:0:0:
256,192,77342,1,0,0:0:0:0:
256,192,77425,1,0,0:0:0:0:
256,192,77508,1,2,0:0:0:0:
256,192,77592,1,2,0:0:0:0:
256,192,77675,1,4,0:0:0:0:
256,192,77842,1,6,0:0:0:0:
256,192,78008,1,2,0:0:0:0:
256,192,78092,1,0,0:0:0:0:
256,192,78175,1,0,0:0:0:0:
256,192,78342,1,2,0:0:0:0:
256,192,78508,1,4,0:0:0:0:
256,192,78675,1,0,0:0:0:0:
256,192,78758,1,0,0:0:0:0:
256,192,78841,1,2,0:0:0:0:
256,192,78925,1,0,0:0:0:0:
256,192,79008,1,0,0:0:0:0:
256,192,79175,1,2,0:0:0:0:
256,192,79341,1,2,0:0:0:0:
256,192,79425,1,0,0:0:0:0:
256,192,79508,1,2,0:0:0:0:
256,192,79675,1,0,0:0:0:0:
256,192,79758,1,0,0:0:0:0:
256,192,79841,1,0,0:0:0:0:
256,192,79925,1,0,0:0:0:0:
256,192,80008,1,6,0:0:0:0:
256,192,80175,1,2,0:0:0:0:
256,192,80258,1,2,0:0:0:0:
256,192,80341,1,2,0:0:0:0:
256,192,80425,1,2,0:0:0:0:
256,192,80508,1,2,0:0:0:0:
256,192,80591,1,0,0:0:0:0:
256,192,80675,1,2,0:0:0:0:
256,192,80841,1,0,0:0:0:0:
256,192,81008,1,2,0:0:0:0:
256,192,81091,1,0,0:0:0:0:
256,192,81175,1,2,0:0:0:0:
256,192,81258,1,2,0:0:0:0:
256,192,81341,1,0,0:0:0:0:
256,192,81425,1,2,0:0:0:0:
256,192,81508,1,4,0:0:0:0:
256,192,81675,1,2,0:0:0:0:
256,192,81758,1,2,0:0:0:0:
256,192,81841,1,0,0:0:0:0:
256,192,81925,1,2,0:0:0:0:
256,192,82008,1,2,0:0:0:0:
256,192,82175,1,2,0:0:0:0:
256,192,82258,1,2,0:0:0:0:
256,192,82341,1,4,0:0:0:0:
256,192,82508,1,2,0:0:0:0:
256,192,82591,1,0,0:0:0:0:
256,192,82675,1,0,0:0:0:0:
256,192,82758,1,0,0:0:0:0:
256,192,82841,1,2,0:0:0:0:
256,192,83008,1,0,0:0:0:0:
256,192,83091,1,0,0:0:0:0:
256,192,83175,1,6,0:0:0:0:
256,192,83341,1,2,0:0:0:0:
256,192,83425,1,2,0:0:0:0:
256,192,83508,1,2,0:0:0:0:
256,192,83591,1,2,0:0:0:0:
256,192,83675,1,0,0:0:0:0:
256,192,83758,1,2,0:0:0:0:
256,192,83841,1,0,0:0:0:0:
256,192,84008,1,0,0:0:0:0:
256,192,84091,1,2,0:0:0:0:
256,192,84175,1,0,0:0:0:0:
256,192,84258,1,2,0:0:0:0:
256,192,84341,1,2,0:0:0:0:
256,192,84508,1,0,0:0:0:0:
256,192,84591,1,2,0:0:0:0:
256,192,84675,1,2,0:0:0:0:
256,192,84758,1,0,0:0:0:0:
256,192,84841,1,0,0:0:0:0:
256,192,85008,1,0,0:0:0:0:
256,192,85091,1,0,0:0:0:0:
256,192,85175,1,2,0:0:0:0:
256,192,85258,1,2,0:0:0:0:
256,192,85341,1,0,0:0:0:0:
256,192,85425,1,0,0:0:0:0:
256,192,85508,1,2,0:0:0:0:
256,192,85675,1,2,0:0:0:0:
256,192,85758,1,2,0:0:0:0:
256,192,85841,1,0,0:0:0:0:
256,192,85925,1,2,0:0:0:0:
256,192,86008,1,0,0:0:0:0:
256,192,86175,1,2,0:0:0:0:
256,192,86258,1,2,0:0:0:0:
256,192,86341,1,4,0:0:0:0:
256,192,86508,1,0,0:0:0:0:
256,192,86591,1,0,0:0:0:0:
256,192,86675,1,0,0:0:0:0:
256,192,86841,1,0,0:0:0:0:
256,192,87008,1,2,0:0:0:0:
256,192,87091,1,2,0:0:0:0:
256,192,87175,1,2,0:0:0:0:
256,192,87258,1,2,0:0:0:0:
256,192,87341,1,6,0:0:0:0:
256,192,87508,1,0,0:0:0:0:
256,192,87591,1,2,0:0:0:0:
256,192,87675,1,0,0:0:0:0:
256,192,87841,1,2,0:0:0:0:
256,192,88008,1,0,0:0:0:0:
256,192,88091,1,2,0:0:0:0:
256,192,88175,1,0,0:0:0:0:
256,192,88258,1,0,0:0:0:0:
256,192,88341,1,2,0:0:0:0:
256,192,88508,1,2,0:0:0:0:
256,192,88591,1,0,0:0:0:0:
256,192,88675,1,2,0:0:0:0:
256,192,88758,1,2,0:0:0:0:
256,192,88841,1,4,0:0:0:0:
256,192,89008,1,2,0:0:0:0:
256,192,89091,1,2,0:0:0:0:
256,192,89175,1,0,0:0:0:0:
256,192,89341,1,0,0:0:0:0:
256,192,89425,1,2,0:0:0:0:
256,192,89508,1,2,0:0:0:0:
256,192,89591,1,2,0:0:0:0:
256,192,89675,1,0,0:0:0:0:
256,192,89758,1,0,0:0:0:0:
256,192,89841,1,2,0:0:0:0:
256,192,90008,1,2,0:0:0:0:
256,192,90091,1,0,0:0:0:0:
256,192,90175,1,2,0:0:0:0:
256,192,90258,1,0,0:0:0:0:
256,192,90341,1,0,0:0:0:0:
256,192,90425,1,0,0:0:0:0:
256,192,90508,1,2,0:0:0:0:
256,192,90675,1,2,0:0:0:0:
256,192,90758,1,2,0:0:0:0:
256,192,90841,1,0,0:0:0:0:
256,192,91008,1,2,0:0:0:0:
256,192,91091,1,0,0:0:0:0:
256,192,91175,1,2,0:0:0:0:
256,192,91258,1,0,0:0:0:0:
256,192,91341,1,0,0:0:0:0:
256,192,91425,1,2,0:0:0:0:
256,192,91508,1,4,0:0:0:0:
256,192,91675,1,2,0:0:0:0:
256,192,91758,1,2,0:0:0:0:
256,192,91841,1,2,0:0:0:0:
256,192,91925,1,0,0:0:0:0:
256,192,92008,1,2,0:0:0:0:
256,192,92091,1,0,0:0:0:0:
256,192,92175,1,6,0:0:0:0:
256,192,92341,1,2,0:0:0:0:
256,192,92425,1,2,0:0:0:0:
256,192,92508,1,2,0:0:0:0:
256,192,92591,1,0,0:0:0:0:
256,192,92675,1,0,0:0:0:0:
256,192,92841,1,0,0:0:0:0:
256,192,93008,1,2,0:0:0:0:
256,192,93091,1,2,0:0:0:0:
256,192,93175,1,2,0:0:0:0:
256,192,93258,1,2,0:0:0:0:
256,192,93341,1,2,0:0:0:0:
256,192,93508,1,2,0:0:0:0:
256,192,93675,1,0,0:0:0:0:
256,192,93758,1,0,0:0:0:0:
256,192,93841,1,2,0:0:0:0:
256,192,93925,1,2,0:0:0:0:
256,192,94008,1,0,0:0:0:0:
256,192,94175,1,2,0:0:0:0:
256,192,94341,1,2,0:0:0:0:
256,192,94425,1,2,0:0:0:0:
256,192,94508,1,2,0:0:0:0:
256,192,94675,1,2,0:0:0:0:
256,192,94758,1,0,0:0:0:0:
256,192,94841,1,0,0:0:0:0:
256,192,94925,1,0,0:0:0:0:
256,192,95008,1,6,0:0:0:0:
256,192,95175,1,2,0:0:0:0:
256,192,95258,1,0,0:0:0:0:
256,192,95341,1,2,0:0:0:0:
256,192,95425,1,2,0:0:0:0:
256,192,95508,1,2,0:0:0:0:
256,192,95675,1,2,0:0:0:0:
256,192,95758,1,0,0:0:0:0:
256,192,95841,1,0,0:0:0:0:
256,192,96008,1,0,0:0:0:0:
256,192,96175,1,2,0:0:0:0:
256,192,96258,1,0,0:0:0:0:
256,192,96341,1,0,0:0:0:0:
256,192,96425,1,2,0:0:0:0:
256,192,96508,1,4,0:0:0:0:
256,192,96675,1,0,0:0:0:0:
256,192,96758,1,2,0:0:0:0:
256,192,96841,1,2,0:0:0:0:
256,192,96925,1,2,0:0:0:0:
256,192,97008,1,4,0:0:0:0:
256,192,97175,1,2,0:0:0:0:
256,192,97341,1,2,0:0:0:0:
256,192,97425,1,2,0:0:0:0:
256,192,97508,1,2,0:0:0:0:
256,192,97591,1,2,0:0:0:0:
256,192,97675,1,2,0:0:0:0:
256,192,97841,1,0,0:0:0:0:
256,192,97925,1,2,0:0:0:0:
256,192,98008,1,2,0:0:0:0:
256,192,98091,1,2,0:0:0:0:
256,192,98175,1,2,0:0:0:0:
256,192,98341,1,0,0:0:0:0:
256,192,98425,1,0,0:0:0:0:
256,192,98508,1,2,0:0:0:0:
256,192,98591,1,2,0:0:0:0:
256,192,98675,1,0,0:0:0:0:
256,192,98841,1,0,0:0:0:0:
256,192,99008,1,2,0:0:0:0:
256,192,99091,1,2,0:0:0:0:
256,192,99175,1,2,0:0:0:0:
256,192,99258,1,0,0:0:0:0:
256,192,99341,1,0,0:0:0:0:
256,192,99425,1,0,0:0:0:0:
256,192,99508,1,2,0:0:0:0:
256,192,99675,1,2,0:0:0:0:
256,192,99758,1,2,0:0:0:0:
256,192,99841,1,0,0:0:0:0:
256,192,99925,1,2,0:0:0:0:
256,192,100008,1,2,0:0:0:0:
256,192,100175,1,4,0:0:0:0:
256,192,100341,1,0,0:0:0:0:
256,192,100425,1,0,0:0:0:0:
256,192,100508,1,0,0:0:0:0:
256,192,100591,1,2,0:0:0:0:
256,192,100675,1,0,0:0:0:0:
256,192,100841,1,0,0:0:0:0:
256,192,100925,1,2,0:0:0:0:
256,192,101008,1,2,0:0:0:0:
256,192,101091,1,0,0:0:0:0:
256,192,101175,1,2,0:0:0:0:
256,192,101341,1,0,0:0:0:0:
256,192,101425,1,0,0:0:0:0:
256,192,101508,1,2,0:0:0:0:
256,192,101591,1,2,0:0:0:0:
256,192,101675,1,2,0:0:0:0:
256,192,101758,1,0,0:0:0:0:
256,192,101841,1,0,0:0:0:0:
256,192,102008,1,4,0:0:0:0:
256,192,102175,1,2,0:0:0:0:
256,192,102258,1,2,0:0:0:0:
256,192,102341,1,2,0:0:0:0:
256,192,102425,1,2,0:0:0:0:
256,192,102508,1,0,0:0:0:0:
256,192,102675,1,0,0:0:0:0:
256,192,102841,1,2,0:0:0:0:
256,192,102925,1,2,0:0:0:0:
256,192,103008,1,0,0:0:0:0:
256,192,103091,1,0,0:0:0:0:
256,192,103175,1,6,0:0:0:0:
256,192,103341,1,4,0:0:0:0:
256,192,103508,1,0,0:0:0:0:
256,192,103591,1,0,0:0:0:0:
256,192,103675,1,0,0:0:0:0:
256,192,103758,1,0,0:0:0:0:
256,192,103841,1,0,0:0:0:0:
256,192,104008,1,2,0:0:0:0:
256,192,104091,1,0,0:0:0:0:
256,192,104175,1,0,0:0:0:0:
256,192,104258,1,0,0:0:0:0:
256,192,104341,1,6,0:0:0:0:
256,192,104508,1,2,0:0:0:0:
256,192,104591,1,0,0:0:0:0:
256,192,104675,1,2,0:0:0:0:
256,192,104758,1,0,0:0:0:0:
256,192,104841,1,0,0:0:0:0:
256,192,104925,1,0,0:0:0:0:
256,192,105008,1,0,0:0:0:0:
256,192,105175,1,4,0:0:0:0:
256,192,105341,1,2,0:0:0:0:
256,192,105508,1,0,0:0:0:0:
256,192,105675,1,4,0:0:0:0:
256,192,105841,1,0,0:0:0:0:
256,192,106008,1,0,0:0:0:0:
256,192,106091,1,2,0:0:0:0:
256,192,106175,1,2,0:0:0:0:
256,192,106258,1,2,0:0:0:0:
256,192,106341,1,0,0:0:0:0:
256,192,106425,1,0,0:0:0:0:
256,192,106508,1,2,0:0:0:0:
256,192,106675,1,0,0:0:0:0:
256,192,106758,1,0,0:0:0:0:
256,192,106841,1,2,0:0:0:0:
256,192,106925,1,2,0:0:0:0:
256,192,107008,1,0,0:0:0:0:
256,192,107175,1,6,0:0:0:0:
256,192,107341,1,0,0:0:0:0:
256,192,107425,1,2,0:0:0:0:
256,192,107508,1,0,0:0:0:0:
256,192,107675,1,0,0:0:0:0:
256,192,107758,1,0,0:0:0:0:
256,192,107841,1,0,0:0:0:0:
256,192,107925,1,2,0:0:0:0:
256,192,108008,1,0,0:0:0:0:
256,192,108175,1,2,0:0:0:0:
256,192,108341,1,0,0:0:0:0:
256,192,108425,1,2,0:0:0:0:
256,192,108508,1,2,0:0:0:0:
256,192,108675,1,0,0:0:0:0:
256,192,108841,1,2,0:0:0:0:
256,192,108925,1,2,0:0:0:0:
256,192,109008,1,0,0:0:0:0:
256,192,109091,1,2,0:0:0:0:
256,192,109175,1,0,0:0:0:0:
256,192,109341,1,2,0:0:0:0:
256,192,109425,1,0,0:0:0:0:
256,192,109508,1,0,0:0:0:0:
256,192,109591,1,0,0:0:0:0:
256,192,109675,1,2,0:0:0:0:
256,192,109841,1,6,0:0:0:0:
256,192,110008,1,0,0:0:0:0:
256,192,110091,1,2,0:0:0:0:
256,192,110175,1,2,0:0:0:0:
256,192,110258,1,0,0:0:0:0:
256,192,110341,1,2,0:0:0:0:
256,192,110425,1,2,0:0:0:0:
256,192,110508,1,0,0:0:0:0:
256,192,110675,1,0,0:0:0:0:
256,192,110841,1,0,0:0:0:0:
256,192,110925,1,0,0:0:0:0:
256,192,111008,1,0,0:0:0:0:
256,192,111091,1,0,0:0:0:0:
256,192,111175,1,2,0:0:0:0:
256,192,111341,1,0,0:0:0:0:
256,192,111508,1,0,0:0:0:0:
256,192,111591,1,2,0:0:0:0:
256,192,111675,1,2,0:0:0:0:
256,192,111758,1,0,0:0:0:0:
256,192,111841,1,0,0:0:0:0:
256,192,111925,1,0,0:0:0:0:
256,192,112008,1,6,0:0:0:0:
256,192,112175,1,4,0:0:0:0:
256,192,112341,1,2,0:0:0:0:
256,192,112425,1,2,0:0:0:0:
256,192,112508,1,2,0:0:0:0:
256,192,112591,1,2,0:0:0:0:
256,192,112675,1,0,0:0:0:0:
256,192,112758,1,2,0:0:0:0:
256,192,112841,1,0,0:0:0:0:
256,192,113008,1,0,0:0:0:0:
256,192,113175,1,4,0:0:0:0:
256,192,113341,1,0,0:0:0:0:
256,192,113425,1,0,0:0:0:0:
256,192,113508,1,0,0:0:0:0:
256,192,113591,1,0,0:0:0:0:
256,192,113675,1,2,0:0:0:0:
256,192,113841,1,2,0:0:0:0:
256,192,114008,1,0,0:0:0:0:
256,192,114091,1,2,0:0:0:0:
256,192,114175,1,0,0:0:0:0:
256,192,114258,1,2,0:0:0:0:
256,192,114341,1,2,0:0:0:0:
256,192,114425,1,2,0:0:0:0:
256,192,114508,1,0,0:0:0:0:
256,192,114675,1,0,0:0:0:0:
256,192,114758,1,0,0:0:0:0:
256,192,114841,1,2,0:0:0:0:
256,192,114925,1,2,0:0:0:0:
256,192,115008,1,4,0:0:0:0:
256,192,115175,1,0,0:0:0:0:
256,192,115341,1,0,0:0:0:0:
256,192,115508,1,2,0:0:0:0:
256,192,115675,1,0,0:0:0:0:
256,192,115758,1,2,0:0:0:0:
256,192,115841,1,2,0:0:0:0:
256,192,115925,1,0,0:0:0:0:
256,192,116008,1,2,0:0:0:0:
256,192,116175,1,0,0:0:0:0:
256,192,116258,1,2,0:0:0:0:
256,192,116341,1,2,0:0:0:0:
256,192,116425,1,0,0:0:0:0:
256,192,116508,1,0,0:0:0:0:
256,192,116591,1,0,0:0:0:0:
256,192,116675,1,6,0:0:0:0:
256,192,116841,1,0,0:0:0:0:
256,192,116925,1,0,0:0:0:0:
256,192,117008,1,2,0:0:0:0:
256,192,117091,1,2,0:0:0:0:
256,192,117175,1,2,0:0:0:0:
256,192,117341,1,0,0:0:0:0:
256,192,117508,1,2,0:0:0:0:
256,192,117591,1,2,0:0:0:0:
256,192,117675,1,2,0:0:0:0:
256,192,117758,1,2,0:0:0:0:
256,192,117841,1,0,0:0:0:0:
256,192,118008,1,0,0:0:0:0:
256,192,118091,1,2,0:0:0:0:
256,192,118175,1,0,0:0:0:0:
256,192,118258,1,2,0:0:0:0:
256,192,118341,1,2,0:0:0:0:
256,192,118508,1,2,0:0:0:0:
256,192,118591,1,2,0:0:0:0:
256,192,118675,1,2,0:0:0:0:
256,192,118758,1,2,0:0:0:0:
256,192,118841,1,0,0:0:0:0:
256,192,119008,1,0,0:0:0:0:
256,192,119091,1,0,0:0:0:0:
256,192,119175,1,0,0:0:0:0:
256,192,119258,1,0,0:0:0:0:
256,192,119341,1,2,0:0:0:0:
256,192,119508,1,0,0:0:0:0:
256,192,119591,1,0,0:0:0:0:
256,192,119675,1,0,0:0:0:0:
256,192,119841,1,0,0:0:0:0:
256,192,119925,1,2,0:0:0:0:
256,192,120008,1,0,0:0:0:0:
256,192,120091,1,2,0:0:0:0:
256,192,120175,1,4,0:0:0:0:
256,192,120341,1,0,0:0:0:0:
256,192,120425,1,2,0:0:0:0:
256,192,120508,1,0,0:0:0:0:
256,192,120591,1,0,0:0:0:0:
256,192,120675,1,0,0:0:0:0:
256,192,120841,1,2,0:0:0:0:
256,192,120925,1,0,0:0:0:0:
256,192,121008,1,0,0:0:0:0:
256,192,121091,1,0,0:0:0:0:
256,192,121175,1,2,0:0:0:0:
256,192,121258,1,2,0:0:0:0:
256,192,121341,1,0,0:0:0:0:
256,192,121508,1,2,0:0:0:0:
256,192,121591,1,2,0:0:0:0:
256,192,121675,1,0,0:0:0:0:
256,192,121758,1,2,0:0:0:0:
256,192,121841,1,0,0:0:0:0:
256,192,122008,1,2,0:0:0:0:
256,192,122091,1,2,0:0:0:0:
256,192,122175,1,0,0:0:0:0:
256,192,122341,1,0,0:0:0:0:
256,192,122425,1,0,0:0:0:0:
256,192,122508,1,0,0:0:0:0:
256,192,122591,1,0,0:0:0:0:
256,192,122675,1,0,0:0:0:0:
256,192,122841,1,2,0:0:0:0:
256,192,122925,1,2,0:0:0:0:
256,192,123008,1,0,0:0:0:0:
256,192,123091,1,2,0:0:0:0:
256,192,123175,1,2,0:0:0:0:
256,192,123341,1,0,0:0:0:0:
256,192,123425,1,2,0:0:0:0:
256,192,123508,1,2,0:0:0:0:
256,192,123591,1,2,0:0:0:0:
256,192,123675,1,0,0:0:0:0:
256,192,123841,1,2,0:0:0:0:
256,192,124008,1,6,0:0:0:0:
256,192,124175,1,2,0:0:0:0:
256,192,124341,1,2,0:0:0:0:
256,192,124425,1,2,0:0:0:0:
256,192,124508,1,2,0:0:0:0:
256,192,124591,1,2,0:0:0:0:
256,192,124675,1,0,0:0:0:0:
256,192,124841,1,2,0:0:0:0:
256,192,125008,1,0,0:0:0:0:
256,192,125175,1,0,0:0:0:0:
256,192,125258,1,2,0:0:0:0:
256,192,125341,1,2,0:0:0:0:
256,192,125425,1,2,0:0:0:0:
256,192,125508,1,4,0:0:0:0:
256,192,125675,1,0,0:0:0:0:
256,192,125841,1,4,0:0:0:0:
256,192,126008,1,2,0:0:0:0:
256,192,126091,1,0,0:0:0:0:
256,192,126175,1,2,0:0:0:0:
256,192,126258,1,2,0:0:0:0:
256,192,126341,1,0,0:0:0:0:
256,192,126425,1,2,0:0:0:0:
256,192,126508,1,2,0:0:0:0:
256,192,126675,1,0,0:0:0:0:
256,192,126758,1,0,0:0:0:0:
256,192,126841,1,2,0:0:0:0:
256,192,126925,1,2,0:0:0:0:
256,192,127008,1,0,0:0:0:0:
256,192,127091,1,2,0:0:0:0:
256,192,127175,1,0,0:0:0:0:
256,192,127341,1,0,0:0:0:0:
256,192,127425,1,2,0:0:0:0:
256,192,127508,1,0,0:0:0:0:
256,192,127591,1,0,0:0:0:0:
256,192,127675,1,0,0:0:0:0:
256,192,127841,1,2,0:0:0:0:
256,192,127925,1,0,0:0:0:0:
256,192,128008,1,0,0:0:0:0:
256,192,128091,1,0,0:0:0:0:
256,192,128175,1,6,0:0:0:0:
256,192,128341,1,0,0:0:0:0:
256,192,128425,1,0,0:0:0:0:
256,192,128508,1,0,0:0:0:0:
256,192,128591,1,2,0:0:0:0:
256,192,128675,1,0,0:0:0:0:
256,192,128841,1,0,0:0:0:0:
256,192,129008,1,2,0:0:0:0:
256,192,129091,1,2,0:0:0:0:
256,192,129175,1,0,0:0:0:0:
256,192,129341,1,0,0:0:0:0:
256,192,129425,1,0,0:0:0:0:
256,192,129508,1,0,0:0:0:0:
256,192,129591,1,2,0:0:0:0:
256,192,129675,1,2,0:0:0:0:
256,192,129758,1,2,0:0:0:0:
256,192,129841,1,0,0:0:0:0:
256,192,130008,1,0,0:0:0:0:
256,192,130091,1,0,0:0:0:0:
256,192,130175,1,0,0:0:0:0:
256,192,130341,1,2,0:0:0:0:
256,192,130425,1,2,0:0:0:0:
256,192,130508,1,0,0:0:0:0:
256,192,130591,1,0,0:0:0:0:
256,192,130675,1,0,0:0:0:0:
256,192,130841,1,2,0:0:0:0:
256,192,130925,1,2,0:0:0:0:
256,192,131008,1,2,0:0:0:0:
256,192,131091,1,0,0:0:0:0:
256,192,131175,1,2,0:0:0:0:
256,192,131258,1,2,0:0:0:0:
256,192,131341,1,2,0:0:0:0:
256,192,131508,1,0,0:0:0:0:
256,192,131675,1,2,0:0:0:0:
256,192,131758,1,0,0:0:0:0:
256,192,131841,1,2,0:0:0:0:
256,192,131925,1,0,0:0:0:0:
256,192,132008,1,6,0:0:0:0:
256,192,132175,1,2,0:0:0:0:
256,192,132258,1,0,0:0:0:0:
256,192,132341,1,2,0:0:0:0:
256,192,132425,1,0,0:0:0:0:
256,192,132508,1,0,0:0:0:0:
256,192,132591,1,0,0:0:0:0:
256,192,132675,1,0,0:0:0:0:
256,192,132841,1,0,0:0:0:0:
256,192,132925,1,0,0:0:0:0:
256,192,133008,1,2,0:0:0:0:
256,192,133091,1,2,0:0:0:0:
256,192,133175,1,0,0:0:0:0:
256,192,133341,1,6,0:0:0:0:
256,192,133508,1,2,0:0:0:0:
256,192,133591,1,2,0:0:0:0:
256,192,133675,1,2,0:0:0:0:
256,192,133758,1,2,0:0:0:0:
256,192,133841,1,4,0:0:0:0:
256,192,134008,1,0,0:0:0:0:
256,192,134091,1,2,0:0:0:0:
256,192,134175,1,0,0:0:0:0:
256,192,134341,1,2,0:0:0:0:
256,192,134425,1,2,0:0:0:0:
256,192,134508,1,0,0:0:0:0:
256,192,134591,1,0,0:0:0:0:
256,192,134675,1,2,0:0:0:0:
256,192,134841,1,2,0:0:0:0:
256,192,135008,1,0,0:0:0:0:
256,192,135175,1,0,0:0:0:0:
256,192,135258,1,0,0:0:0:0:
256,192,135341,1,2,0:0:0:0:
256,192,135425,1,0,0:0:0:0:
256,192,135508,1,2,0:0:0:0:
256,192,135591,1,2,0:0:0:0:
256,192,135675,1,4,0:0:0:0:
256,192,135841,1,2,0:0:0:0:
256,192,135925,1,2,0:0:0:0:
256,192,136008,1,0,0:0:0:0:
256,192,136091,1,0,0:0:0:0:
256,192,136175,1,2,0:0:0:0:
256,192,136341,1,0,0:0:0:0:
256,192,136425,1,2,0:0:0:0:
256,192,136508,1,2,0:0:0:0:
256,192,136591,1,2,0:0:0:0:
256,192,136675,1,0,0:0:0:0:
256,192,136841,1,2,0:0:0:0:
256,192,136925,1,0,0:0:0:0:
256,192,137008,1,2,0:0:0:0:
256,192,137091,1,2,0:0:0:0:
256,192,137175,1,0,0:0:0:0:
256,192,137258,1,0,0:0:0:0:
256,192,137341,1,6,0:0:0:0:
256,192,137508,1,2,0:0:0:0:
256,192,137591,1,0,0:0:0:0:
256,192,137675,1,6,0:0:0:0:
256,192,137841,1,2,0:0:0:0:
256,192,138008,1,2,0:0:0:0:
256,192,138091,1,0,0:0:0:0:
256,192,138175,1,2,0:0:0:0:
256,192,138341,1,0,0:0:0:0:
256,192,138425,1,0,0:0:0:0:
256,192,138508,1,2,0:0:0:0:
256,192,138591,1,2,0:0:0:0:
256,192,138675,1,0,0:0:0:0:
256,192,138841,1,0,0:0:0:0:
256,192,139008,1,0,0:0:0:0:
256,192,139175,1,0,0:0:0:0:
256,192,139258,1,2,0:0:0:0:
256,192,139341,1,0,0:0:0:0:
256,192,139425,1,2,0:0:0:0:
256,192,139508,1,2,0:0:0:0:
256,192,139591,1,0,0:0:0:0:
256,192,139675,1,2,0:0:0:0:
256,192,139841,1,2,0:0:0:0:
256,192,139925,1,0,0:0:0:0:
256,192,140008,1,0,0:0:0:0:
256,192,140091,1,0,0:0:0:0:
256,192,140175,1,0,0:0:0:0:
256,192,140258,1,0,0:0:0:0:
256,192,140341,1,6,0:0:0:0:
256,192,140508,1,0,0:0:0:0:
256,192,140591,1,0,0:0:0:0:
256,192,140675,1,0,0:0:0:0:
256,192,140841,1,0,0:0:0:0:
256,192,140925,1,2,0:0:0:0:
256,192,141008,1,0,0:0:0:0:
256,192,141091,1,0,0:0:0:0:
256,192,141175,1,2,0:0:0:0:
256,192,141258,1,2,0:0:0:0:
256,192,141341,1,0,0:0:0:0:
256,192,141508,1,0,0:0:0:0:
256,192,141675,1,2,0:0:0:0:
256,192,141758,1,2,0:0:0:0:
256,192,141841,1,2,0:0:0:0:
256,192,141925,1,0,0:0:0:0:
256,192,142008,1,6,0:0:0:0:
256,192,142175,1,0,0:0:0:0:
256,192,142258,1,0,0:0:0:0:
256,192,142341,1,0,0:0:0:0:
256,192,142425,1,0,0:0:0:0:
256,192,142508,1,0,0:0:0:0:
256,192,142591,1,2,0:0:0:0:
256,192,142675,1,2,0:0:0:0:
256,192,142841,1,0,0:0:0:0:
256,192,142925,1,2,0:0:0:0:
256,192,143008,1,2,0:0:0:0:
256,192,143091,1,2,0:0:0:0:
256,192,143175,1,2,0:0:0:0:
256,192,143258,1,2,0:0:0:0:
256,192,143341,1,2,0:0:0:0:
256,192,143508,1,0,0:0:0:0:
256,192,143591,1,0,0:0:0:0:
256,192,143675,1,2,0:0:0:0:
256,192,143758,1,2,0:0:0:0:
256,192,143841,1,0,0:0:0:0:
256,192,144008,1,0,0:0:0:0:
256,192,144091,1,2,0:0:0:0:
256,192,144175,1,0,0:0:0:0:
256,192,144258,1,2,0:0:0:0:
256,192,144341,1,2,0:0:0:0:
256,192,144425,1,2,0:0:0:0:
256,192,144508,1,4,0:0:0:0:
256,192,144675,1,2,0:0:0:0:
256,192,144841,1,0,0:0:0:0:
256,192,144925,1,0,0:0:0:0:
256,192,145008,1,0,0:0:0:0:
256,192,145091,1,2,0:0:0:0:
256,192,145175,1,4,0:0:0:0:
256,192,145341,1,0,0:0:0:0:
256,192,145425,1,0,0:0:0:0:
256,192,145508,1,2,0:0:0:0:
256,192,145591,1,0,0:0:0:0:
256,192,145675,1,0,0:0:0:0:
256,192,145841,1,2,0:0:0:0:
256,192,145925,1,2,0:0:0:0:
256,192,146008,1,2,0:0:0:0:
256,192,146091,1,0,0:0:0:0:
256,192,146175,1,0,0:0:0:0:
256,192,146341,1,0,0:0:0:0:
256,192,146425,1,0,0:0:0:0:
256,192,146508,1,0,0:0:0:0:
256,192,146591,1,2,0:0:0:0:
256,192,146675,1,0,0:0:0:0:
256,192,146841,1,0,0:0:0:0:
256,192,146925,1,0,0:0:0:0:
256,192,147008,1,2,0:0:0:0:
256,192,147091,1,2,0:0:0:0:
256,192,147175,1,0,0:0:0:0:
256,192,147258,1,2,0:0:0:0:
256,192,147341,1,0,0:0:0:0:
256,192,147508,1,2,0:0:0:0:
256,192,147591,1,2,0:0:0:0:
256,192,147675,1,0,0:0:0:0:
256,192,147758,1,0,0:0:0:0:
256,192,147841,1,2,0:0:0:0:
256,192,148008,1,2,0:0:0:0:
256,192,148091,1,0,0:0:0:0:
256,192,148175,1,2,0:0:0:0:
256,192,148341,1,0,0:0:0:0:
256,192,148425,1,0,0:0:0:0:
256,192,148508,1,2,0:0:0:0:
256,192,148591,1,2,0:0:0:0:
256,192,148675,1,2,0:0:0:0:
256,192,148758,1,2,0:0:0:0:
256,192,148841,1,4,0:0:0:0:
256,192,149008,1,2,0:0:0:0:
256,192,149175,1,0,0:0:0:0:
256,192,149258,1,2,0:0:0:0:
256,192,149341,1,4,0:0:0:0:
256,192,149508,1,0,0:0:0:0:
256,192,149591,1,2,0:0:0:0:
256,192,149675,1,0,0:0:0:0:
256,192,149758,1,2,0:0:0:0:
256,192,149841,1,2,0:0:0:0:
256,192,149925,1,0,0:0:0:0:
256,192,150008,1,2,0:0:0:0:
256,192,150175,1,4,0:0:0:0:
256,192,150341,1,0,0:0:0:0:
256,192,150425,1,2,0:0:0:0:
256,192,150508,1,0,0:0:0:0:
256,192,150591,1,2,0:0:0:0:
256,192,150675,1,0,0:0:0:0:
256,192,150758,1,0,0:0:0:0:
256,192,150841,1,0,0:0:0:0:
256,192,151008,1,2,0:0:0:0:
256,192,151091,1,0,0:0:0:0:
256,192,151175,1,0,0:0:0:0:
256,192,151258,1,2,0:0:0:0:
256,192,151341,1,0,0:0:0:0:
256,192,151425,1,0,0:0:0:0:
256,192,151508,1,2,0:0:0:0:
256,192,151675,1,0,0:0:0:0:
256,192,151758,1,0,0:0:0:0:
256,192,151841,1,2,0:0:0:0:
256,192,151925,1,0,0:0:0:0:
256,192,152008,1,2,0:0:0:0:
256,192,152175,1,2,0:0:0:0:
256,192,152258,1,2,0:0:0:0:
256,192,152341,1,2,0:0:0:0:
256,192,152425,1,2,0:0:0:0:
256,192,152508,1,2,0:0:0:0:
256,192,152591,1,2,0:0:0:0:
256,192,152675,1,2,0:0:0:0:
256,192,152841,1,2,0:0:0:0:
256,192,152925,1,2,0:0:0:0:
256,192,153008,1,2,0:0:0:0:
256,192,153091,1,0,0:0:0:0:
256,192,153175,1,2,0:0:0:0:
256,192,153258,1,2,0:0:0:0:
256,192,153341,1,0,0:0:0:0:
256,192,153508,1,0,0:0:0:0:
256,192,153591,1,0,0:0:0:0:
256,192,153675,1,2,0:0:0:0:
256,192,153758,1,0,0:0:0:0:
256,192,153841,1,2,0:0:0:0:
256,192,154008,1,0,0:0:0:0:
256,192,154175,1,0,0:0:0:0:
256,192,154258,1,2,0:0:0:0:
256,192,154341,1,0,0:0:0:0:
256,192,154425,1,0,0:0:0:0:
256,192,154508,1,2,0:0:0:0:
256,192,154591,1,0,0:0:0:0:
256,192,154675,1,6,0:0:0:0:
256,192,154841,1,0,0:0:0:0:
256,192,154925,1,2,0:0:0:0:
256,192,155008,1,0,0:0:0:0:
256,192,155175,1,4,0:0:0:0:
256,192,155341,1,2,0:0:0:0:
256,192,155508,1,2,0:0:0:0:
256,192,155675,1,2,0:0:0:0:
256,192,155758,1,2,0:0:0:0:
256,192,155841,1,2,0:0:0:0:
256,192,155925,1,0,0:0:0:0:
256,192,156008,1,6,0:0:0:0:
256,192,156175,1,2,0:0:0:0:
256,192,156258,1,2,0:0:0:0:
256,192,156341,1,0,0:0:0:0:
256,192,156425,1,2,0:0:0:0:
256,192,156508,1,0,0:0:0:0:
256,192,156591,1,0,0:0:0:0:
256,192,156675,1,2,0:0:0:0:
256,192,156841,1,0,0:0:0:0:
256,192,156925,1,2,0:0:0:0:
256,192,157008,1,2,0:0:0:0:
256,192,157091,1,0,0:0:0:0:
256,192,157175,1,2,0:0:0:0:
256,192,157342,1,2,0:0:0:0:
256,192,157425,1,2,0:0:0:0:
256,192,157508,1,0,0:0:0:0:
256,192,157592,1,2,0:0:0:0:
256,192,157675,1,2,0:0:0:0:
256,192,157842,1,2,0:0:0:0:
256,192,157925,1,0,0:0:0:0:
256,192,158008,1,2,0:0:0:0:
256,192,158092,1,2,0:0:0:0:
256,192,158175,1,2,0:0:0:0:
256,192,158342,1,4,0:0:0:0:
256,192,158508,1,2,0:0:0:0:
256,192,158592,1,2,0:0:0:0:
256,192,158675,1,0,0:0:0:0:
256,192,158842,1,0,0:0:0:0:
256,192,158925,1,2,0:0:0:0:
256,192,159008,1,0,0:0:0:0:
256,192,159092,1,2,0:0:0:0:
256,192,159175,1,0,0:0:0:0:
256,192,159342,1,0,0:0:0:0:
256,192,159508,1,0,0:0:0:0:
256,192,159592,1,0,0:0:0:0:
256,192,159675,1,0,0:0:0:0:
256,192,159758,1,2,0:0:0:0:
256,192,159842,1,2,0:0:0:0:
256,192,160008,1,2,0:0:0:0:
256,192,160175,1,2,0:0:0:0:
256,192,160258,1,0,0:0:0:0:
256,192,160342,1,2,0:0:0:0:
256,192,160508,1,6,0:0:0:0:
256,192,160675,1,4,0:0:0:0:
256,192,160842,1,0,0:0:0:0:
256,192,160925,1,0,0:0:0:0:
256,192,161008,1,2,0:0:0:0:
256,192,161175,1,0,0:0:0:0:
256,192,161258,1,0,0:0:0:0:
256,192,161342,1,2,0:0:0:0:
256,192,161508,1,2,0:0:0:0:
256,192,161592,1,2,0:0:0:0:
256,192,161675,1,0,0:0:0:0:
256,192,161758,1,0,0:0:0:0:
256,192,161842,1,0,0:0:0:0:
256,192,161925,1,0,0:0:0:0:
256,192,162008,1,0,0:0:0:0:
256,192,162175,1,0,0:0:0:0:
256,192,162258,1,2,0:0:0:0:
256,192,162342,1,2,0:0:0:0:
256,192,162508,1,2,0:0:0:0:
256,192,162592,1,0,0:0:0:0:
256,192,162675,1,2,0:0:0:0:
256,192,162842,1,2,0:0:0:0:
256,192,162925,1,2,0:0:0:0:
256,192,163008,1,0,0:0:0:0:
256,192,163092,1,0,0:0:0:0:
256,192,163175,1,0,0:0:0:0:
256,192,163258,1,0,0:0:0:0:
256,192,163342,1,0,0:0:0:0:
256,192,163508,1,2,0:0:0:0:
256,192,163675,1,0,0:0:0:0:
256,192,163758,1,0,0:0:0:0:
256,192,163842,1,2,0:0:0:0:
256,192,163925,1,2,0:0:0:0:
256,192,164008,1,0,0:0:0:0:
256,192,164175,1,4,0:0:0:0:
256,192,164342,1,2,0:0:0:0:
256,192,164508,1,0,0:0:0:0:
256,192,164592,1,0,0:0:0:0:
256,192,164675,1,0,0:0:0:0:
256,192,164758,1,0,0:0:0:0:
256,192,164842,1,2,0:0:0:0:
256,192,164925,1,0,0:0:0:0:
256,192,165008,1,2,0:0:0:0:
256,192,165175,1,2,0:0:0:0:
256,192,165258,1,2,0:0:0:0:
256,192,165342,1,2,0:0:0:0:
256,192,165425,1,2,0:0:0:0:
256,192,165508,1,0,0:0:0:0:
256,192,165675,1,4,0:0:0:0:
256,192,165842,1,0,0:0:0:0:
256,192,165925,1,2,0:0:0:0:
256,192,166008,1,2,0:0:0:0:
256,192,166092,1,0,0:0:0:0:
256,192,166175,1,2,0:0:0:0:
256,192,166342,1,2,0:0:0:0:
256,192,166425,1,2,0:0:0:0:
256,192,166508,1,2,0:0:0:0:
256,192,166592,1,0,0:0:0:0:
256,192,166675,1,0,0:0:0:0:
256,192,166758,1,2,0:0:0:0:
256,192,166842,1,0,0:0:0:0:
256,192,167008,1,0,0:0:0:0:
256,192,167092,1,2,0:0:0:0:
256,192,167175,1,2,0:0:0:0:
256,192,167258,1,2,0:0:0:0:
256,192,167342,1,2,0:0:0:0:
256,192,167425,1,2,0:0:0:0:
256,192,167508,1,0,0:0:0:0:
256,192,167675,1,2,0:0:0:0:
256,192,167758,1,2,0:0:0:0:
256,192,167842,1,0,0:0:0:0:
256,192,167925,1,0,0:0:0:0:
256,192,168008,1,0,0:0:0:0:
256,192,168092,1,0,0:0:0:0:
256,192,168175,1,2,0:0:0:0:
256,192,168342,1,6,0:0:0:0:
256,192,168508,1,0,0:0:0:0:
256,192,168592,1,2,0:0:0:0:
256,192,168675,1,0,0:0:0:0:
256,192,168758,1,2,0:0:0:0:
256,192,168842,1,0,0:0:0:0:
256,192,169008,1,4,0:0:0:0:
256,192,169175,1,0,0:0:0:0:
256,192,169258,1,0,0:0:0:0:
256,192,169342,1,2,0:0:0:0:
256,192,169425,1,2,0:0:0:0:
256,192,169508,1,4,0:0:0:0:
256,192,169675,1,0,0:0:0:0:
256,192,169758,1,2,0:0:0:0:
256,192,169842,1,2,0:0:0:0:
256,192,169925,1,0,0:0:0:0:
256,192,170008,1,0,0:0:0:0:
256,192,170092,1,0,0:0:0:0:
256,192,170175,1,2,0:0:0:0:
256,192,170342,1,2,0:0:0:0:
256,192,170425,1,2,0:0:0:0:
256,192,170508,1,2,0:0:0:0:
256,192,170592,1,0,0:0:0:0:
256,192,170675,1,2,0:0:0:0:
256,192,170758,1,0,0:0:0:0:
256,192,170842,1,0,0:0:0:0:
256,192,171008,1,0,0:0:0:0:
256,192,171092,1,2,0:0:0:0:
256,192,171175,1,2,0:0:0:0:
256,192,171342,1,4,0:0:0:0:
256,192,171508,1,2,0:0:0:0:
256,192,171592,1,0,0:0:0:0:
256,192,171675,1,0,0:0:0:0:
256,192,171758,1,2,0:0:0:0:
256,192,171842,1,2,0:0:0:0:
256,192,171925,1,0,0:0:0:0:
256,192,172008,1,2,0:0:0:0:
256,192,172175,1,0,0:0:0:0:
256,192,172258,1,0,0:0:0:0:
256,192,172342,1,0,0:0:0:0:
256,192,172425,1,0,0:0:0:0:
256,192,172508,1,0,0:0:0:0:
256,192,172592,1,2,0:0:0:0:
256,192,172675,1,4,0:0:0:0:
256,192,172842,1,2,0:0:0:0:
256,192,172925,1,0,0:0:0:0:
256,192,173008,1,2,0:0:0:0:
256,192,173092,1,2,0:0:0:0:
256,192,173175,1,0,0:0:0:0:
256,192,173258,1,2,0:0:0:0:
256,192,173342,1,0,0:0:0:0:
256,192,173508,1,2,0:0:0:0:
256,192,173592,1,2,0:0:0:0:
256,192,173675,1,2,0:0:0:0:
256,192,173758,1,0,0:0:0:0:
256,192,173842,1,2,0:0:0:0:
256,192,173925,1,2,0:0:0:0:
256,192,174008,1,4,0:0:0:0:
256,192,174175,1,0,0:0:0:0:
256,192,174258,1,0,0:0:0:0:
256,192,174342,1,0,0:0:0:0:
256,192,174425,1,2,0:0:0:0:
256,192,174508,1,0,0:0:0:0:
256,192,174592,1,0,0:0:0:0:
256,192,174675,1,2,0:0:0:0:
256,192,174842,1,0,0:0:0:0:
256,192,174925,1,2,0:0:0:0:
256,192,175008,1,0,0:0:0:0:
256,192,175092,1,0,0:0:0:0:
256,192,175175,1,2,0:0:0:0:
256,192,175258,1,2,0:0:0:0:
256,192,175342,1,0,0:0:0:0:
256,192,175508,1,0,0:0:0:0:
256,192,175592,1,2,0:0:0:0:
256,192,175675,1,0,0:0:0:0:
256,192,175842,1,6,0:0:0:0:
256,192,176008,1,0,0:0:0:0:
256,192,176092,1,2,0:0:0:0:
256,192,176175,1,2,0:0:0:0:
256,192,176258,1,2,0:0:0:0:
256,192,176342,1,4,0:0:0:0:
256,192,176508,1,2,0:0:0:0:
256,192,176592,1,2,0:0:0:0:
256,192,176675,1,0,0:0:0:0:
256,192,176758,1,0,0:0:0:0:
256,192,176842,1,0,0:0:0:0:
256,192,176925,1,0,0:0:0:0:
256,192,177008,1,2,0:0:0:0:
256,192,177175,1,0,0:0:0:0:
256,192,177258,1,0,0:0:0:0:
256,192,177342,1,6,0:0:0:0:
256,192,177508,1,0,0:0:0:0:
256,192,177592,1,0,0:0:0:0:
256,192,177675,1,0,0:0:0:0:
256,192,177758,1,2,0:0:0:0:
256,192,177842,1,2,0:0:0:0:
256,192,178008,1,2,0:0:0:0:
256,192,178092,1,0,0:0:0:0:
256,192,178175,1,2,0:0:0:0:
256,192,178342,1,0,0:0:0:0:
256,192,178425,1,2,0:0:0:0:
256,192,178508,1,2,0:0:0:0:
256,192,178592,1,0,0:0:0:0:
256,192,178675,1,0,0:0:0:0:
256,192,178842,1,0,0:0:0:0:
256,192,178925,1,2,0:0:0:0:
256,192,179008,1,2,0:0:0:0:
256,192,179092,1,0,0:0:0:0:
256,192,179175,1,2,0:0:0:0:
256,192,179342,1,2,0:0:0:0:
256,192,179425,1,0,0:0:0:0:
256,192,179508,1,0,0:0:0:0:
256,192,179592,1,2,0:0:0:0:
256,192,179675,1,4,0:0:0:0:
256,192,179842,1,2,0:0:0:0:
256,192,180008,1,0,0:0:0:0:
256,192,180092,1,2,0:0:0:0:
256,192,180175,1,2,0:0:0:0:
256,192,180258,1,0,0:0:0:0:
256,192,180342,1,0,0:0:0:0:
256,192,180508,1,2,0:0:0:0:
256,192,180592,1,0,0:0:0:0:
256,192,180675,1,2,0:0:0:0:
256,192,180758,1,2,0:0:0:0:
256,192,180842,1,0,0:0:0:0:
256,192,181008,1,0,0:0:0:0:
256,192,181092,1,0,0:0:0:0:
256,192,181175,1,2,0:0:0:0:
256,192,181258,1,2,0:0:0:0:
256,192,181342,1,0,0:0:0:0:
256,192,181508,1,6,0:0:0:0:
256,192,181675,1,2,0:0:0:0:
256,192,181758,1,2,0:0:0:0:
256,192,181842,1,2,0:0:0:0:
256,192,181925,1,2,0:0:0:0:
256,192,182008,1,0,0:0:0:0:
256,192,182175,1,2,0:0:0:0:
256,192,182258,1,2,0:0:0:0:
256,192,182342,1,2,0:0:0:0:
256,192,182508,1,2,0:0:0:0:
256,192,182592,1,0,0:0:0:0:
256,192,182675,1,0,0:0:0:0:
256,192,182758,1,2,0:0:0:0:
256,192,182842,1,0,0:0:0:0:
256,192,182925,1,0,0:0:0:0:
256,192,183008,1,2,0:0:0:0:
256,192,183175,1,2,0:0:0:0:
256,192,183342,1,2,0:0:0:0:
256,192,183425,1,0,0:0:0:0:
256,192,183508,1,2,0:0:0:0:
256,192,183592,1,2,0:0:0:0:
256,192,183675,1,0,0:0:0:0:
256,192,183842,1,2,0:0:0:0:
256,192,183925,1,0,0:0:0:0:
256,192,184008,1,2,0:0:0:0:
256,192,184175,1,0,0:0:0:0:
256,192,184258,1,0,0:0:0:0:
256,192,184342,1,0,0:0:0:0:
256,192,184508,1,2,0:0:0:0:
256,192,184592,1,2,0:0:0:0:
256,192,184675,1,2,0:0:0:0:
256,192,184758,1,0,0:0:0:0:
256,192,184842,1,0,0:0:0:0:
256,192,185008,1,2,0:0:0:0:
256,192,185092,1,2,0:0:0:0:
256,192,185175,1,2,0:0:0:0:
256,192,185258,1,0,0:0:0:0:
256,192,185342,1,0,0:0:0:0:
256,192,185508,1,2,0:0:0:0:
256,192,185592,1,2,0:0:0:0:
256,192,185675,1,2,0:0:0:0:
256,192,185758,1,2,0:0:0:0:
256,192,185842,1,0,0:0:0:0:
256,192,186008,1,0,0:0:0:0:
256,192,186092,1,2,0:0:0:0:
256,192,186175,1,0,0:0:0:0:
256,192,186258,1,2,0:0:0:0:
256,192,186342,1,2,0:0:0:0:
256,192,186425,1,2,0:0:0:0:
256,192,186508,1,0,0:0:0:0:
256,192,186675,1,4,0:0:0:0:
256,192,186842,1,0,0:0:0:0:
256,192,186925,1,2,0:0:0:0:
256,192,187008,1,0,0:0:0:0:
256,192,187092,1,0,0:0:0:0:
256,192,187175,1,6,0:0:0:0:
256,192,187342,1,0,0:0:0:0:
256,192,187508,1,0,0:0:0:0:
256,192,187675,1,2,0:0:0:0:
256,192,187758,1,2,0:0:0:0:
256,192,187842,1,2,0:0:0:0:
256,192,188008,1,0,0:0:0:0:
256,192,188092,1,0,0:0:0:0:
256,192,188175,1,6,0:0:0:0:
256,192,188342,1,4,0:0:0:0:
256,192,188508,1,0,0:0:0:0:
256,192,188592,1,2,0:0:0:0:
256,192,188675,1,0,0:0:0:0:
256,192,188842,1,0,0:0:0:0:
256,192,188925,1,0,0:0:0:0:
256,192,189008,1,6,0:0:0:0:
256,192,189175,1,0,0:0:0:0:
256,192,189342,1,0,0:0:0:0:
256,192,189508,1,0,0:0:0:0:
256,192,189592,1,0,0:0:0:0:
256,192,189675,1,2,0:0:0:0:
256,192,189842,1,2,0:0:0:0:
256,192,189925,1,0,0:0:0:0:
256,192,190008,1,0,0:0:0:0:
256,192,190175,1,0,0:0:0:0:
256,192,190258,1,0,0:0:0:0:
256,192,190342,1,0,0:0:0:0:
256,192,190425,1,2,0:0:0:0:
256,192,190508,1,0,0:0:0:0:
256,192,190675,1,0,0:0:0:0:
256,192,190758,1,2,0:0:0:0:
256,192,190842,1,2,0:0:0:0:
256,192,190925,1,2,0:0:0:0:
256,192,191008,1,2,0:0:0:0:
256,192,191175,1,2,0:0:0:0:
256,192,191342,1,2,0:0:0:0:
256,192,191425,1,2,0:0:0:0:
256,192,191508,1,2,0:0:0:0:
256,192,191592,1,0,0:0:0:0:
256,192,191675,1,0,0:0:0:0:
256,192,191842,1,0,0:0:0:0:
256,192,191925,1,0,0:0:0:0:
256,192,192008,1,0,0:0:0:0:
256,192,192092,1,2,0:0:0:0:
256,192,192175,1,2,0:0:0:0:
256,192,192342,1,2,0:0:0:0:
256,192,192425,1,0,0:0:0:0:
256,192,192508,1,2,0:0:0:0:
256,192,192592,1,2,0:0:0:0:
256,192,192675,1,0,0:0:0:0:
256,192,192842,1,0,0:0:0:0:
256,192,192925,1,2,0:0:0:0:
256,192,193008,1,0,0:0:0:0:
256,192,193092,1,2,0:0:0:0:
256,192,193175,1,4,0:0:0:0:
256,192,193342,1,6,0:0:0:0:
256,192,193508,1,0,0:0:0:0:
256,192,193675,1,2,0:0:0:0:
256,192,193758,1,0,0:0:0:0:
256,192,193842,1,2,0:0:0:0:
256,192,193925,1,2,0:0:0:0:
256,192,194008,1,2,0:0:0:0:
256,192,194175,1,2,0:0:0:0:
256,192,194258,1,2,0:0:0:0:
256,192,194342,1,2,0:0:0:0:
256,192,194425,1,2,0:0:0:0:
256,192,194508,1,4,0:0:0:0:
256,192,194675,1,2,0:0:0:0:
256,192,194758,1,0,0:0:0:0:
256,192,194842,1,0,0:0:0:0:
256,192,194925,1,0,0:0:0:0:
256,192,195008,1,2,0:0:0:0:
256,192,195175,1,2,0:0:0:0:
256,192,195258,1,2,0:0:0:0:
256,192,195342,1,0,0:0:0:0:
256,192,195425,1,2,0:0:0:0:
256,192,195508,1,0,0:0:0:0:
256,192,195675,1,6,0:0:0:0:
256,192,195842,1,0,0:0:0:0:
256,192,195925,1,2,0:0:0:0:
256,192,196008,1,0,0:0:0:0:
256,192,196092,1,0,0:0:0:0:
256,192,196175,1,0,0:0:0:0:
256,192,196258,1,0,0:0:0:0:
256,192,196342,1,2,0:0:0:0:
256,192,196508,1,2,0:0:0:0:
256,192,196592,1,0,0:0:0:0:
256,192,196675,1,2,0:0:0:0:
256,192,196758,1,2,0:0:0:0:
256,192,196842,1,0,0:0:0:0:
256,192,196925,1,2,0:0:0:0:
256,192,197008,1,0,0:0:0:0:
256,192,197175,1,0,0:0:0:0:
256,192,197342,1,2,0:0:0:0:
256,192,197508,1,0,0:0:0:0:
256,192,197592,1,2,0:0:0:0:
256,192,197675,1,0,0:0:0:0:
256,192,197758,1,0,0:0:0:0:
256,192,197842,1,0,0:0:0:0:
256,192,197925,1,0,0:0:0:0:
256,192,198008,1,2,0:0:0:0:
