osu file format v14

[General]
AudioFilename: 06 perthed again (yambabom remix).mp3
AudioLeadIn: 0
PreviewTime: 106997
Countdown: 0
SampleSet: None
StackLeniency: 0.7
Mode: 1
LetterboxInBreaks: 0
WidescreenStoryboard: 1

[Editor]
Bookmarks: 32330,40330,42997,61664,85664,96330,148164
DistanceSpacing: 0.8
BeatDivisor: 4
GridSize: 4
TimelineZoom: 1.1

[Metadata]
Title:perthed again (yambabom remix)
TitleUnicode:perthed again (yambabom remix)
Artist:Hitori Tori
ArtistUnicode:Hitori Tori
Creator:DarkStoorM
Version:E-TaikoGen
Source:
Tags:
BeatmapID:1960060
BeatmapSetID:938318

[Difficulty]
HPDrainRate:0
CircleSize:4
OverallDifficulty:8
ApproachRate:5
SliderMultiplier:2.2
SliderTickRate:2

[Events]
//Background and Video events
0,0,"uh.png",0,0
//Break Periods
//Storyboard Layer 0 (Background)
//Storyboard Layer 1 (Fail)
//Storyboard Layer 2 (Pass)
//Storyboard Layer 3 (Foreground)
//Storyboard Sound Samples

[TimingPoints]
342,333.333333333333,4,1,0,100,1,0
21675,-100,4,1,0,90,0,1
32341,-100,4,1,0,50,0,1
32397,-100,4,1,0,25,0,1
32453,-100,4,1,0,5,0,1
32508,-100,4,1,0,10,0,1
32564,-100,4,1,0,50,0,1
32619,-100,4,1,0,75,0,1
32675,-100,4,1,0,100,0,1
42341,-100,4,1,0,100,0,1
42508,-100,4,1,0,100,0,1
42675,-100,4,1,0,100,0,1
42841,-100,4,1,0,100,0,1
43008,-100,4,1,0,100,0,1
62175,-100,4,1,0,100,0,1
62675,-100,4,1,0,100,0,1
63008,-100,4,1,0,100,0,1
64175,-100,4,1,0,100,0,1
64341,-100,4,1,0,100,0,1
64508,-100,4,1,0,100,0,1
64675,-100,4,1,0,100,0,1
85008,-100,4,1,0,100,0,0
85175,-100,4,1,0,100,0,0
85341,-100,4,1,0,100,0,0
85508,-100,4,1,0,100,0,0
85591,-100,4,1,0,100,0,0
85675,-100,4,1,0,100,0,0
106175,-100,4,1,0,100,0,0
106341,-100,4,1,0,100,0,0
106508,-100,4,1,0,100,0,0
106675,-100,4,1,0,100,0,0
106841,-100,4,1,0,100,0,0
107008,-100,4,1,0,100,0,1
149675,-100,4,1,0,100,0,1
149758,-100,4,1,0,100,0,1
149841,-100,4,1,0,100,0,1
149925,-100,4,1,0,100,0,1
150008,-100,4,1,0,100,0,1
152341,-100,4,1,0,100,0,1
155008,-100,4,1,0,100,0,1
157675,-100,4,1,0,100,0,1
160341,-100,4,1,0,100,0,1
163008,-100,4,1,0,100,0,1
165675,-100,4,1,0,100,0,1
168341,-100,4,1,0,100,0,1
171008,-100,4,1,0,100,0,0
194992,-100,4,1,0,50,0,0
195675,-100,4,1,0,30,0,0
196341,-100,4,1,0,10,0,0
197008,-100,4,1,0,5,0,0

[Colours]
Combo1 : 255,0,0
Combo2 : 255,128,64

[HitObjects]
256,192,342,1,0,0:0:0:0:
256,192,508,1,0,0:0:0:0:
256,192,675,1,6,0:0:0:0:
256,192,841,1,4,0:0:0:0:
256,192,1008,1,6,0:0:0:0:
256,192,1175,1,0,0:0:0:0:
256,192,1342,1,2,0:0:0:0:
256,192,1508,1,6,0:0:0:0:
256,192,1675,1,4,0:0:0:0:
256,192,1842,1,4,0:0:0:0:
256,192,2008,1,0,0:0:0:0:
256,192,2175,1,4,0:0:0:0:
256,192,2342,1,4,0:0:0:0:
256,192,2508,1,6,0:0:0:0:
256,192,2675,1,6,0:0:0:0:
256,192,2841,1,0,0:0:0:0:
256,192,3008,1,4,0:0:0:0:
256,192,3175,1,4,0:0:0:0:
256,192,3341,1,2,0:0:0:0:
256,192,3508,1,2,0:0:0:0:
256,192,3675,1,4,0:0:0:0:
256,192,3841,1,2,0:0:0:0:
256,192,4008,1,4,0:0:0:0:
256,192,4175,1,6,0:0:0:0:
256,192,4341,1,2,0:0:0:0:
256,192,4508,1,6,0:0:0:0:
256,192,4675,1,4,0:0:0:0:
256,192,4842,1,4,0:0:0:0:
256,192,5008,1,2,0:0:0:0:
256,192,5175,1,2,0:0:0:0:
256,192,5342,1,0,0:0:0:0:
256,192,5508,1,2,0:0:0:0:
256,192,5675,1,0,0:0:0:0:
256,192,5842,1,2,0:0:0:0:
256,192,6008,1,6,0:0:0:0:
256,192,6175,1,0,0:0:0:0:
256,192,6342,1,2,0:0:0:0:
256,192,6508,1,2,0:0:0:0:
256,192,6675,1,0,0:0:0:0:
256,192,6842,1,4,0:0:0:0:
256,192,7008,1,6,0:0:0:0:
256,192,7175,1,0,0:0:0:0:
256,192,7342,1,2,0:0:0:0:
256,192,7508,1,0,0:0:0:0:
256,192,7675,1,2,0:0:0:0:
256,192,7842,1,2,0:0:0:0:
256,192,8008,1,0,0:0:0:0:
256,192,8175,1,2,0:0:0:0:
256,192,8342,1,0,0:0:0:0:
256,192,8508,1,2,0:0:0:0:
256,192,8675,1,2,0:0:0:0:
256,192,8842,1,6,0:0:0:0:
256,192,9008,1,0,0:0:0:0:
256,192,9175,1,2,0:0:0:0:
256,192,9342,1,4,0:0:0:0:
256,192,9508,1,0,0:0:0:0:
256,192,9675,1,2,0:0:0:0:
256,192,9842,1,0,0:0:0:0:
256,192,10008,1,2,0:0:0:0:
256,192,10175,1,6,0:0:0:0:
256,192,10341,1,4,0:0:0:0:
256,192,10508,1,0,0:0:0:0:
256,192,10675,1,2,0:0:0:0:
256,192,10841,1,0,0:0:0:0:
256,192,11008,1,2,0:0:0:0:
256,192,11175,1,6,0:0:0:0:
256,192,11341,1,6,0:0:0:0:
256,192,11508,1,2,0:0:0:0:
256,192,11675,1,2,0:0:0:0:
256,192,11841,1,0,0:0:0:0:
256,192,12008,1,6,0:0:0:0:
256,192,12175,1,0,0:0:0:0:
256,192,12341,1,6,0:0:0:0:
256,192,12508,1,0,0:0:0:0:
256,192,12675,1,0,0:0:0:0:
256,192,12841,1,4,0:0:0:0:
256,192,13008,1,0,0:0:0:0:
256,192,13175,1,2,0:0:0:0:
256,192,13341,1,0,0:0:0:0:
256,192,13508,1,0,0:0:0:0:
256,192,13675,1,2,0:0:0:0:
256,192,13841,1,6,0:0:0:0:
256,192,14008,1,4,0:0:0:0:
256,192,14175,1,0,0:0:0:0:
256,192,14341,1,0,0:0:0:0:
256,192,14508,1,0,0:0:0:0:
256,192,14675,1,4,0:0:0:0:
256,192,14841,1,0,0:0:0:0:
256,192,15008,1,2,0:0:0:0:
256,192,15175,1,2,0:0:0:0:
256,192,15341,1,0,0:0:0:0:
256,192,15508,1,2,0:0:0:0:
256,192,15675,1,0,0:0:0:0:
256,192,15841,1,2,0:0:0:0:
256,192,16008,1,2,0:0:0:0:
256,192,16175,1,6,0:0:0:0:
256,192,16341,1,2,0:0:0:0:
256,192,16508,1,6,0:0:0:0:
256,192,16675,1,2,0:0:0:0:
256,192,16841,1,0,0:0:0:0:
256,192,17008,1,0,0:0:0:0:
256,192,17175,1,6,0:0:0:0:
256,192,17341,1,6,0:0:0:0:
256,192,17508,1,4,0:0:0:0:
256,192,17675,1,2,0:0:0:0:
256,192,17841,1,2,0:0:0:0:
256,192,18008,1,4,0:0:0:0:
256,192,18175,1,6,0:0:0:0:
256,192,18341,1,0,0:0:0:0:
256,192,18508,1,0,0:0:0:0:
256,192,18675,1,6,0:0:0:0:
256,192,18841,1,6,0:0:0:0:
256,192,19008,1,6,0:0:0:0:
256,192,19175,1,4,0:0:0:0:
256,192,19341,1,4,0:0:0:0:
256,192,19508,1,0,0:0:0:0:
256,192,19675,1,4,0:0:0:0:
256,192,19842,1,2,0:0:0:0:
256,192,20008,1,0,0:0:0:0:
256,192,20175,1,2,0:0:0:0:
256,192,20342,1,6,0:0:0:0:
256,192,20508,1,0,0:0:0:0:
256,192,20675,1,2,0:0:0:0:
256,192,20842,1,6,0:0:0:0:
256,192,21008,1,4,0:0:0:0:
256,192,21175,1,2,0:0:0:0:
256,192,21342,1,6,0:0:0:0:
256,192,21508,1,0,0:0:0:0:
256,192,21675,1,4,0:0:0:0:
256,192,21842,1,0,0:0:0:0:
256,192,22008,1,4,0:0:0:0:
256,192,22175,1,2,0:0:0:0:
256,192,22342,1,2,0:0:0:0:
256,192,22508,1,2,0:0:0:0:
256,192,22675,1,0,0:0:0:0:
256,192,22842,1,6,0:0:0:0:
256,192,23008,1,2,0:0:0:0:
256,192,23175,1,2,0:0:0:0:
256,192,23342,1,0,0:0:0:0:
256,192,23508,1,4,0:0:0:0:
256,192,23675,1,2,0:0:0:0:
256,192,23842,1,0,0:0:0:0:
256,192,24008,1,2,0:0:0:0:
256,192,24175,1,0,0:0:0:0:
256,192,24342,1,0,0:0:0:0:
256,192,24508,1,2,0:0:0:0:
256,192,24675,1,4,0:0:0:0:
256,192,24842,1,4,0:0:0:0:
256,192,25008,1,0,0:0:0:0:
256,192,25175,1,4,0:0:0:0:
256,192,25342,1,6,0:0:0:0:
256,192,25508,1,2,0:0:0:0:
256,192,25675,1,4,0:0:0:0:
256,192,25842,1,2,0:0:0:0:
256,192,26008,1,0,0:0:0:0:
256,192,26175,1,2,0:0:0:0:
256,192,26342,1,2,0:0:0:0:
256,192,26508,1,6,0:0:0:0:
256,192,26675,1,2,0:0:0:0:
256,192,26842,1,4,0:0:0:0:
256,192,27008,1,0,0:0:0:0:
256,192,27175,1,0,0:0:0:0:
256,192,27342,1,4,0:0:0:0:
256,192,27508,1,2,0:0:0:0:
256,192,27675,1,4,0:0:0:0:
256,192,27842,1,0,0:0:0:0:
256,192,28008,1,6,0:0:0:0:
256,192,28175,1,2,0:0:0:0:
256,192,28342,1,2,0:0:0:0:
256,192,28508,1,4,0:0:0:0:
256,192,28675,1,2,0:0:0:0:
256,192,28842,1,0,0:0:0:0:
256,192,29008,1,6,0:0:0:0:
256,192,29175,1,0,0:0:0:0:
256,192,29342,1,0,0:0:0:0:
256,192,29508,1,2,0:0:0:0:
256,192,29675,1,4,0:0:0:0:
256,192,29842,1,2,0:0:0:0:
256,192,30008,1,4,0:0:0:0:
256,192,30175,1,0,0:0:0:0:
256,192,30342,1,2,0:0:0:0:
256,192,30508,1,0,0:0:0:0:
256,192,30675,1,2,0:0:0:0:
256,192,30842,1,6,0:0:0:0:
256,192,31008,1,2,0:0:0:0:
256,192,31175,1,4,0:0:0:0:
256,192,31342,1,6,0:0:0:0:
256,192,31508,1,4,0:0:0:0:
256,192,31675,1,2,0:0:0:0:
256,192,31842,1,0,0:0:0:0:
256,192,32008,1,4,0:0:0:0:
256,192,32175,1,0,0:0:0:0:
256,192,32342,1,6,0:0:0:0:
256,192,32508,1,2,0:0:0:0:
256,192,32675,1,6,0:0:0:0:
256,192,32842,1,0,0:0:0:0:
256,192,33008,1,2,0:0:0:0:
256,192,33175,1,6,0:0:0:0:
256,192,33342,1,6,0:0:0:0:
256,192,33508,1,2,0:0:0:0:
256,192,33675,1,4,0:0:0:0:
256,192,33842,1,6,0:0:0:0:
256,192,34008,1,2,0:0:0:0:
256,192,34175,1,0,0:0:0:0:
256,192,34342,1,4,0:0:0:0:
256,192,34508,1,0,0:0:0:0:
256,192,34675,1,4,0:0:0:0:
256,192,34842,1,2,0:0:0:0:
256,192,35008,1,0,0:0:0:0:
256,192,35175,1,0,0:0:0:0:
256,192,35342,1,0,0:0:0:0:
256,192,35508,1,0,0:0:0:0:
256,192,35675,1,6,0:0:0:0:
256,192,35842,1,2,0:0:0:0:
256,192,36008,1,4,0:0:0:0:
256,192,36175,1,4,0:0:0:0:
256,192,36342,1,0,0:0:0:0:
256,192,36508,1,6,0:0:0:0:
256,192,36675,1,2,0:0:0:0:
256,192,36842,1,6,0:0:0:0:
256,192,37008,1,6,0:0:0:0:
256,192,37175,1,6,0:0:0:0:
256,192,37342,1,4,0:0:0:0:
256,192,37508,1,2,0:0:0:0:
256,192,37675,1,2,0:0:0:0:
256,192,37842,1,6,0:0:0:0:
256,192,38008,1,0,0:0:0:0:
256,192,38175,1,4,0:0:0:0:
256,192,38342,1,0,0:0:0:0:
256,192,38508,1,4,0:0:0:0:
256,192,38675,1,4,0:0:0:0:
256,192,38842,1,2,0:0:0:0:
256,192,39008,1,4,0:0:0:0:
256,192,39175,1,2,0:0:0:0:
256,192,39342,1,2,0:0:0:0:
256,192,39508,1,6,0:0:0:0:
256,192,39675,1,4,0:0:0:0:
256,192,39841,1,6,0:0:0:0:
256,192,40008,1,4,0:0:0:0:
256,192,40175,1,0,0:0:0:0:
256,192,40341,1,2,0:0:0:0:
256,192,40508,1,0,0:0:0:0:
256,192,40675,1,0,0:0:0:0:
256,192,40841,1,6,0:0:0:0:
256,192,41008,1,6,0:0:0:0:
256,192,41175,1,2,0:0:0:0:
256,192,41341,1,2,0:0:0:0:
256,192,41508,1,4,0:0:0:0:
256,192,41675,1,4,0:0:0:0:
256,192,41841,1,6,0:0:0:0:
256,192,42008,1,0,0:0:0:0:
256,192,42175,1,2,0:0:0:0:
256,192,42341,1,0,0:0:0:0:
256,192,42508,1,4,0:0:0:0:
256,192,42675,1,2,0:0:0:0:
256,192,42841,1,0,0:0:0:0:
256,192,43008,1,6,0:0:0:0:
256,192,43175,1,2,0:0:0:0:
256,192,43341,1,0,0:0:0:0:
256,192,43508,1,4,0:0:0:0:
256,192,43675,1,2,0:0:0:0:
256,192,43841,1,0,0:0:0:0:
256,192,44008,1,2,0:0:0:0:
256,192,44175,1,2,0:0:0:0:
256,192,44341,1,4,0:0:0:0:
256,192,44508,1,4,0:0:0:0:
256,192,44675,1,4,0:0:0:0:
256,192,44841,1,0,0:0:0:0:
256,192,45008,1,0,0:0:0:0:
256,192,45175,1,6,0:0:0:0:
256,192,45341,1,2,0:0:0:0:
256,192,45508,1,6,0:0:0:0:
256,192,45675,1,0,0:0:0:0:
256,192,45841,1,6,0:0:0:0:
256,192,46008,1,0,0:0:0:0:
256,192,46175,1,2,0:0:0:0:
256,192,46341,1,6,0:0:0:0:
256,192,46508,1,2,0:0:0:0:
256,192,46675,1,6,0:0:0:0:
256,192,46841,1,4,0:0:0:0:
256,192,47008,1,2,0:0:0:0:
256,192,47175,1,0,0:0:0:0:
256,192,47341,1,6,0:0:0:0:
256,192,47508,1,0,0:0:0:0:
256,192,47675,1,2,0:0:0:0:
256,192,47841,1,2,0:0:0:0:
256,192,48008,1,6,0:0:0:0:
256,192,48175,1,6,0:0:0:0:
256,192,48341,1,0,0:0:0:0:
256,192,48508,1,6,0:0:0:0:
256,192,48675,1,0,0:0:0:0:
256,192,48841,1,4,0:0:0:0:
256,192,49008,1,2,0:0:0:0:
256,192,49175,1,0,0:0:0:0:
256,192,49341,1,4,0:0:0:0:
256,192,49508,1,0,0:0:0:0:
256,192,49675,1,4,0:0:0:0:
256,192,49841,1,2,0:0:0:0:
256,192,50008,1,0,0:0:0:0:
256,192,50175,1,0,0:0:0:0:
256,192,50341,1,4,0:0:0:0:
256,192,50508,1,6,0:0:0:0:
256,192,50675,1,2,0:0:0:0:
256,192,50841,1,4,0:0:0:0:
256,192,51008,1,0,0:0:0:0:
256,192,51175,1,0,0:0:0:0:
256,192,51341,1,2,0:0:0:0:
256,192,51508,1,4,0:0:0:0:
256,192,51675,1,2,0:0:0:0:
256,192,51841,1,0,0:0:0:0:
256,192,52008,1,0,0:0:0:0:
256,192,52175,1,6,0:0:0:0:
256,192,52341,1,2,0:0:0:0:
256,192,52508,1,0,0:0:0:0:
256,192,52675,1,2,0:0:0:0:
256,192,52841,1,6,0:0:0:0:
256,192,53008,1,2,0:0:0:0:
256,192,53175,1,2,0:0:0:0:
256,192,53341,1,2,0:0:0:0:
256,192,53508,1,6,0:0:0:0:
256,192,53675,1,4,0:0:0:0:
256,192,53841,1,0,0:0:0:0:
256,192,54008,1,6,0:0:0:0:
256,192,54175,1,4,0:0:0:0:
256,192,54341,1,6,0:0:0:0:
256,192,54508,1,6,0:0:0:0:
256,192,54675,1,0,0:0:0:0:
256,192,54841,1,0,0:0:0:0:
256,192,55008,1,2,0:0:0:0:
256,192,55175,1,0,0:0:0:0:
256,192,55341,1,6,0:0:0:0:
256,192,55508,1,0,0:0:0:0:
256,192,55675,1,4,0:0:0:0:
256,192,55841,1,4,0:0:0:0:
256,192,56008,1,4,0:0:0:0:
256,192,56175,1,6,0:0:0:0:
256,192,56341,1,2,0:0:0:0:
256,192,56508,1,0,0:0:0:0:
256,192,56675,1,4,0:0:0:0:
256,192,56841,1,0,0:0:0:0:
256,192,57008,1,2,0:0:0:0:
256,192,57175,1,0,0:0:0:0:
256,192,57341,1,2,0:0:0:0:
256,192,57508,1,6,0:0:0:0:
256,192,57675,1,6,0:0:0:0:
256,192,57841,1,6,0:0:0:0:
256,192,58008,1,2,0:0:0:0:
256,192,58175,1,6,0:0:0:0:
256,192,58341,1,2,0:0:0:0:
256,192,58508,1,6,0:0:0:0:
256,192,58675,1,2,0:0:0:0:
256,192,58841,1,4,0:0:0:0:
256,192,59008,1,6,0:0:0:0:
256,192,59175,1,4,0:0:0:0:
256,192,59341,1,2,0:0:0:0:
256,192,59508,1,6,0:0:0:0:
256,192,59675,1,2,0:0:0:0:
256,192,59841,1,2,0:0:0:0:
256,192,60008,1,0,0:0:0:0:
256,192,60175,1,2,0:0:0:0:
256,192,60341,1,0,0:0:0:0:
256,192,60508,1,4,0:0:0:0:
256,192,60675,1,4,0:0:0:0:
256,192,60841,1,0,0:0:0:0:
256,192,61008,1,2,0:0:0:0:
256,192,61175,1,4,0:0:0:0:
256,192,61341,1,0,0:0:0:0:
256,192,61508,1,0,0:0:0:0:
256,192,61675,1,2,0:0:0:0:
256,192,61841,1,2,0:0:0:0:
256,192,62008,1,0,0:0:0:0:
256,192,62175,1,4,0:0:0:0:
256,192,62341,1,0,0:0:0:0:
256,192,62508,1,6,0:0:0:0:
256,192,62675,1,2,0:0:0:0:
256,192,62841,1,0,0:0:0:0:
256,192,63008,1,0,0:0:0:0:
256,192,63175,1,6,0:0:0:0:
256,192,63341,1,4,0:0:0:0:
256,192,63508,1,0,0:0:0:0:
256,192,63675,1,0,0:0:0:0:
256,192,63841,1,2,0:0:0:0:
256,192,64008,1,4,0:0:0:0:
256,192,64175,1,2,0:0:0:0:
256,192,64341,1,2,0:0:0:0:
256,192,64508,1,0,0:0:0:0:
256,192,64675,1,4,0:0:0:0:
256,192,64841,1,6,0:0:0:0:
256,192,65008,1,4,0:0:0:0:
256,192,65175,1,0,0:0:0:0:
256,192,65341,1,0,0:0:0:0:
256,192,65508,1,0,0:0:0:0:
256,192,65675,1,0,0:0:0:0:
256,192,65841,1,2,0:0:0:0:
256,192,66008,1,0,0:0:0:0:
256,192,66175,1,0,0:0:0:0:
256,192,66341,1,0,0:0:0:0:
256,192,66508,1,0,0:0:0:0:
256,192,66675,1,4,0:0:0:0:
256,192,66841,1,6,0:0:0:0:
256,192,67008,1,2,0:0:0:0:
256,192,67175,1,2,0:0:0:0:
256,192,67341,1,0,0:0:0:0:
256,192,67508,1,4,0:0:0:0:
256,192,67675,1,0,0:0:0:0:
256,192,67841,1,0,0:0:0:0:
256,192,68008,1,0,0:0:0:0:
256,192,68175,1,6,0:0:0:0:
256,192,68341,1,4,0:0:0:0:
256,192,68508,1,2,0:0:0:0:
256,192,68675,1,2,0:0:0:0:
256,192,68841,1,6,0:0:0:0:
256,192,69008,1,6,0:0:0:0:
256,192,69175,1,4,0:0:0:0:
256,192,69341,1,0,0:0:0:0:
256,192,69508,1,0,0:0:0:0:
256,192,69675,1,0,0:0:0:0:
256,192,69841,1,6,0:0:0:0:
256,192,70008,1,2,0:0:0:0:
256,192,70175,1,4,0:0:0:0:
256,192,70341,1,2,0:0:0:0:
256,192,70508,1,4,0:0:0:0:
256,192,70675,1,4,0:0:0:0:
256,192,70841,1,0,0:0:0:0:
256,192,71008,1,2,0:0:0:0:
256,192,71175,1,0,0:0:0:0:
256,192,71341,1,0,0:0:0:0:
256,192,71508,1,0,0:0:0:0:
256,192,71675,1,6,0:0:0:0:
256,192,71841,1,2,0:0:0:0:
256,192,72008,1,4,0:0:0:0:
256,192,72175,1,0,0:0:0:0:
256,192,72341,1,2,0:0:0:0:
256,192,72508,1,0,0:0:0:0:
256,192,72675,1,0,0:0:0:0:
256,192,72841,1,2,0:0:0:0:
256,192,73008,1,2,0:0:0:0:
256,192,73175,1,6,0:0:0:0:
256,192,73341,1,0,0:0:0:0:
256,192,73508,1,2,0:0:0:0:
256,192,73675,1,4,0:0:0:0:
256,192,73841,1,2,0:0:0:0:
256,192,74008,1,6,0:0:0:0:
256,192,74175,1,0,0:0:0:0:
256,192,74341,1,2,0:0:0:0:
256,192,74508,1,0,0:0:0:0:
256,192,74675,1,0,0:0:0:0:
256,192,74841,1,4,0:0:0:0:
256,192,75008,1,0,0:0:0:0:
256,192,75175,1,2,0:0:0:0:
256,192,75341,1,2,0:0:0:0:
256,192,75508,1,0,0:0:0:0:
256,192,75675,1,0,0:0:0:0:
256,192,75841,1,0,0:0:0:0:
256,192,76008,1,4,0:0:0:0:
256,192,76175,1,0,0:0:0:0:
256,192,76341,1,6,0:0:0:0:
256,192,76508,1,6,0:0:0:0:
256,192,76675,1,0,0:0:0:0:
256,192,76841,1,0,0:0:0:0:
256,192,77008,1,0,0:0:0:0:
256,192,77175,1,0,0:0:0:0:
256,192,77341,1,0,0:0:0:0:
256,192,77508,1,4,0:0:0:0:
256,192,77675,1,0,0:0:0:0:
256,192,77841,1,6,0:0:0:0:
256,192,78008,1,4,0:0:0:0:
256,192,78175,1,2,0:0:0:0:
256,192,78341,1,0,0:0:0:0:
256,192,78508,1,0,0:0:0:0:
256,192,78675,1,4,0:0:0:0:
256,192,78842,1,4,0:0:0:0:
256,192,79008,1,4,0:0:0:0:
256,192,79175,1,2,0:0:0:0:
256,192,79342,1,4,0:0:0:0:
256,192,79508,1,4,0:0:0:0:
256,192,79675,1,6,0:0:0:0:
256,192,79842,1,4,0:0:0:0:
256,192,80008,1,0,0:0:0:0:
256,192,80175,1,0,0:0:0:0:
256,192,80342,1,6,0:0:0:0:
256,192,80508,1,0,0:0:0:0:
256,192,80675,1,0,0:0:0:0:
256,192,80842,1,4,0:0:0:0:
256,192,81008,1,2,0:0:0:0:
256,192,81175,1,0,0:0:0:0:
256,192,81342,1,2,0:0:0:0:
256,192,81508,1,2,0:0:0:0:
256,192,81675,1,6,0:0:0:0:
256,192,81842,1,2,0:0:0:0:
256,192,82008,1,2,0:0:0:0:
256,192,82175,1,4,0:0:0:0:
256,192,82342,1,4,0:0:0:0:
256,192,82508,1,6,0:0:0:0:
256,192,82675,1,0,0:0:0:0:
256,192,82842,1,0,0:0:0:0:
256,192,83008,1,4,0:0:0:0:
256,192,83175,1,0,0:0:0:0:
256,192,83342,1,2,0:0:0:0:
256,192,83508,1,0,0:0:0:0:
256,192,83675,1,0,0:0:0:0:
256,192,83842,1,2,0:0:0:0:
256,192,84008,1,0,0:0:0:0:
256,192,84175,1,4,0:0:0:0:
256,192,84342,1,0,0:0:0:0:
256,192,84508,1,2,0:0:0:0:
256,192,84675,1,0,0:0:0:0:
256,192,84842,1,6,0:0:0:0:
256,192,85008,1,0,0:0:0:0:
256,192,85175,1,4,0:0:0:0:
256,192,85342,1,0,0:0:0:0:
256,192,85508,1,0,0:0:0:0:
256,192,85675,1,0,0:0:0:0:
256,192,85842,1,2,0:0:0:0:
256,192,86008,1,4,0:0:0:0:
256,192,86175,1,0,0:0:0:0:
256,192,86342,1,2,0:0:0:0:
256,192,86508,1,0,0:0:0:0:
256,192,86675,1,4,0:0:0:0:
256,192,86842,1,0,0:0:0:0:
256,192,87008,1,4,0:0:0:0:
256,192,87175,1,4,0:0:0:0:
256,192,87342,1,0,0:0:0:0:
256,192,87508,1,6,0:0:0:0:
256,192,87675,1,0,0:0:0:0:
256,192,87842,1,0,0:0:0:0:
256,192,88008,1,4,0:0:0:0:
256,192,88175,1,4,0:0:0:0:
256,192,88342,1,6,0:0:0:0:
256,192,88508,1,2,0:0:0:0:
256,192,88675,1,4,0:0:0:0:
256,192,88842,1,0,0:0:0:0:
256,192,89008,1,6,0:0:0:0:
256,192,89175,1,0,0:0:0:0:
256,192,89342,1,4,0:0:0:0:
256,192,89508,1,6,0:0:0:0:
256,192,89675,1,0,0:0:0:0:
256,192,89842,1,0,0:0:0:0:
256,192,90008,1,2,0:0:0:0:
256,192,90175,1,0,0:0:0:0:
256,192,90342,1,6,0:0:0:0:
256,192,90508,1,0,0:0:0:0:
256,192,90675,1,2,0:0:0:0:
256,192,90842,1,2,0:0:0:0:
256,192,91008,1,6,0:0:0:0:
256,192,91175,1,4,0:0:0:0:
256,192,91342,1,4,0:0:0:0:
256,192,91508,1,2,0:0:0:0:
256,192,91675,1,0,0:0:0:0:
256,192,91842,1,2,0:0:0:0:
256,192,92008,1,6,0:0:0:0:
256,192,92175,1,0,0:0:0:0:
256,192,92342,1,4,0:0:0:0:
256,192,92508,1,0,0:0:0:0:
256,192,92675,1,4,0:0:0:0:
256,192,92842,1,6,0:0:0:0:
256,192,93008,1,2,0:0:0:0:
256,192,93175,1,4,0:0:0:0:
256,192,93342,1,2,0:0:0:0:
256,192,93508,1,2,0:0:0:0:
256,192,93675,1,6,0:0:0:0:
256,192,93842,1,6,0:0:0:0:
256,192,94008,1,4,0:0:0:0:
256,192,94175,1,4,0:0:0:0:
256,192,94342,1,4,0:0:0:0:
256,192,94508,1,2,0:0:0:0:
256,192,94675,1,2,0:0:0:0:
256,192,94842,1,6,0:0:0:0:
256,192,95008,1,6,0:0:0:0:
256,192,95175,1,2,0:0:0:0:
256,192,95342,1,0,0:0:0:0:
256,192,95508,1,2,0:0:0:0:
256,192,95675,1,0,0:0:0:0:
256,192,95842,1,0,0:0:0:0:
256,192,96008,1,2,0:0:0:0:
256,192,96175,1,6,0:0:0:0:
256,192,96342,1,0,0:0:0:0:
256,192,96508,1,2,0:0:0:0:
256,192,96675,1,4,0:0:0:0:
256,192,96842,1,0,0:0:0:0:
256,192,97008,1,4,0:0:0:0:
256,192,97175,1,4,0:0:0:0:
256,192,97342,1,0,0:0:0:0:
256,192,97508,1,2,0:0:0:0:
256,192,97675,1,2,0:0:0:0:
256,192,97842,1,4,0:0:0:0:
256,192,98008,1,2,0:0:0:0:
256,192,98175,1,6,0:0:0:0:
256,192,98342,1,4,0:0:0:0:
256,192,98508,1,0,0:0:0:0:
256,192,98675,1,2,0:0:0:0:
256,192,98842,1,2,0:0:0:0:
256,192,99008,1,2,0:0:0:0:
256,192,99175,1,4,0:0:0:0:
256,192,99342,1,4,0:0:0:0:
256,192,99508,1,0,0:0:0:0:
256,192,99675,1,0,0:0:0:0:
256,192,99842,1,4,0:0:0:0:
256,192,100008,1,0,0:0:0:0:
256,192,100175,1,6,0:0:0:0:
256,192,100342,1,4,0:0:0:0:
256,192,100508,1,0,0:0:0:0:
256,192,100675,1,0,0:0:0:0:
256,192,100842,1,2,0:0:0:0:
256,192,101008,1,2,0:0:0:0:
256,192,101175,1,6,0:0:0:0:
256,192,101342,1,6,0:0:0:0:
256,192,101508,1,6,0:0:0:0:
256,192,101675,1,2,0:0:0:0:
256,192,101842,1,4,0:0:0:0:
256,192,102008,1,0,0:0:0:0:
256,192,102175,1,6,0:0:0:0:
256,192,102342,1,6,0:0:0:0:
256,192,102508,1,2,0:0:0:0:
256,192,102675,1,2,0:0:0:0:
256,192,102842,1,2,0:0:0:0:
256,192,103008,1,0,0:0:0:0:
256,192,103175,1,0,0:0:0:0:
256,192,103342,1,0,0:0:0:0:
256,192,103508,1,0,0:0:0:0:
256,192,103675,1,0,0:0:0:0:
256,192,103842,1,4,0:0:0:0:
256,192,104008,1,6,0:0:0:0:
256,192,104175,1,2,0:0:0:0:
256,192,104342,1,6,0:0:0:0:
256,192,104508,1,2,0:0:0:0:
256,192,104675,1,2,0:0:0:0:
256,192,104842,1,2,0:0:0:0:
256,192,105008,1,2,0:0:0:0:
256,192,105175,1,6,0:0:0:0:
256,192,105342,1,0,0:0:0:0:
256,192,105508,1,6,0:0:0:0:
256,192,105675,1,6,0:0:0:0:
256,192,105842,1,2,0:0:0:0:
256,192,106008,1,4,0:0:0:0:
256,192,106175,1,0,0:0:0:0:
256,192,106342,1,2,0:0:0:0:
256,192,106508,1,6,0:0:0:0:
256,192,106675,1,0,0:0:0:0:
256,192,106842,1,6,0:0:0:0:
256,192,107008,1,2,0:0:0:0:
256,192,107175,1,6,0:0:0:0:
256,192,107342,1,2,0:0:0:0:
256,192,107508,1,6,0:0:0:0:
256,192,107675,1,2,0:0:0:0:
256,192,107842,1,0,0:0:0:0:
256,192,108008,1,4,0:0:0:0:
256,192,108175,1,6,0:0:0:0:
256,192,108342,1,4,0:0:0:0:
256,192,108508,1,2,0:0:0:0:
256,192,108675,1,2,0:0:0:0:
256,192,108842,1,4,0:0:0:0:
256,192,109008,1,0,0:0:0:0:
256,192,109175,1,2,0:0:0:0:
256,192,109342,1,2,0:0:0:0:
256,192,109508,1,2,0:0:0:0:
256,192,109675,1,0,0:0:0:0:
256,192,109842,1,0,0:0:0:0:
256,192,110008,1,2,0:0:0:0:
256,192,110175,1,0,0:0:0:0:
256,192,110342,1,2,0:0:0:0:
256,192,110508,1,4,0:0:0:0:
256,192,110675,1,6,0:0:0:0:
256,192,110842,1,4,0:0:0:0:
256,192,111008,1,0,0:0:0:0:
256,192,111175,1,0,0:0:0:0:
256,192,111342,1,4,0:0:0:0:
256,192,111508,1,4,0:0:0:0:
256,192,111675,1,4,0:0:0:0:
256,192,111842,1,4,0:0:0:0:
256,192,112008,1,2,0:0:0:0:
256,192,112175,1,6,0:0:0:0:
256,192,112342,1,2,0:0:0:0:
256,192,112508,1,0,0:0:0:0:
256,192,112675,1,2,0:0:0:0:
256,192,112842,1,2,0:0:0:0:
256,192,113008,1,0,0:0:0:0:
256,192,113175,1,0,0:0:0:0:
256,192,113342,1,2,0:0:0:0:
256,192,113508,1,0,0:0:0:0:
256,192,113675,1,2,0:0:0:0:
256,192,113842,1,2,0:0:0:0:
256,192,114008,1,2,0:0:0:0:
256,192,114175,1,4,0:0:0:0:
256,192,114342,1,6,0:0:0:0:
256,192,114508,1,2,0:0:0:0:
256,192,114675,1,6,0:0:0:0:
256,192,114842,1,0,0:0:0:0:
256,192,115008,1,6,0:0:0:0:
256,192,115175,1,0,0:0:0:0:
256,192,115342,1,2,0:0:0:0:
256,192,115508,1,2,0:0:0:0:
256,192,115675,1,2,0:0:0:0:
256,192,115842,1,4,0:0:0:0:
256,192,116008,1,0,0:0:0:0:
256,192,116175,1,0,0:0:0:0:
256,192,116342,1,4,0:0:0:0:
256,192,116508,1,2,0:0:0:0:
256,192,116675,1,0,0:0:0:0:
256,192,116842,1,6,0:0:0:0:
256,192,117008,1,6,0:0:0:0:
256,192,117175,1,6,0:0:0:0:
256,192,117342,1,0,0:0:0:0:
256,192,117508,1,0,0:0:0:0:
256,192,117675,1,4,0:0:0:0:
256,192,117842,1,2,0:0:0:0:
256,192,118008,1,4,0:0:0:0:
256,192,118175,1,2,0:0:0:0:
256,192,118342,1,2,0:0:0:0:
256,192,118508,1,2,0:0:0:0:
256,192,118675,1,4,0:0:0:0:
256,192,118842,1,6,0:0:0:0:
256,192,119008,1,2,0:0:0:0:
256,192,119175,1,0,0:0:0:0:
256,192,119342,1,0,0:0:0:0:
256,192,119508,1,2,0:0:0:0:
256,192,119675,1,0,0:0:0:0:
256,192,119842,1,0,0:0:0:0:
256,192,120008,1,0,0:0:0:0:
256,192,120175,1,6,0:0:0:0:
256,192,120342,1,2,0:0:0:0:
256,192,120508,1,6,0:0:0:0:
256,192,120675,1,0,0:0:0:0:
256,192,120842,1,6,0:0:0:0:
256,192,121008,1,0,0:0:0:0:
256,192,121175,1,0,0:0:0:0:
256,192,121342,1,6,0:0:0:0:
256,192,121508,1,2,0:0:0:0:
256,192,121675,1,6,0:0:0:0:
256,192,121842,1,6,0:0:0:0:
256,192,122008,1,2,0:0:0:0:
256,192,122175,1,6,0:0:0:0:
256,192,122342,1,2,0:0:0:0:
256,192,122508,1,4,0:0:0:0:
256,192,122675,1,2,0:0:0:0:
256,192,122842,1,2,0:0:0:0:
256,192,123008,1,6,0:0:0:0:
256,192,123175,1,2,0:0:0:0:
256,192,123342,1,2,0:0:0:0:
256,192,123508,1,2,0:0:0:0:
256,192,123675,1,2,0:0:0:0:
256,192,123842,1,0,0:0:0:0:
256,192,124008,1,6,0:0:0:0:
256,192,124175,1,4,0:0:0:0:
256,192,124342,1,6,0:0:0:0:
256,192,124508,1,4,0:0:0:0:
256,192,124675,1,6,0:0:0:0:
256,192,124842,1,6,0:0:0:0:
256,192,125008,1,4,0:0:0:0:
256,192,125175,1,2,0:0:0:0:
256,192,125342,1,0,0:0:0:0:
256,192,125508,1,2,0:0:0:0:
256,192,125675,1,0,0:0:0:0:
256,192,125842,1,6,0:0:0:0:
256,192,126008,1,0,0:0:0:0:
256,192,126175,1,2,0:0:0:0:
256,192,126342,1,2,0:0:0:0:
256,192,126508,1,0,0:0:0:0:
256,192,126675,1,0,0:0:0:0:
256,192,126842,1,0,0:0:0:0:
256,192,127008,1,2,0:0:0:0:
256,192,127175,1,4,0:0:0:0:
256,192,127342,1,0,0:0:0:0:
256,192,127508,1,4,0:0:0:0:
256,192,127675,1,6,0:0:0:0:
256,192,127842,1,4,0:0:0:0:
256,192,128008,1,0,0:0:0:0:
256,192,128175,1,2,0:0:0:0:
256,192,128342,1,2,0:0:0:0:
256,192,128508,1,0,0:0:0:0:
256,192,128675,1,0,0:0:0:0:
256,192,128842,1,0,0:0:0:0:
256,192,129008,1,6,0:0:0:0:
256,192,129175,1,2,0:0:0:0:
256,192,129342,1,0,0:0:0:0:
256,192,129508,1,2,0:0:0:0:
256,192,129675,1,0,0:0:0:0:
256,192,129842,1,2,0:0:0:0:
256,192,130008,1,6,0:0:0:0:
256,192,130175,1,0,0:0:0:0:
256,192,130342,1,0,0:0:0:0:
256,192,130508,1,2,0:0:0:0:
256,192,130675,1,6,0:0:0:0:
256,192,130842,1,6,0:0:0:0:
256,192,131008,1,0,0:0:0:0:
256,192,131175,1,6,0:0:0:0:
256,192,131342,1,0,0:0:0:0:
256,192,131508,1,0,0:0:0:0:
256,192,131675,1,2,0:0:0:0:
256,192,131842,1,2,0:0:0:0:
256,192,132008,1,6,0:0:0:0:
256,192,132175,1,2,0:0:0:0:
256,192,132342,1,2,0:0:0:0:
256,192,132508,1,0,0:0:0:0:
256,192,132675,1,0,0:0:0:0:
256,192,132842,1,4,0:0:0:0:
256,192,133008,1,2,0:0:0:0:
256,192,133175,1,0,0:0:0:0:
256,192,133342,1,6,0:0:0:0:
256,192,133508,1,0,0:0:0:0:
256,192,133675,1,0,0:0:0:0:
256,192,133842,1,0,0:0:0:0:
256,192,134008,1,0,0:0:0:0:
256,192,134175,1,4,0:0:0:0:
256,192,134342,1,4,0:0:0:0:
256,192,134508,1,0,0:0:0:0:
256,192,134675,1,6,0:0:0:0:
256,192,134842,1,6,0:0:0:0:
256,192,135008,1,4,0:0:0:0:
256,192,135175,1,2,0:0:0:0:
256,192,135342,1,6,0:0:0:0:
256,192,135508,1,2,0:0:0:0:
256,192,135675,1,6,0:0:0:0:
256,192,135842,1,2,0:0:0:0:
256,192,136008,1,0,0:0:0:0:
256,192,136175,1,6,0:0:0:0:
256,192,136342,1,0,0:0:0:0:
256,192,136508,1,4,0:0:0:0:
256,192,136675,1,2,0:0:0:0:
256,192,136842,1,2,0:0:0:0:
256,192,137008,1,2,0:0:0:0:
256,192,137175,1,2,0:0:0:0:
256,192,137342,1,2,0:0:0:0:
256,192,137508,1,4,0:0:0:0:
256,192,137675,1,2,0:0:0:0:
256,192,137842,1,2,0:0:0:0:
256,192,138008,1,2,0:0:0:0:
256,192,138175,1,0,0:0:0:0:
256,192,138342,1,0,0:0:0:0:
256,192,138508,1,0,0:0:0:0:
256,192,138675,1,2,0:0:0:0:
256,192,138842,1,0,0:0:0:0:
256,192,139008,1,0,0:0:0:0:
256,192,139175,1,4,0:0:0:0:
256,192,139342,1,0,0:0:0:0:
256,192,139508,1,6,0:0:0:0:
256,192,139675,1,4,0:0:0:0:
256,192,139842,1,6,0:0:0:0:
256,192,140008,1,2,0:0:0:0:
256,192,140175,1,2,0:0:0:0:
256,192,140342,1,6,0:0:0:0:
256,192,140508,1,2,0:0:0:0:
256,192,140675,1,6,0:0:0:0:
256,192,140842,1,6,0:0:0:0:
256,192,141008,1,4,0:0:0:0:
256,192,141175,1,0,0:0:0:0:
256,192,141342,1,0,0:0:0:0:
256,192,141508,1,2,0:0:0:0:
256,192,141675,1,0,0:0:0:0:
256,192,141842,1,4,0:0:0:0:
256,192,142008,1,0,0:0:0:0:
256,192,142175,1,0,0:0:0:0:
256,192,142342,1,2,0:0:0:0:
256,192,142508,1,6,0:0:0:0:
256,192,142675,1,0,0:0:0:0:
256,192,142842,1,0,0:0:0:0:
256,192,143008,1,0,0:0:0:0:
256,192,143175,1,0,0:0:0:0:
256,192,143342,1,2,0:0:0:0:
256,192,143508,1,6,0:0:0:0:
256,192,143675,1,4,0:0:0:0:
256,192,143842,1,2,0:0:0:0:
256,192,144008,1,0,0:0:0:0:
256,192,144175,1,6,0:0:0:0:
256,192,144342,1,6,0:0:0:0:
256,192,144508,1,0,0:0:0:0:
256,192,144675,1,4,0:0:0:0:
256,192,144842,1,0,0:0:0:0:
256,192,145008,1,2,0:0:0:0:
256,192,145175,1,0,0:0:0:0:
256,192,145342,1,0,0:0:0:0:
256,192,145508,1,2,0:0:0:0:
256,192,145675,1,6,0:0:0:0:
256,192,145842,1,0,0:0:0:0:
256,192,146008,1,2,0:0:0:0:
256,192,146175,1,4,0:0:0:0:
256,192,146342,1,2,0:0:0:0:
256,192,146508,1,6,0:0:0:0:
256,192,146675,1,4,0:0:0:0:
256,192,146842,1,4,0:0:0:0:
256,192,147008,1,6,0:0:0:0:
256,192,147175,1,0,0:0:0:0:
256,192,147342,1,0,0:0:0:0:
256,192,147508,1,0,0:0:0:0:
256,192,147675,1,2,0:0:0:0:
256,192,147842,1,4,0:0:0:0:
256,192,148008,1,0,0:0:0:0:
256,192,148175,1,2,0:0:0:0:
256,192,148342,1,0,0:0:0:0:
256,192,148508,1,4,0:0:0:0:
256,192,148675,1,4,0:0:0:0:
256,192,148842,1,2,0:0:0:0:
256,192,149008,1,6,0:0:0:0:
256,192,149175,1,2,0:0:0:0:
256,192,149342,1,2,0:0:0:0:
256,192,149508,1,2,0:0:0:0:
256,192,149675,1,0,0:0:0:0:
256,192,149842,1,6,0:0:0:0:
256,192,150008,1,6,0:0:0:0:
256,192,150175,1,0,0:0:0:0:
256,192,150342,1,6,0:0:0:0:
256,192,150508,1,2,0:0:0:0:
256,192,150675,1,0,0:0:0:0:
256,192,150842,1,2,0:0:0:0:
256,192,151008,1,2,0:0:0:0:
256,192,151175,1,4,0:0:0:0:
256,192,151342,1,4,0:0:0:0:
256,192,151508,1,4,0:0:0:0:
256,192,151675,1,4,0:0:0:0:
256,192,151842,1,6,0:0:0:0:
256,192,152008,1,4,0:0:0:0:
256,192,152175,1,0,0:0:0:0:
256,192,152342,1,6,0:0:0:0:
256,192,152508,1,0,0:0:0:0:
256,192,152675,1,0,0:0:0:0:
256,192,152842,1,0,0:0:0:0:
256,192,153008,1,0,0:0:0:0:
256,192,153175,1,4,0:0:0:0:
256,192,153342,1,0,0:0:0:0:
256,192,153508,1,2,0:0:0:0:
256,192,153675,1,2,0:0:0:0:
256,192,153842,1,6,0:0:0:0:
256,192,154008,1,2,0:0:0:0:
256,192,154175,1,6,0:0:0:0:
256,192,154342,1,0,0:0:0:0:
256,192,154508,1,6,0:0:0:0:
256,192,154675,1,2,0:0:0:0:
256,192,154842,1,2,0:0:0:0:
256,192,155008,1,4,0:0:0:0:
256,192,155175,1,0,0:0:0:0:
256,192,155342,1,0,0:0:0:0:
256,192,155508,1,0,0:0:0:0:
256,192,155675,1,2,0:0:0:0:
256,192,155842,1,2,0:0:0:0:
256,192,156008,1,2,0:0:0:0:
256,192,156175,1,2,0:0:0:0:
256,192,156342,1,0,0:0:0:0:
256,192,156508,1,4,0:0:0:0:
256,192,156675,1,4,0:0:0:0:
256,192,156842,1,4,0:0:0:0:
256,192,157008,1,4,0:0:0:0:
256,192,157175,1,2,0:0:0:0:
256,192,157342,1,0,0:0:0:0:
256,192,157508,1,4,0:0:0:0:
256,192,157675,1,6,0:0:0:0:
256,192,157841,1,0,0:0:0:0:
256,192,158008,1,0,0:0:0:0:
256,192,158175,1,4,0:0:0:0:
256,192,158341,1,0,0:0:0:0:
256,192,158508,1,6,0:0:0:0:
256,192,158675,1,2,0:0:0:0:
256,192,158841,1,0,0:0:0:0:
256,192,159008,1,4,0:0:0:0:
256,192,159175,1,4,0:0:0:0:
256,192,159341,1,4,0:0:0:0:
256,192,159508,1,4,0:0:0:0:
256,192,159675,1,6,0:0:0:0:
256,192,159841,1,2,0:0:0:0:
256,192,160008,1,2,0:0:0:0:
256,192,160175,1,0,0:0:0:0:
256,192,160341,1,4,0:0:0:0:
256,192,160508,1,2,0:0:0:0:
256,192,160675,1,0,0:0:0:0:
256,192,160841,1,0,0:0:0:0:
256,192,161008,1,0,0:0:0:0:
256,192,161175,1,2,0:0:0:0:
256,192,161341,1,2,0:0:0:0:
256,192,161508,1,2,0:0:0:0:
256,192,161675,1,0,0:0:0:0:
256,192,161841,1,0,0:0:0:0:
256,192,162008,1,0,0:0:0:0:
256,192,162175,1,2,0:0:0:0:
256,192,162341,1,0,0:0:0:0:
256,192,162508,1,2,0:0:0:0:
256,192,162675,1,2,0:0:0:0:
256,192,162841,1,6,0:0:0:0:
256,192,163008,1,0,0:0:0:0:
256,192,163175,1,2,0:0:0:0:
256,192,163341,1,0,0:0:0:0:
256,192,163508,1,2,0:0:0:0:
256,192,163675,1,0,0:0:0:0:
256,192,163841,1,0,0:0:0:0:
256,192,164008,1,0,0:0:0:0:
256,192,164175,1,0,0:0:0:0:
256,192,164341,1,6,0:0:0:0:
256,192,164508,1,0,0:0:0:0:
256,192,164675,1,0,0:0:0:0:
256,192,164841,1,6,0:0:0:0:
256,192,165008,1,6,0:0:0:0:
256,192,165175,1,4,0:0:0:0:
256,192,165341,1,2,0:0:0:0:
256,192,165508,1,2,0:0:0:0:
256,192,165675,1,6,0:0:0:0:
256,192,165841,1,2,0:0:0:0:
256,192,166008,1,0,0:0:0:0:
256,192,166175,1,6,0:0:0:0:
256,192,166341,1,0,0:0:0:0:
256,192,166508,1,2,0:0:0:0:
256,192,166675,1,2,0:0:0:0:
256,192,166841,1,0,0:0:0:0:
256,192,167008,1,0,0:0:0:0:
256,192,167175,1,0,0:0:0:0:
256,192,167341,1,6,0:0:0:0:
256,192,167508,1,6,0:0:0:0:
256,192,167675,1,4,0:0:0:0:
256,192,167841,1,0,0:0:0:0:
256,192,168008,1,2,0:0:0:0:
256,192,168175,1,0,0:0:0:0:
256,192,168341,1,2,0:0:0:0:
256,192,168508,1,0,0:0:0:0:
256,192,168675,1,4,0:0:0:0:
256,192,168841,1,4,0:0:0:0:
256,192,169008,1,4,0:0:0:0:
256,192,169175,1,0,0:0:0:0:
256,192,169341,1,0,0:0:0:0:
256,192,169508,1,2,0:0:0:0:
256,192,169675,1,4,0:0:0:0:
256,192,169841,1,0,0:0:0:0:
256,192,170008,1,0,0:0:0:0:
256,192,170175,1,0,0:0:0:0:
256,192,170341,1,2,0:0:0:0:
256,192,170508,1,6,0:0:0:0:
256,192,170675,1,2,0:0:0:0:
256,192,170841,1,4,0:0:0:0:
256,192,171008,1,4,0:0:0:0:
256,192,171175,1,2,0:0:0:0:
256,192,171341,1,2,0:0:0:0:
256,192,171508,1,0,0:0:0:0:
256,192,171675,1,4,0:0:0:0:
256,192,171841,1,6,0:0:0:0:
256,192,172008,1,2,0:0:0:0:
256,192,172175,1,0,0:0:0:0:
256,192,172341,1,0,0:0:0:0:
256,192,172508,1,4,0:0:0:0:
256,192,172675,1,4,0:0:0:0:
256,192,172841,1,4,0:0:0:0:
256,192,173008,1,0,0:0:0:0:
256,192,173175,1,4,0:0:0:0:
256,192,173341,1,2,0:0:0:0:
256,192,173508,1,2,0:0:0:0:
256,192,173675,1,2,0:0:0:0:
256,192,173841,1,0,0:0:0:0:
256,192,174008,1,0,0:0:0:0:
256,192,174175,1,2,0:0:0:0:
256,192,174341,1,0,0:0:0:0:
256,192,174508,1,2,0:0:0:0:
256,192,174675,1,6,0:0:0:0:
256,192,174841,1,0,0:0:0:0:
256,192,175008,1,2,0:0:0:0:
256,192,175175,1,0,0:0:0:0:
256,192,175341,1,4,0:0:0:0:
256,192,175508,1,2,0:0:0:0:
256,192,175675,1,6,0:0:0:0:
256,192,175841,1,4,0:0:0:0:
256,192,176008,1,0,0:0:0:0:
256,192,176175,1,6,0:0:0:0:
256,192,176341,1,6,0:0:0:0:
256,192,176508,1,2,0:0:0:0:
256,192,176675,1,0,0:0:0:0:
256,192,176841,1,0,0:0:0:0:
256,192,177008,1,6,0:0:0:0:
256,192,177175,1,0,0:0:0:0:
256,192,177341,1,0,0:0:0:0:
256,192,177508,1,6,0:0:0:0:
256,192,177675,1,0,0:0:0:0:
256,192,177841,1,2,0:0:0:0:
256,192,178008,1,2,0:0:0:0:
256,192,178175,1,2,0:0:0:0:
256,192,178341,1,4,0:0:0:0:
256,192,178508,1,4,0:0:0:0:
256,192,178675,1,0,0:0:0:0:
256,192,178841,1,6,0:0:0:0:
256,192,179008,1,4,0:0:0:0:
256,192,179175,1,0,0:0:0:0:
256,192,179341,1,4,0:0:0:0:
256,192,179508,1,2,0:0:0:0:
256,192,179675,1,4,0:0:0:0:
256,192,179841,1,4,0:0:0:0:
256,192,180008,1,2,0:0:0:0:
256,192,180175,1,2,0:0:0:0:
256,192,180341,1,0,0:0:0:0:
256,192,180508,1,6,0:0:0:0:
256,192,180675,1,0,0:0:0:0:
256,192,180841,1,0,0:0:0:0:
256,192,181008,1,0,0:0:0:0:
256,192,181175,1,4,0:0:0:0:
256,192,181341,1,6,0:0:0:0:
256,192,181508,1,0,0:0:0:0:
256,192,181675,1,0,0:0:0:0:
256,192,181841,1,4,0:0:0:0:
256,192,182008,1,4,0:0:0:0:
256,192,182175,1,4,0:0:0:0:
256,192,182341,1,4,0:0:0:0:
256,192,182508,1,4,0:0:0:0:
256,192,182675,1,0,0:0:0:0:
256,192,182841,1,0,0:0:0:0:
256,192,183008,1,2,0:0:0:0:
256,192,183175,1,4,0:0:0:0:
256,192,183341,1,4,0:0:0:0:
256,192,183508,1,4,0:0:0:0:
256,192,183675,1,4,0:0:0:0:
256,192,183841,1,4,0:0:0:0:
256,192,184008,1,2,0:0:0:0:
256,192,184175,1,0,0:0:0:0:
256,192,184341,1,2,0:0:0:0:
256,192,184508,1,4,0:0:0:0:
256,192,184675,1,0,0:0:0:0:
256,192,184841,1,2,0:0:0:0:
256,192,185008,1,6,0:0:0:0:
256,192,185175,1,2,0:0:0:0:
256,192,185341,1,4,0:0:0:0:
256,192,185508,1,4,0:0:0:0:
256,192,185675,1,4,0:0:0:0:
256,192,185841,1,2,0:0:0:0:
256,192,186008,1,0,0:0:0:0:
256,192,186175,1,0,0:0:0:0:
256,192,186341,1,2,0:0:0:0:
256,192,186508,1,6,0:0:0:0:
256,192,186675,1,6,0:0:0:0:
256,192,186841,1,2,0:0:0:0:
256,192,187008,1,0,0:0:0:0:
256,192,187175,1,0,0:0:0:0:
256,192,187341,1,0,0:0:0:0:
256,192,187508,1,4,0:0:0:0:
256,192,187675,1,0,0:0:0:0:
256,192,187841,1,2,0:0:0:0:
256,192,188008,1,4,0:0:0:0:
256,192,188175,1,0,0:0:0:0:
256,192,188341,1,4,0:0:0:0:
256,192,188508,1,0,0:0:0:0:
256,192,188675,1,0,0:0:0:0:
256,192,188841,1,2,0:0:0:0:
256,192,189008,1,4,0:0:0:0:
256,192,189175,1,2,0:0:0:0:
256,192,189341,1,0,0:0:0:0:
256,192,189508,1,2,0:0:0:0:
256,192,189675,1,6,0:0:0:0:
256,192,189841,1,6,0:0:0:0:
256,192,190008,1,2,0:0:0:0:
256,192,190175,1,0,0:0:0:0:
256,192,190341,1,0,0:0:0:0:
256,192,190508,1,2,0:0:0:0:
256,192,190675,1,0,0:0:0:0:
256,192,190841,1,0,0:0:0:0:
256,192,191008,1,4,0:0:0:0:
256,192,191175,1,6,0:0:0:0:
256,192,191341,1,6,0:0:0:0:
256,192,191508,1,2,0:0:0:0:
256,192,191675,1,4,0:0:0:0:
256,192,191841,1,2,0:0:0:0:
256,192,192008,1,0,0:0:0:0:
256,192,192175,1,0,0:0:0:0:
256,192,192341,1,6,0:0:0:0:
256,192,192508,1,4,0:0:0:0:
256,192,192675,1,4,0:0:0:0:
256,192,192841,1,2,0:0:0:0:
256,192,193008,1,2,0:0:0:0:
256,192,193175,1,2,0:0:0:0:
256,192,193341,1,0,0:0:0:0:
256,192,193508,1,0,0:0:0:0:
256,192,193675,1,6,0:0:0:0:
256,192,193841,1,4,0:0:0:0:
256,192,194008,1,2,0:0:0:0:
256,192,194175,1,4,0:0:0:0:
256,192,194341,1,6,0:0:0:0:
256,192,194508,1,2,0:0:0:0:
256,192,194675,1,0,0:0:0:0:
256,192,194841,1,2,0:0:0:0:
256,192,195008,1,6,0:0:0:0:
256,192,195175,1,2,0:0:0:0:
256,192,195341,1,4,0:0:0:0:
256,192,195508,1,0,0:0:0:0:
256,192,195675,1,0,0:0:0:0:
256,192,195841,1,6,0:0:0:0:
256,192,196008,1,4,0:0:0:0:
256,192,196175,1,0,0:0:0:0:
256,192,196341,1,4,0:0:0:0:
256,192,196508,1,0,0:0:0:0:
256,192,196675,1,0,0:0:0:0:
256,192,196841,1,4,0:0:0:0:
256,192,197008,1,6,0:0:0:0:
256,192,197175,1,2,0:0:0:0:
256,192,197341,1,0,0:0:0:0:
256,192,197508,1,4,0:0:0:0:
