osu file format v14

[General]
AudioFilename: audio.mp3
AudioLeadIn: 0
PreviewTime: 41945
Countdown: 0
SampleSet: Normal
StackLeniency: 0.7
Mode: 1
LetterboxInBreaks: 0
WidescreenStoryboard: 0

[Editor]
Bookmarks: 17530,33182,58616
DistanceSpacing: 3.4
BeatDivisor: 4
GridSize: 32
TimelineZoom: 1.35

[Metadata]
Title:Ne, Issho ni Kaero. (TV Size)
TitleUnicode:ね、いっしょにかえろ。(TV Size)
Artist:Hitori Bocchi (CV: Morishita Chisaki)
ArtistUnicode:一里ぼっち (CV: 森下千咲)
Creator:Tyistiana
Version:Futsuu
Source:ひとりぼっちの○○生活
Tags:anime ending ed Hitoribocchi no Marumaru Seikatsu Hitori Bocchi's oo Lifestyle blackener
BeatmapID:2149266
BeatmapSetID:1027859

[Difficulty]
HPDrainRate:6
CircleSize:5
OverallDifficulty:4
ApproachRate:7
SliderMultiplier:1.4
SliderTickRate:1

[Events]
//Background and Video events
0,0,"bocchi-pure.jpg",0,50
//Break Periods
//Storyboard Layer 0 (Background)
//Storyboard Layer 1 (Fail)
//Storyboard Layer 2 (Pass)
//Storyboard Layer 3 (Foreground)
//Storyboard Layer 4 (Overlay)
//Storyboard Sound Samples

[TimingPoints]
-78,326.086956521739,3,1,0,70,1,0
900,-125,3,1,0,70,0,0
1878,326.086956521739,3,1,0,70,1,0
1878,-125,3,1,0,70,0,0
42964,326.086956521739,3,1,0,70,1,1
42964,-125,3,1,0,70,0,1
78181,-125,3,1,0,70,0,0

[HitObjects]
256,192,1552,5,0,0:0:0:0:
256,192,1878,1,12,0:0:0:0:
256,192,2530,1,0,0:0:0:0:
256,192,2856,1,8,0:0:0:0:
256,192,3345,1,8,0:0:0:0:
256,192,3508,1,0,0:0:0:0:
256,192,3671,1,0,0:0:0:0:
256,192,3834,1,8,0:0:0:0:
256,192,4812,1,8,0:0:0:0:
256,192,5138,1,0,0:0:0:0:
256,192,5464,1,0,0:0:0:0:
256,192,5791,1,12,0:0:0:0:
256,192,6443,1,0,0:0:0:0:
256,192,6769,1,8,0:0:0:0:
256,192,7258,1,8,0:0:0:0:
256,192,7421,1,0,0:0:0:0:
256,192,7584,1,0,0:0:0:0:
256,192,7747,1,8,0:0:0:0:
256,192,8399,1,0,0:0:0:0:
256,192,8725,1,8,0:0:0:0:
256,192,9051,1,0,0:0:0:0:
256,192,9214,1,8,0:0:0:0:
256,192,9377,1,0,0:0:0:0:
256,192,9704,1,12,0:0:0:0:
256,192,10356,1,0,0:0:0:0:
256,192,10682,1,8,0:0:0:0:
256,192,11171,1,8,0:0:0:0:
256,192,11334,1,0,0:0:0:0:
256,192,11497,1,0,0:0:0:0:
256,192,11660,1,8,0:0:0:0:
256,192,12638,1,8,0:0:0:0:
256,192,12964,1,0,0:0:0:0:
256,192,13291,1,0,0:0:0:0:
256,192,13617,1,12,0:0:0:0:
256,192,14269,1,0,0:0:0:0:
256,192,14595,1,12,0:0:0:0:
256,192,15084,1,8,0:0:0:0:
256,192,15247,1,0,0:0:0:0:
256,192,15410,1,0,0:0:0:0:
256,192,15573,1,8,0:0:0:0:
256,192,16062,1,8,0:0:0:0:
256,192,16225,1,8,0:0:0:0:
256,192,16551,1,0,0:0:0:0:
256,192,16714,1,8,0:0:0:0:
256,192,16877,1,0,0:0:0:0:
256,192,17204,1,8,0:0:0:0:
256,192,17530,5,4,0:0:0:0:
256,192,18019,1,0,0:0:0:0:
256,192,18182,1,0,0:0:0:0:
256,192,18508,1,8,0:0:0:0:
256,192,19160,1,0,0:0:0:0:
256,192,19486,1,0,0:0:0:0:
256,192,19975,1,0,0:0:0:0:
256,192,20138,1,8,0:0:0:0:
256,192,20464,1,8,0:0:0:0:
256,192,21117,1,8,0:0:0:0:
256,192,21443,1,0,0:0:0:0:
256,192,21932,1,0,0:0:0:0:
256,192,22095,1,0,0:0:0:0:
256,192,22421,1,8,0:0:0:0:
256,192,23073,1,8,0:0:0:0:
256,192,23399,1,0,0:0:0:0:
256,192,23888,1,0,0:0:0:0:
256,192,24051,1,8,0:0:0:0:
256,192,24377,1,8,0:0:0:0:
256,192,25030,1,8,0:0:0:0:
256,192,25356,5,4,0:0:0:0:
256,192,25845,1,0,0:0:0:0:
256,192,26008,1,0,0:0:0:0:
256,192,26334,1,8,0:0:0:0:
256,192,26986,1,0,0:0:0:0:
256,192,27312,1,0,0:0:0:0:
256,192,27801,1,0,0:0:0:0:
256,192,27964,1,8,0:0:0:0:
256,192,28291,1,8,0:0:0:0:
256,192,28943,1,8,0:0:0:0:
256,192,29269,1,0,0:0:0:0:
256,192,29595,1,0,0:0:0:0:
256,192,29758,1,0,0:0:0:0:
256,192,30084,1,0,0:0:0:0:
256,192,30247,1,8,0:0:0:0:
256,192,30899,1,8,0:0:0:0:
256,192,31225,1,0,0:0:0:0:
256,192,31714,1,0,0:0:0:0:
256,192,32041,1,8,0:0:0:0:
256,192,32204,1,8,0:0:0:0:
256,192,32530,1,0,0:0:0:0:
256,192,32856,1,8,0:0:0:0:
256,192,33182,5,4,0:0:0:0:
256,192,33508,1,8,0:0:0:0:
256,192,33671,1,0,0:0:0:0:
256,192,33834,1,8,0:0:0:0:
256,192,34486,1,0,0:0:0:0:
256,192,34649,1,0,0:0:0:0:
256,192,34812,1,8,0:0:0:0:
256,192,35464,1,8,0:0:0:0:
256,192,35791,1,0,0:0:0:0:
256,192,35954,1,0,0:0:0:0:
256,192,36117,1,8,0:0:0:0:
256,192,36443,1,0,0:0:0:0:
256,192,36769,1,8,0:0:0:0:
256,192,36932,1,8,0:0:0:0:
256,192,37095,1,4,0:0:0:0:
256,192,37747,1,0,0:0:0:0:
256,192,37910,1,0,0:0:0:0:
256,192,38073,1,8,0:0:0:0:
256,192,38725,1,8,0:0:0:0:
256,192,39051,12,0,41008,0:0:0:0:
256,192,41986,5,0,0:0:0:0:
256,192,42312,1,0,0:0:0:0:
256,192,42638,1,8,0:0:0:0:
256,192,42964,5,4,0:0:0:0:
256,192,43290,1,8,0:0:0:0:
256,192,43453,1,0,0:0:0:0:
256,192,43779,1,0,0:0:0:0:
256,192,43942,1,8,0:0:0:0:
256,192,44268,1,0,0:0:0:0:
256,192,44594,1,8,0:0:0:0:
256,192,44757,1,8,0:0:0:0:
256,192,44920,1,0,0:0:0:0:
256,192,45246,1,0,0:0:0:0:
256,192,45409,1,8,0:0:0:0:
256,192,45735,1,8,0:0:0:0:
256,192,45898,1,0,0:0:0:0:
256,192,46550,1,8,0:0:0:0:
256,192,46877,1,4,0:0:0:0:
256,192,47203,1,0,0:0:0:0:
256,192,47366,1,8,0:0:0:0:
256,192,47692,1,8,0:0:0:0:
256,192,47855,1,0,0:0:0:0:
256,192,48181,1,8,0:0:0:0:
256,192,48507,1,8,0:0:0:0:
256,192,48670,1,0,0:0:0:0:
256,192,48833,1,8,0:0:0:0:
256,192,49159,1,0,0:0:0:0:
256,192,49322,1,8,0:0:0:0:
256,192,49648,1,8,0:0:0:0:
256,192,49811,1,0,0:0:0:0:
256,192,50137,1,8,0:0:0:0:
256,192,50464,1,8,0:0:0:0:
256,192,50627,1,8,0:0:0:0:
256,192,50790,1,4,0:0:0:0:
256,192,51442,1,8,0:0:0:0:
256,192,51768,1,0,0:0:0:0:
256,192,52420,1,8,0:0:0:0:
256,192,52583,1,0,0:0:0:0:
256,192,52746,1,8,0:0:0:0:
256,192,53398,1,8,0:0:0:0:
256,192,53724,1,0,0:0:0:0:
256,192,54050,1,8,0:0:0:0:
256,192,54377,1,0,0:0:0:0:
256,192,54540,1,0,0:0:0:0:
256,192,54703,1,12,0:0:0:0:
256,192,55355,1,8,0:0:0:0:
256,192,55681,1,0,0:0:0:0:
256,192,56007,1,0,0:0:0:0:
256,192,56333,1,8,0:0:0:0:
256,192,56659,1,4,0:0:0:0:
256,192,56985,1,0,0:0:0:0:
256,192,57148,1,8,0:0:0:0:
256,192,57963,1,8,0:0:0:0:
256,192,58290,1,8,0:0:0:0:
256,192,58616,5,4,0:0:0:0:
256,192,58942,1,8,0:0:0:0:
256,192,59105,1,0,0:0:0:0:
256,192,59431,1,0,0:0:0:0:
256,192,59594,1,8,0:0:0:0:
256,192,59920,1,0,0:0:0:0:
256,192,60246,1,8,0:0:0:0:
256,192,60409,1,8,0:0:0:0:
256,192,60572,1,0,0:0:0:0:
256,192,60898,1,0,0:0:0:0:
256,192,61061,1,8,0:0:0:0:
256,192,61387,1,8,0:0:0:0:
256,192,61550,1,0,0:0:0:0:
256,192,62203,1,8,0:0:0:0:
256,192,62529,1,4,0:0:0:0:
256,192,62855,1,0,0:0:0:0:
256,192,63018,1,8,0:0:0:0:
256,192,63344,1,8,0:0:0:0:
256,192,63507,1,0,0:0:0:0:
256,192,63833,1,8,0:0:0:0:
256,192,64159,1,8,0:0:0:0:
256,192,64322,1,0,0:0:0:0:
256,192,64485,1,8,0:0:0:0:
256,192,64811,1,0,0:0:0:0:
256,192,64974,1,8,0:0:0:0:
256,192,65300,1,8,0:0:0:0:
256,192,65463,1,0,0:0:0:0:
256,192,65790,1,8,0:0:0:0:
256,192,66116,1,8,0:0:0:0:
256,192,66279,1,0,0:0:0:0:
256,192,66442,1,4,0:0:0:0:
256,192,67094,1,8,0:0:0:0:
256,192,67420,1,0,0:0:0:0:
256,192,68072,1,8,0:0:0:0:
256,192,68235,1,0,0:0:0:0:
256,192,68398,1,8,0:0:0:0:
256,192,69050,1,8,0:0:0:0:
256,192,69213,1,0,0:0:0:0:
256,192,69377,1,8,0:0:0:0:
256,192,69703,1,8,0:0:0:0:
256,192,70029,1,0,0:0:0:0:
256,192,70192,1,0,0:0:0:0:
256,192,70355,1,12,0:0:0:0:
256,192,71007,1,8,0:0:0:0:
256,192,71333,1,0,0:0:0:0:
256,192,71659,1,0,0:0:0:0:
256,192,71985,1,8,0:0:0:0:
256,192,72311,1,4,0:0:0:0:
256,192,72637,1,0,0:0:0:0:
256,192,72800,1,8,0:0:0:0:
256,192,73616,1,8,0:0:0:0:
256,192,73942,1,0,0:0:0:0:
256,192,74268,1,4,0:0:0:0:
256,192,74920,1,8,0:0:0:0:
256,192,75246,1,0,0:0:0:0:
256,192,75572,1,0,0:0:0:0:
256,192,75898,1,8,0:0:0:0:
256,192,76224,1,8,0:0:0:0:
256,192,76550,1,0,0:0:0:0:
256,192,76713,1,8,0:0:0:0:
256,192,77855,5,0,0:0:0:0:
256,192,78181,1,12,0:0:0:0:
256,192,78833,1,0,0:0:0:0:
256,192,79159,1,8,0:0:0:0:
256,192,79648,1,8,0:0:0:0:
256,192,79811,1,0,0:0:0:0:
256,192,79974,1,0,0:0:0:0:
256,192,80137,1,8,0:0:0:0:
256,192,81116,1,8,0:0:0:0:
256,192,81442,1,0,0:0:0:0:
256,192,81768,1,0,0:0:0:0:
256,192,82094,1,12,0:0:0:0:
256,192,82746,1,0,0:0:0:0:
256,192,83072,1,8,0:0:0:0:
256,192,83561,1,8,0:0:0:0:
256,192,83724,1,0,0:0:0:0:
256,192,83887,1,0,0:0:0:0:
256,192,84050,1,8,0:0:0:0:
256,192,84703,1,0,0:0:0:0:
256,192,85029,1,8,0:0:0:0:
256,192,85355,1,0,0:0:0:0:
256,192,85681,1,8,0:0:0:0:
256,192,85844,1,0,0:0:0:0:
256,192,86007,1,12,0:0:0:0:
256,192,86170,12,0,89920,0:0:0:0:
