osu file format v14

[General]
AudioFilename: audio.mp3
AudioLeadIn: 0
PreviewTime: 41986
Countdown: 0
SampleSet: Normal
StackLeniency: 0.7
Mode: 3
LetterboxInBreaks: 0
SpecialStyle: 0
WidescreenStoryboard: 0

[Editor]
Bookmarks: 17530,25356,33182,58616
DistanceSpacing: 3.4
BeatDivisor: 2
GridSize: 32
TimelineZoom: 1.7

[Metadata]
Title:Ne, Issho ni Kaero. (TV Size)
TitleUnicode:ね、いっしょにかえろ。(TV Size)
Artist:Hitori Bocchi (CV: Morishita Chisaki)
ArtistUnicode:一里ぼっち (CV: 森下千咲)
Creator:Faputa
Version:Normal
Source:ひとりぼっちの○○生活
Tags:hey, lets go home together. Drum-Hitnormal 一緒に帰ろ 一人ぼっち カツヲ katsuwo kadokawa dudehacker dh ending ed Hitoribocchi no Marumaru Seikatsu Hitori Bocchi's oo Lifestyle ZMCZ-13164 anime Japanese
BeatmapID:2272187
BeatmapSetID:1084075

[Difficulty]
HPDrainRate:7.5
CircleSize:4
OverallDifficulty:7.5
ApproachRate:5
SliderMultiplier:1.4
SliderTickRate:1

[Events]
//Background and Video events
0,0,"bocchi.jpg",0,0
//Break Periods
//Storyboard Layer 0 (Background)
//Storyboard Layer 1 (Fail)
//Storyboard Layer 2 (Pass)
//Storyboard Layer 3 (Foreground)
//Storyboard Layer 4 (Overlay)
//Storyboard Sound Samples

[TimingPoints]
-78,326.086956521739,3,1,1,50,1,0
1878,326.086956521739,3,1,1,50,1,0
42964,326.086956521739,3,1,1,50,1,1
78181,-100,3,1,1,50,0,0

[HitObjects]
448,192,737,5,2,0:0:0:0:
320,192,818,1,2,0:0:0:0:
64,192,900,1,0,0:0:0:50:tom01.wav
192,192,1063,1,2,0:0:0:0:
448,192,1226,1,0,0:0:0:50:tom01.wav
320,192,1389,1,0,0:0:0:50:tom01.wav
64,192,1552,128,0,1878:0:0:0:50:tom02.wav
192,192,1552,1,0,0:0:0:0:
320,192,1878,1,4,0:0:0:0:
448,192,1878,128,8,2204:0:0:0:0:
192,192,2367,1,2,0:0:0:0:
320,192,2367,1,0,0:0:0:0:
64,192,2530,1,0,0:0:0:0:
192,192,2693,1,8,0:0:0:0:
320,192,2856,128,8,3182:0:0:0:0:
64,192,3182,1,8,0:0:0:0:
192,192,3345,1,0,0:0:0:0:
320,192,3508,1,2,0:0:0:0:
448,192,3508,1,0,0:0:0:0:
192,192,3671,1,0,0:0:0:0:
64,192,3834,128,8,4160:0:0:0:0:
448,192,4160,1,0,0:0:0:0:
192,192,4323,1,2,0:0:0:0:
320,192,4323,1,0,0:0:0:0:
64,192,4486,1,0,0:0:0:0:
448,192,4649,1,8,0:0:0:0:
192,192,4812,1,8,0:0:0:0:
192,192,5138,1,8,0:0:0:0:
320,192,5301,1,2,0:0:0:0:
448,192,5301,1,0,0:0:0:0:
64,192,5464,1,0,0:0:0:0:
320,192,5627,1,8,0:0:0:0:
192,192,5791,1,4,0:0:0:0:
448,192,5791,128,8,6117:0:0:0:0:
64,192,6280,1,2,0:0:0:0:
320,192,6280,1,0,0:0:0:0:
192,192,6443,1,0,0:0:0:0:
448,192,6606,1,8,0:0:0:0:
192,192,6769,128,8,7095:0:0:0:0:
320,192,7095,1,8,0:0:0:0:
64,192,7258,1,0,0:0:0:0:
192,192,7421,1,2,0:0:0:0:
448,192,7421,1,0,0:0:0:0:
320,192,7584,1,0,0:0:0:0:
64,192,7747,128,8,8073:0:0:0:0:
448,192,8073,1,0,0:0:0:0:
192,192,8236,1,2,0:0:0:0:
320,192,8236,1,0,0:0:0:0:
64,192,8399,1,0,0:0:0:0:
448,192,8562,1,8,0:0:0:0:
64,192,8725,1,2,0:0:0:0:
320,192,8725,1,0,0:0:0:0:
64,192,9051,1,2,0:0:0:0:
192,192,9051,1,0,0:0:0:0:
320,192,9214,1,2,0:0:0:0:
448,192,9214,1,0,0:0:0:0:
64,192,9377,1,0,0:0:0:50:tom01.wav
192,192,9541,1,0,0:0:0:50:tom02.wav
320,192,9704,1,4,0:0:0:0:
448,192,9704,128,8,10030:0:0:0:0:
64,192,10193,1,2,0:0:0:0:
192,192,10193,1,0,0:0:0:0:
448,192,10356,1,0,0:0:0:0:
320,192,10519,1,8,0:0:0:0:
192,192,10682,128,8,11008:0:0:0:0:
64,192,11008,1,8,0:0:0:0:
320,192,11171,1,0,0:0:0:0:
192,192,11334,1,2,0:0:0:0:
448,192,11334,1,0,0:0:0:0:
320,192,11497,1,0,0:0:0:0:
64,192,11660,128,8,11986:0:0:0:0:
192,192,11986,1,0,0:0:0:0:
320,192,12149,1,2,0:0:0:0:
448,192,12149,1,0,0:0:0:0:
64,192,12312,1,0,0:0:0:0:
320,192,12475,1,8,0:0:0:0:
192,192,12638,1,8,0:0:0:0:
192,192,12964,1,8,0:0:0:0:
64,192,13127,1,2,0:0:0:0:
448,192,13127,1,0,0:0:0:0:
320,192,13291,1,0,0:0:0:0:
192,192,13454,1,8,0:0:0:0:
64,192,13617,1,4,0:0:0:0:
320,192,13617,128,8,13943:0:0:0:0:
192,192,14106,1,2,0:0:0:0:
448,192,14106,1,0,0:0:0:0:
320,192,14269,1,0,0:0:0:0:
64,192,14432,1,8,0:0:0:0:
320,192,14595,1,2,0:0:0:0:
448,192,14595,1,4,0:0:0:0:
320,192,14921,1,2,0:0:0:0:
448,192,14921,1,0,0:0:0:0:
64,192,15084,1,2,0:0:0:0:
192,192,15084,1,0,0:0:0:0:
448,192,15247,1,0,0:0:0:50:tom01.wav
64,192,15410,1,0,0:0:0:50:tom02.wav
192,192,15573,1,8,0:0:0:0:
320,192,15573,1,4,0:0:0:0:
192,192,17204,1,0,0:0:0:0:
64,192,17530,1,4,0:0:0:0:
448,192,17530,1,8,0:0:0:0:
320,192,18019,1,0,0:0:0:0:
192,192,18182,1,0,0:0:0:0:
320,192,18508,1,2,0:0:0:0:
448,192,18508,1,0,0:0:0:0:
64,192,19160,1,8,0:0:0:0:
64,192,19486,1,8,0:0:0:0:
64,192,19975,1,8,0:0:0:0:
448,192,20138,1,0,0:0:0:0:
192,192,20464,1,2,0:0:0:0:
320,192,20464,1,0,0:0:0:0:
192,192,20954,1,2,0:0:0:0:
320,192,20954,1,0,0:0:0:0:
448,192,21117,128,0,21443:0:0:0:50:openhat.wav
64,192,21443,1,8,0:0:0:0:
192,192,21932,1,0,0:0:0:0:
448,192,22095,1,8,0:0:0:0:
320,192,22258,1,0,0:0:0:0:
64,192,22421,1,2,0:0:0:0:
192,192,22421,1,0,0:0:0:0:
192,192,23073,128,8,23399:0:0:0:0:
448,192,23399,1,8,0:0:0:0:
448,192,23888,1,8,0:0:0:0:
64,192,24051,1,0,0:0:0:0:
320,192,24214,1,0,0:0:0:0:
192,192,24377,1,2,0:0:0:0:
448,192,24377,1,0,0:0:0:0:
448,192,24704,1,0,0:0:0:50:openhat.wav
64,192,24867,1,2,0:0:0:0:
320,192,24867,1,0,0:0:0:0:
192,192,25030,1,0,0:0:0:50:tom01.wav
320,192,25193,1,0,0:0:0:50:tom02.wav
64,192,25356,1,4,0:0:0:0:
448,192,25356,1,8,0:0:0:0:
192,192,25845,1,0,0:0:0:0:
448,192,26008,1,0,0:0:0:0:
320,192,26171,1,0,0:0:0:0:
64,192,26334,1,2,0:0:0:0:
192,192,26334,1,0,0:0:0:0:
64,192,26986,1,8,0:0:0:0:
320,192,27149,1,0,0:0:0:0:
192,192,27312,1,8,0:0:0:0:
192,192,27801,1,8,0:0:0:0:
448,192,27964,1,0,0:0:0:0:
320,192,28127,1,0,0:0:0:0:
64,192,28291,1,2,0:0:0:0:
192,192,28291,1,0,0:0:0:0:
320,192,28780,1,2,0:0:0:0:
448,192,28780,1,0,0:0:0:0:
64,192,28943,128,0,29269:0:0:0:50:openhat.wav
448,192,29106,1,0,0:0:0:0:
192,192,29269,1,8,0:0:0:0:
320,192,29595,1,0,0:0:0:0:
192,192,29758,1,0,0:0:0:0:
64,192,30084,1,0,0:0:0:0:
320,192,30247,1,2,0:0:0:0:
448,192,30247,1,0,0:0:0:0:
64,192,30899,1,8,0:0:0:0:
192,192,31062,1,0,0:0:0:0:
448,192,31225,1,8,0:0:0:0:
448,192,31714,1,8,0:0:0:0:
320,192,32041,1,2,0:0:0:0:
192,192,32122,1,2,0:0:0:0:
64,192,32204,1,2,0:0:0:0:
448,192,32367,1,2,0:0:0:0:
192,192,32530,1,0,0:0:0:50:tom01.wav
320,192,32693,1,2,0:0:0:0:
192,192,32856,1,0,0:0:0:50:tom02.wav
64,192,33019,1,0,0:0:0:50:tom02.wav
320,192,33182,1,4,0:0:0:0:
448,192,33182,1,8,0:0:0:0:
64,192,33508,1,0,0:0:0:0:
320,192,33671,1,0,0:0:0:0:
192,192,33834,1,2,0:0:0:0:
448,192,33834,1,0,0:0:0:0:
192,192,34160,1,2,0:0:0:0:
320,192,34160,1,0,0:0:0:0:
448,192,34486,1,0,0:0:0:0:
192,192,34649,1,0,0:0:0:0:
64,192,34812,1,2,0:0:0:0:
320,192,34812,1,0,0:0:0:0:
192,192,35138,1,2,0:0:0:0:
448,192,35138,1,0,0:0:0:0:
320,192,35464,1,0,0:0:0:0:
192,192,35627,1,0,0:0:0:0:
64,192,35791,1,2,0:0:0:0:
320,192,35791,1,0,0:0:0:0:
448,192,35954,1,0,0:0:0:0:
64,192,36117,1,2,0:0:0:0:
192,192,36117,1,0,0:0:0:0:
320,192,36443,128,0,36769:0:0:0:0:
192,192,36769,1,2,0:0:0:0:
448,192,36932,1,2,0:0:0:0:
64,192,37095,1,4,0:0:0:0:
320,192,37095,1,8,0:0:0:0:
192,192,37584,1,2,0:0:0:0:
448,192,37584,1,0,0:0:0:0:
320,192,37747,1,0,0:0:0:0:
192,192,37910,1,8,0:0:0:0:
64,192,38073,1,8,0:0:0:0:
320,192,38399,1,2,0:0:0:0:
448,192,38399,1,0,0:0:0:0:
64,192,38725,1,8,0:0:0:0:
192,192,39051,1,4,0:0:0:0:
448,192,39051,1,8,0:0:0:0:
64,192,39541,1,2,0:0:0:0:
320,192,39541,1,0,0:0:0:0:
192,192,39704,1,0,0:0:0:0:
448,192,39867,1,8,0:0:0:0:
64,192,40030,1,2,0:0:0:0:
192,192,40030,1,4,0:0:0:0:
320,192,40356,1,2,0:0:0:0:
448,192,40356,1,0,0:0:0:0:
64,192,40519,1,2,0:0:0:0:
192,192,40519,1,0,0:0:0:0:
320,192,40682,1,0,0:0:0:50:tom01.wav
192,192,40845,1,0,0:0:0:50:tom02.wav
64,192,41008,1,4,0:0:0:0:
448,192,41008,1,8,0:0:0:0:
192,192,41986,128,0,42312:0:0:0:0:
320,192,42312,128,0,42638:0:0:0:0:
448,192,42638,128,0,42964:0:0:0:0:
64,192,42964,1,4,0:0:0:0:
192,192,42964,1,8,0:0:0:0:
320,192,43290,1,0,0:0:0:0:
64,192,43453,1,2,0:0:0:0:
192,192,43453,1,0,0:0:0:0:
448,192,43616,1,0,0:0:0:0:
192,192,43779,1,8,0:0:0:0:
64,192,43942,1,8,0:0:0:0:
448,192,44105,1,0,0:0:0:0:
64,192,44268,1,8,0:0:0:0:
320,192,44431,1,0,0:0:0:0:
192,192,44594,1,2,0:0:0:0:
448,192,44594,1,0,0:0:0:0:
320,192,44757,1,0,0:0:0:0:
64,192,44920,1,8,0:0:0:0:
192,192,45246,1,0,0:0:0:0:
320,192,45409,1,2,0:0:0:0:
448,192,45409,1,0,0:0:0:0:
64,192,45572,1,0,0:0:0:0:
320,192,45735,1,8,0:0:0:0:
192,192,45898,128,8,46550:0:0:0:0:
320,192,46224,1,8,0:0:0:0:
64,192,46550,1,2,0:0:0:0:
448,192,46550,128,0,46877:0:0:0:0:
64,192,46877,1,4,0:0:0:0:
192,192,46877,1,8,0:0:0:0:
192,192,47203,1,0,0:0:0:0:
320,192,47366,1,2,0:0:0:0:
448,192,47366,1,0,0:0:0:0:
64,192,47529,1,0,0:0:0:0:
192,192,47692,1,8,0:0:0:0:
448,192,47855,1,8,0:0:0:0:
320,192,48018,1,0,0:0:0:0:
448,192,48181,1,8,0:0:0:0:
64,192,48344,1,0,0:0:0:0:
192,192,48507,1,2,0:0:0:0:
320,192,48507,1,0,0:0:0:0:
64,192,48670,1,0,0:0:0:0:
320,192,48833,1,8,0:0:0:0:
448,192,49159,1,0,0:0:0:0:
64,192,49322,1,2,0:0:0:0:
320,192,49322,1,0,0:0:0:0:
448,192,49485,1,0,0:0:0:0:
192,192,49648,1,8,0:0:0:0:
64,192,49811,1,2,0:0:0:0:
320,192,49811,1,0,0:0:0:0:
192,192,50137,1,2,0:0:0:0:
448,192,50137,1,0,0:0:0:0:
64,192,50300,1,2,0:0:0:0:
320,192,50300,1,0,0:0:0:0:
192,192,50464,1,0,0:0:0:50:tom01.wav
320,192,50627,1,0,0:0:0:50:tom02.wav
64,192,50790,1,4,0:0:0:0:
448,192,50790,1,8,0:0:0:0:
192,192,51116,1,0,0:0:0:0:
320,192,51279,1,2,0:0:0:0:
448,192,51279,1,0,0:0:0:0:
64,192,51442,128,0,51768:0:0:0:0:
192,192,51768,128,8,52094:0:0:0:0:
448,192,52094,1,8,0:0:0:0:
64,192,52420,1,2,0:0:0:0:
192,192,52420,1,0,0:0:0:0:
320,192,52583,1,0,0:0:0:0:
448,192,52746,1,8,0:0:0:0:
64,192,53072,1,0,0:0:0:0:
320,192,53235,1,2,0:0:0:0:
448,192,53235,1,0,0:0:0:0:
192,192,53398,128,0,53724:0:0:0:0:
320,192,53561,1,8,0:0:0:0:
64,192,53724,128,8,54050:0:0:0:0:
448,192,54050,128,8,54377:0:0:0:0:
64,192,54377,1,2,0:0:0:0:
320,192,54377,1,0,0:0:0:0:
192,192,54540,1,0,0:0:0:0:
320,192,54703,1,4,0:0:0:0:
448,192,54703,1,8,0:0:0:0:
64,192,55029,1,0,0:0:0:0:
320,192,55192,1,2,0:0:0:0:
448,192,55192,1,0,0:0:0:0:
192,192,55355,1,0,0:0:0:0:
448,192,55518,1,8,0:0:0:0:
64,192,55681,128,8,56007:0:0:0:0:
320,192,56007,128,8,56333:0:0:0:0:
64,192,56333,1,2,0:0:0:0:
448,192,56333,128,0,56659:0:0:0:0:
192,192,56659,1,2,0:0:0:0:
320,192,56659,1,4,0:0:0:0:
64,192,56822,1,0,0:0:0:0:
320,192,56985,1,8,0:0:0:0:
64,192,57148,1,2,0:0:0:0:
448,192,57148,1,4,0:0:0:0:
192,192,57311,1,8,0:0:0:0:
320,192,57474,1,0,0:0:0:0:
64,192,57637,1,2,0:0:0:0:
192,192,57637,1,0,0:0:0:0:
320,192,57800,1,8,0:0:0:0:
192,192,57963,1,2,0:0:0:0:
448,192,57963,1,0,0:0:0:0:
64,192,58127,1,0,0:0:0:50:tom01.wav
320,192,58290,1,0,0:0:0:50:tom02.wav
192,192,58453,1,0,0:0:0:50:tom02.wav
64,192,58616,1,4,0:0:0:0:
448,192,58616,1,8,0:0:0:0:
320,192,58942,1,0,0:0:0:0:
64,192,59105,1,2,0:0:0:0:
192,192,59105,1,0,0:0:0:0:
448,192,59268,1,0,0:0:0:0:
64,192,59431,1,8,0:0:0:0:
320,192,59594,1,8,0:0:0:0:
192,192,59757,1,0,0:0:0:0:
448,192,59920,1,8,0:0:0:0:
64,192,60083,1,0,0:0:0:0:
192,192,60246,1,2,0:0:0:0:
320,192,60246,1,0,0:0:0:0:
448,192,60409,1,0,0:0:0:0:
192,192,60572,1,8,0:0:0:0:
320,192,60898,1,0,0:0:0:0:
64,192,61061,1,2,0:0:0:0:
192,192,61061,1,0,0:0:0:0:
320,192,61224,1,0,0:0:0:0:
448,192,61387,1,8,0:0:0:0:
64,192,61550,128,8,62203:0:0:0:0:
192,192,61877,1,8,0:0:0:0:
320,192,62203,1,2,0:0:0:0:
448,192,62203,128,0,62529:0:0:0:0:
64,192,62529,1,4,0:0:0:0:
192,192,62529,1,8,0:0:0:0:
192,192,62855,1,0,0:0:0:0:
64,192,63018,1,2,0:0:0:0:
448,192,63018,1,0,0:0:0:0:
320,192,63181,1,0,0:0:0:0:
64,192,63344,1,8,0:0:0:0:
192,192,63507,1,8,0:0:0:0:
448,192,63670,1,0,0:0:0:0:
192,192,63833,1,8,0:0:0:0:
320,192,63996,1,0,0:0:0:0:
64,192,64159,1,2,0:0:0:0:
192,192,64159,1,0,0:0:0:0:
320,192,64322,1,0,0:0:0:0:
448,192,64485,1,8,0:0:0:0:
192,192,64811,1,0,0:0:0:0:
64,192,64974,1,2,0:0:0:0:
448,192,64974,1,0,0:0:0:0:
192,192,65137,1,0,0:0:0:0:
320,192,65300,1,8,0:0:0:0:
64,192,65463,1,2,0:0:0:0:
192,192,65463,1,0,0:0:0:0:
64,192,65790,1,2,0:0:0:0:
192,192,65790,1,0,0:0:0:0:
320,192,65953,1,2,0:0:0:0:
448,192,65953,1,0,0:0:0:0:
192,192,66116,1,0,0:0:0:50:tom01.wav
320,192,66279,1,0,0:0:0:50:tom02.wav
64,192,66442,1,4,0:0:0:0:
448,192,66442,1,8,0:0:0:0:
448,192,66768,1,0,0:0:0:0:
64,192,66931,1,2,0:0:0:0:
192,192,66931,1,0,0:0:0:0:
320,192,67094,128,0,67420:0:0:0:0:
64,192,67420,128,8,67746:0:0:0:0:
192,192,67746,1,8,0:0:0:0:
320,192,68072,1,2,0:0:0:0:
448,192,68072,1,0,0:0:0:0:
64,192,68235,1,0,0:0:0:0:
192,192,68398,1,8,0:0:0:0:
320,192,68724,1,0,0:0:0:0:
64,192,68887,1,2,0:0:0:0:
448,192,68887,1,0,0:0:0:0:
192,192,69050,1,0,0:0:0:0:
448,192,69213,1,8,0:0:0:0:
64,192,69377,128,8,69703:0:0:0:0:
320,192,69703,128,8,70029:0:0:0:0:
64,192,70029,1,2,0:0:0:0:
192,192,70029,1,0,0:0:0:0:
448,192,70192,1,0,0:0:0:0:
192,192,70355,1,4,0:0:0:0:
320,192,70355,1,8,0:0:0:0:
64,192,70681,1,0,0:0:0:0:
320,192,70844,1,2,0:0:0:0:
448,192,70844,1,0,0:0:0:0:
192,192,71007,1,0,0:0:0:0:
320,192,71170,1,8,0:0:0:0:
64,192,71333,128,8,71659:0:0:0:0:
448,192,71659,128,8,71985:0:0:0:0:
64,192,71985,128,2,72311:0:0:0:0:
320,192,71985,1,0,0:0:0:0:
192,192,72311,1,2,0:0:0:0:
448,192,72311,1,4,0:0:0:0:
192,192,72637,1,8,0:0:0:0:
64,192,72800,1,2,0:0:0:0:
320,192,72800,1,4,0:0:0:0:
448,192,72963,1,8,0:0:0:0:
192,192,73127,1,0,0:0:0:0:
320,192,73290,1,2,0:0:0:0:
448,192,73290,1,0,0:0:0:0:
64,192,73453,1,8,0:0:0:0:
320,192,73616,1,2,0:0:0:0:
448,192,73616,1,0,0:0:0:0:
192,192,73779,1,0,0:0:0:50:tom01.wav
320,192,73942,1,0,0:0:0:50:tom02.wav
448,192,74105,1,0,0:0:0:50:tom02.wav
64,192,74268,1,4,0:0:0:0:
192,192,74268,1,8,0:0:0:0:
320,192,74594,1,8,0:0:0:0:
192,192,74757,1,0,0:0:0:0:
64,192,74920,1,8,0:0:0:0:
448,192,75083,1,0,0:0:0:0:
320,192,75246,128,8,75572:0:0:0:0:
448,192,75572,128,8,75898:0:0:0:0:
192,192,75735,1,0,0:0:0:0:
64,192,75898,128,8,76224:0:0:0:0:
320,192,76224,1,2,0:0:0:0:
448,192,76224,1,0,0:0:0:50:tom01.wav
64,192,76387,1,2,0:0:0:0:
192,192,76387,1,0,0:0:0:0:
320,192,76550,1,0,0:0:0:50:tom02.wav
192,192,76713,1,2,0:0:0:0:
448,192,76713,1,0,0:0:0:0:
64,192,76877,1,2,0:0:0:0:
320,192,76877,1,0,0:0:0:0:
192,192,77040,1,8,0:0:0:0:
448,192,77855,128,0,78181:0:0:0:0:
64,192,78181,1,4,0:0:0:0:
192,192,78181,128,8,78507:0:0:0:0:
320,192,78507,1,0,0:0:0:0:
64,192,78670,1,2,0:0:0:0:
448,192,78670,1,0,0:0:0:0:
192,192,78833,1,0,0:0:0:0:
320,192,78996,1,8,0:0:0:0:
448,192,79159,128,8,79485:0:0:0:0:
64,192,79485,1,8,0:0:0:0:
192,192,79648,1,0,0:0:0:0:
320,192,79811,1,2,0:0:0:0:
448,192,79811,1,0,0:0:0:0:
192,192,79974,1,0,0:0:0:0:
64,192,80137,128,8,80463:0:0:0:0:
448,192,80463,1,0,0:0:0:0:
192,192,80627,1,2,0:0:0:0:
320,192,80627,1,0,0:0:0:0:
64,192,80790,1,0,0:0:0:0:
448,192,80953,1,8,0:0:0:0:
192,192,81116,1,8,0:0:0:0:
320,192,81442,1,8,0:0:0:0:
64,192,81605,1,2,0:0:0:0:
192,192,81605,1,0,0:0:0:0:
448,192,81768,1,0,0:0:0:0:
192,192,81931,1,8,0:0:0:0:
64,192,82094,128,4,82420:0:0:0:0:
448,192,82094,1,8,0:0:0:0:
192,192,82420,1,0,0:0:0:0:
320,192,82583,1,2,0:0:0:0:
448,192,82583,1,0,0:0:0:0:
64,192,82746,1,0,0:0:0:0:
192,192,82909,1,8,0:0:0:0:
448,192,83072,128,8,83398:0:0:0:0:
192,192,83398,1,8,0:0:0:0:
320,192,83561,1,0,0:0:0:0:
64,192,83724,1,2,0:0:0:0:
448,192,83724,1,0,0:0:0:0:
192,192,83887,1,0,0:0:0:0:
320,192,84050,128,8,84377:0:0:0:0:
448,192,84377,1,0,0:0:0:0:
64,192,84540,1,2,0:0:0:0:
192,192,84540,1,0,0:0:0:0:
448,192,84703,1,0,0:0:0:0:
192,192,84866,1,8,0:0:0:0:
320,192,85029,1,2,0:0:0:0:
448,192,85029,1,0,0:0:0:0:
320,192,85355,1,2,0:0:0:0:
448,192,85355,1,0,0:0:0:0:
64,192,85518,1,2,0:0:0:0:
192,192,85518,1,0,0:0:0:0:
320,192,85681,1,0,0:0:0:50:tom01.wav
192,192,85844,1,0,0:0:0:50:tom02.wav
64,192,86007,1,4,0:0:0:0:
448,192,86007,128,8,89920:0:0:0:0:
