osu file format v14

[General]
AudioFilename: audio.mp3
AudioLeadIn: 0
PreviewTime: 183457
Countdown: 1
SampleSet: Soft
StackLeniency: 0.7
Mode: 0
LetterboxInBreaks: 0
WidescreenStoryboard: 0

[Editor]
Bookmarks: 194381
DistanceSpacing: 0.8
BeatDivisor: 4
GridSize: 8
TimelineZoom: 2.659999

[Metadata]
Title:Ne, Issho ni Kaero.
TitleUnicode:ね、いっしょにかえろ。
Artist:Hitori Bocchi (CV: Morishita Chisaki)
ArtistUnicode:一里ぼっち (CV: 森下千咲)
Creator:LaxyLax
Version:Hitoribocchi
Source:Hitoribocchi no Marumaruseikatsu
Tags:hitoribocchi no marumaruseikatsu anime ending ED ね、いっしょにかえろ。ひとりぼっちの○○生活 lets go home together
BeatmapID:2060480
BeatmapSetID:984766

[Difficulty]
HPDrainRate:6
CircleSize:3.7
OverallDifficulty:8
ApproachRate:9
SliderMultiplier:1.4
SliderTickRate:1

[Events]
//Background and Video events
0,0,"7kk3fzc82zn01.png",0,0
//Break Periods
//Storyboard Layer 0 (Background)
//Storyboard Layer 1 (Fail)
//Storyboard Layer 2 (Pass)
//Storyboard Layer 3 (Foreground)
//Storyboard Layer 4 (Overlay)
//Storyboard Sound Samples

[TimingPoints]
1785,326.086956521739,3,2,0,100,1,0
2763,-133.333333333333,3,2,0,100,0,0
41893,-133.333333333333,3,2,0,100,0,1
77111,-153.846153846153,3,2,0,100,0,0
117219,-133.333333333333,3,2,0,100,0,0
149828,-133.333333333333,3,2,0,100,0,0
167111,-285.714285714284,3,2,0,100,0,0
167763,-133.333333333333,3,2,0,100,0,0
183741,-133.333333333333,3,2,0,100,0,1
202328,-133.333333333333,3,2,0,100,0,0
211132,-181.818181818182,3,2,0,100,0,0

[HitObjects]
139,36,643,6,0,L|138:95,2,35
272,273,969,1,0,0:0:0:0:
77,177,1132,1,0,0:0:0:0:
308,95,1295,1,0,0:0:0:0:
161,309,1458,6,0,P|151:242|169:165,1,140
364,221,1948,1,0,0:0:0:0:
275,34,2111,1,0,0:0:0:0:
186,223,2274,1,0,0:0:0:0:
424,161,2437,1,0,0:0:0:0:
205,82,2600,1,0,0:0:0:0:
323,315,2763,6,0,B|338:264|327:203,1,105.000004005432
234,208,3252,1,0,0:0:0:0:
300,26,3415,1,0,0:0:0:0:
424,131,3578,1,0,0:0:0:0:
234,208,3741,6,0,P|226:131|237:95,1,105.000004005432
133,249,4230,1,0,0:0:0:0:
97,89,4393,1,0,0:0:0:0:
308,164,4556,1,0,0:0:0:0:
198,328,4719,2,0,B|162:346|162:346|110:347|77:325,1,105.000004005432
37,252,5208,2,0,L|36:189,1,52.5000020027161
170,230,5534,1,0,0:0:0:0:
115,96,5698,6,0,P|186:90|231:101,1,105.000004005432
397,180,6187,1,0,0:0:0:0:
206,247,6350,1,0,0:0:0:0:
342,299,6513,1,0,0:0:0:0:
328,65,6676,6,0,P|318:124|335:183,1,105.000004005432
462,123,7165,1,0,0:0:0:0:
352,249,7328,1,0,0:0:0:0:
238,109,7491,1,0,0:0:0:0:
61,249,7654,2,0,P|115:236|178:259,1,105.000004005432
231,344,8143,5,0,0:0:0:0:
231,344,8306,1,0,0:0:0:0:
365,242,8469,2,0,L|367:169,1,52.5000020027161
195,136,8795,1,0,0:0:0:0:
345,34,8958,1,0,0:0:0:0:
285,202,9121,1,0,0:0:0:0:
121,33,9284,1,0,0:0:0:0:
221,140,9448,1,0,0:0:0:0:
58,178,9611,6,0,P|48:242|69:298,1,105.000004005432
157,207,10100,1,0,0:0:0:0:
308,289,10263,1,0,0:0:0:0:
188,341,10426,1,0,0:0:0:0:
272,198,10589,6,0,P|330:186|397:203,1,105.000004005432
427,281,11078,1,0,0:0:0:0:
459,75,11241,2,0,L|458:140,1,52.5000020027161
359,89,11567,2,0,P|301:77|234:94,1,105.000004005432
132,173,12056,2,0,L|136:114,1,52.5000020027161
48,65,12382,1,0,0:0:0:0:
30,273,12545,2,0,P|20:201|37:155,2,105.000004005432
297,228,13524,6,0,P|308:290|291:349,1,105.000004005432
170,260,14013,1,0,0:0:0:0:
65,325,14176,2,0,L|62:254,1,52.5000020027161
64,148,14502,2,0,P|134:144|189:151,1,105.000004005432
251,71,14991,5,0,0:0:0:0:
245,226,15154,1,0,0:0:0:0:
407,131,15317,1,0,0:0:0:0:
348,362,15480,2,0,L|346:194,1,157.500006008148
346,204,16051,5,0,0:0:0:0:
345,204,16132,1,0,0:0:0:0:
126,233,16295,1,0,0:0:0:0:
227,330,16458,1,0,0:0:0:0:
255,122,16621,1,0,0:0:0:0:
227,330,16784,1,0,0:0:0:0:
91,166,16947,1,0,0:0:0:0:
33,315,17111,6,0,P|91:331|137:309,1,105.000004005432
31,214,17763,1,0,0:0:0:0:
121,113,17926,2,0,L|121:41,1,52.5000020027161
218,141,18252,1,0,0:0:0:0:
306,53,18415,2,0,B|335:85|335:85|336:148|299:209,1,157.500006008148
215,262,19067,5,0,0:0:0:0:
215,262,19230,1,0,0:0:0:0:
315,317,19393,2,0,B|304:349|304:349|230:369|175:346,1,157.500006008148
244,261,20045,2,0,L|243:198,1,52.5000020027161
355,217,20371,2,0,P|374:151|357:113,1,105.000004005432
217,142,20861,1,0,0:0:0:0:
280,46,21024,6,0,P|214:30|173:42,1,105.000004005432
52,77,21513,1,0,0:0:0:0:
132,197,21676,1,0,0:0:0:0:
18,186,21839,1,0,0:0:0:0:
123,119,22002,1,0,0:0:0:0:
127,233,22165,1,0,0:0:0:0:
22,313,22328,2,0,B|55:327|55:327|130:329,1,105.000004005432
366,324,22817,6,0,L|293:321,1,52.5000020027161
279,203,23143,1,0,0:0:0:0:
173,320,23306,2,0,P|165:261|197:153,1,157.500006008148
269,238,23958,1,0,0:0:0:0:
361,204,24121,1,0,0:0:0:0:
285,110,24284,2,0,P|363:110|413:121,1,105.000004005432
469,198,24774,5,0,0:0:0:0:
469,198,24937,1,0,0:0:0:0:
364,259,25100,1,0,0:0:0:0:
471,346,25263,2,0,P|418:357|356:343,1,105.000004005432
311,200,25752,2,0,L|310:253,1,52.5000020027161
209,331,26078,1,0,0:0:0:0:
104,232,26241,2,0,B|147:222|147:222|231:234,1,105.000004005432
126,345,26730,5,0,0:0:0:0:
11,250,26893,2,0,L|13:321,1,52.5000020027161
119,233,27219,2,0,P|138:147|102:74,1,157.500006008148
31,145,27871,1,0,0:0:0:0:
193,41,28034,1,0,0:0:0:0:
203,224,28197,2,0,P|155:234|79:215,1,105.000004005432
297,77,28687,6,0,L|297:144,1,52.5000020027161
427,135,29013,1,0,0:0:0:0:
315,251,29176,2,0,P|376:235|425:255,1,105.000004005432
442,135,29665,2,0,L|373:133,1,52.5000020027161
266,178,29991,1,0,0:0:0:0:
155,83,30154,2,0,P|210:76|267:88,1,105.000004005432
198,254,30643,6,0,P|162:259|124:256,1,52.5000020027161
74,140,30969,1,0,0:0:0:0:
207,40,31132,2,0,P|223:112|203:156,1,105.000004005432
75,75,31621,1,0,0:0:0:0:
233,213,31784,1,0,0:0:0:0:
47,239,31947,1,0,0:0:0:0:
47,239,32029,1,0,0:0:0:0:
47,239,32110,1,0,0:0:0:0:
342,166,32274,5,0,0:0:0:0:
142,89,32437,1,0,0:0:0:0:
217,298,32600,1,0,0:0:0:0:
272,37,32763,1,0,0:0:0:0:
88,209,32926,1,0,0:0:0:0:
360,214,33089,1,0,0:0:0:0:
132,237,33415,5,0,0:0:0:0:
132,237,33578,1,0,0:0:0:0:
83,111,33741,2,0,L|208:111,1,105.000004005432
134,281,34393,1,0,0:0:0:0:
134,281,34556,1,0,0:0:0:0:
108,51,34719,2,0,L|234:53,1,105.000004005432
211,233,35371,5,0,0:0:0:0:
385,257,35534,1,0,0:0:0:0:
310,116,35697,2,0,L|310:46,1,52.5000020027161
435,76,36024,2,0,L|435:199,1,105.000004005432
218,64,36676,5,0,0:0:0:0:
218,64,36839,1,0,0:0:0:0:
162,145,37002,2,0,L|161:266,1,105.000004005432
260,51,37654,5,0,0:0:0:0:
260,51,37817,1,0,0:0:0:0:
135,194,37980,2,0,L|132:310,1,105.000004005432
254,235,38632,1,0,0:0:0:0:
368,181,38958,2,0,B|370:224|370:224|367:254|330:297,1,105.000004005432
248,193,39447,2,0,B|245:149|245:149|249:119|284:88,1,105.000004005432
379,113,39937,2,0,B|406:146|406:146|427:170|417:228,1,105.000004005432,0|0,2:0|2:0,2:0:0:0:
247,135,40426,5,0,0:0:0:0:
411,129,40589,1,0,0:0:0:0:
303,271,40752,1,0,0:0:0:0:
153,167,40915,2,0,B|154:238|154:238|206:291|306:264,1,210.000008010865
157,82,41893,6,0,P|225:69|274:84,2,105.000004005432
209,288,42871,1,0,0:0:0:0:
90,188,43197,1,0,0:0:0:0:
282,142,43360,2,0,L|282:70,1,52.5000020027161
136,79,43687,1,0,0:0:0:0:
183,262,43850,2,0,B|224:273|224:273|305:267,1,105.000004005432
282,103,44339,5,0,0:0:0:0:
417,95,44502,2,0,L|416:167,1,52.5000020027161
308,336,44828,2,0,B|278:302|278:302|273:251|280:227,1,105.000004005432
242,79,45317,1,0,0:0:0:0:
192,237,45480,1,0,0:0:0:0:
112,118,45643,1,0,0:0:0:0:
330,119,45806,2,0,P|373:134|356:203,2,105.000004005432
359,329,46784,5,0,0:0:0:0:
452,218,47110,1,0,0:0:0:0:
289,129,47274,2,0,L|288:203,1,52.5000020027161
355,278,47600,1,0,0:0:0:0:
438,76,47763,2,0,B|397:65|397:65|318:71,1,105.000004005432
290,213,48252,5,0,0:0:0:0:
153,147,48415,2,0,L|153:79,1,52.5000020027161
266,34,48741,2,0,B|286:59|286:59|291:110|276:150,1,105.000004005432
182,75,49230,1,0,0:0:0:0:
106,180,49393,1,0,0:0:0:0:
69,21,49556,1,0,0:0:0:0:
25,124,49719,6,0,L|25:75,2,26.2500010013581
122,285,50045,1,0,0:0:0:0:
138,156,50208,1,0,0:0:0:0:
8,243,50371,1,0,0:0:0:0:
157,312,50534,1,0,0:0:0:0:
137,118,50697,2,0,B|251:118,1,105.000004005432
359,189,51187,5,0,0:0:0:0:
402,32,51350,2,0,L|329:31,1,52.5000020027161
217,178,51676,2,0,B|200:153|200:153|207:104|248:72,1,105.000004005432
349,131,52165,1,0,0:0:0:0:
461,31,52328,2,0,L|461:102,1,52.5000020027161
473,186,52654,2,0,B|450:203|450:203|406:204|353:189,1,105.000004005432
301,112,53143,1,0,0:0:0:0:
205,190,53306,2,0,B|195:145|195:145|208:103|228:71,2,105.000004005432
261,287,54121,5,0,0:0:0:0:
428,270,54284,1,0,0:0:0:0:
327,179,54447,1,0,0:0:0:0:
338,364,54610,2,0,B|362:376|362:376|413:382|460:357,1,105.000004005432
472,190,55100,1,0,0:0:0:0:
491,300,55263,1,0,0:0:0:0:
346,251,55426,1,0,0:0:0:0:
355,131,55589,6,0,P|308:118|243:130,2,105.000004005432
208,233,56567,2,0,L|209:344,1,105.000004005432
116,354,57056,2,0,L|0:352,1,105.000004005432
41,212,57545,1,0,0:0:0:0:
188,119,57708,1,0,0:0:0:0:
217,280,57871,1,0,0:0:0:0:
36,121,58034,1,0,0:0:0:0:
254,117,58197,1,0,0:0:0:0:
81,273,58360,1,0,0:0:0:0:
36,43,58524,6,0,B|74:31|74:31|158:45,1,105.000004005432
233,182,59013,1,0,0:0:0:0:
343,46,59176,2,0,L|342:122,1,52.5000020027161
426,242,59502,2,0,B|447:199|447:199|455:159|447:123,1,105.000004005432
263,183,59991,1,0,0:0:0:0:
389,333,60154,2,0,L|334:331,1,52.5000020027161
211,359,60480,6,0,B|187:323|187:323|193:281|203:243,1,105.000004005432
305,247,60969,1,0,0:0:0:0:
307,41,61132,1,0,0:0:0:0:
406,150,61295,1,0,0:0:0:0:
182,134,61458,2,0,P|113:128|71:134,2,105.000004005432
123,347,62437,6,0,P|101:289|124:228,1,105.000004005432
310,179,62926,2,0,L|309:256,1,52.5000020027161
185,302,63253,1,0,0:0:0:0:
151,91,63416,2,0,B|192:80|192:80|269:92,1,105.000004005432
300,244,63905,5,0,0:0:0:0:
444,232,64068,2,0,L|443:164,1,52.5000020027161
320,30,64394,2,0,B|294:56|294:56|289:107|304:147,1,105.000004005432
228,253,64882,1,0,0:0:0:0:
385,122,65045,1,0,0:0:0:0:
337,247,65208,1,0,0:0:0:0:
217,92,65371,5,0,0:0:0:0:
217,92,65453,1,0,0:0:0:0:
217,92,65534,1,0,0:0:0:0:
155,234,65697,1,0,0:0:0:0:
56,85,65860,1,0,0:0:0:0:
205,40,66024,1,0,0:0:0:0:
200,251,66187,1,0,0:0:0:0:
148,118,66350,2,0,B|127:135|127:135|115:186|123:232,1,105.000004005432
216,284,66839,5,0,0:0:0:0:
127,353,67002,2,0,L|18:352,2,105.000004005432
26,264,67980,2,0,L|25:192,1,52.5000020027161
137,152,68306,2,0,B|104:117|104:117|57:116|36:121,1,105.000004005432
104,34,68795,2,0,L|174:34,1,52.5000020027161
346,86,69121,5,0,0:0:0:0:
243,248,69284,1,0,0:0:0:0:
219,132,69447,1,0,0:0:0:0:
157,302,69610,1,0,0:0:0:0:
346,258,69774,1,0,0:0:0:0:
119,177,69937,1,0,0:0:0:0:
258,356,70100,1,0,0:0:0:0:
288,173,70263,6,0,P|273:110|298:45,1,105.000004005432
394,40,70752,1,0,0:0:0:0:
349,230,70915,2,0,P|407:212|465:250,2,105.000004005432
297,337,71893,1,0,0:0:0:0:
151,255,72219,2,0,B|148:129,1,105.000004005432
242,154,72708,2,0,L|355:154,1,105.000004005432
167,78,73198,6,0,L|94:78,1,52.5000020027161
49,201,73524,2,0,L|118:202,1,52.5000020027161
194,311,73850,2,0,L|134:310,1,52.5000020027161
289,202,74176,2,0,P|297:141|348:105,1,105.000004005432
402,223,74665,2,0,P|396:276|387:296,1,52.5000020027161
267,131,74991,1,0,0:0:0:0:
160,274,75154,6,0,P|127:227|149:183,2,105.000004005432
239,211,75969,1,0,0:0:0:0:
79,88,76132,1,0,0:0:0:0:
285,56,76295,1,0,0:0:0:0:
79,88,76458,1,0,0:0:0:0:
239,211,76621,1,0,0:0:0:0:
285,56,76784,1,0,0:0:0:0:
178,291,77110,6,0,B|218:302|218:302|291:299,2,105.000004005432
121,138,78089,2,0,B|115:102|115:102|121:65|155:40,1,90.9999958343508
273,73,78578,1,0,0:0:0:0:
160,180,78741,2,0,L|160:113,1,45.4999979171754
255,186,79067,2,0,B|265:206|265:206|263:254|251:295,1,90.9999958343508
364,99,79556,2,0,L|303:97,1,45.4999979171754
138,78,79882,1,0,0:0:0:0:
269,199,80045,2,0,B|294:179|294:179|338:180|375:215,1,90.9999958343508
434,340,80534,6,0,L|431:281,1,45.4999979171754
351,106,80861,1,0,0:0:0:0:
297,287,81024,2,0,B|256:301|221:298|221:298|199:280,1,90.9999958343508
390,178,81513,1,0,0:0:0:0:
227,166,81676,1,0,0:0:0:0:
227,166,81839,1,0,0:0:0:0:
342,64,82002,6,0,B|316:39|316:39|286:37|237:55,1,90.9999958343508
400,173,82491,1,0,0:0:0:0:
180,166,82654,2,0,L|236:165,1,45.4999979171754
342,296,82981,2,0,B|292:309|233:298,1,90.9999958343508
221,141,83469,1,0,0:0:0:0:
118,315,83632,2,0,L|118:248,1,45.4999979171754
86,131,83958,2,0,B|110:112|110:112|159:117|186:137,1,90.9999958343508
260,310,84448,5,0,0:0:0:0:
409,200,84611,1,0,0:0:0:0:
228,49,84774,2,0,L|230:113,1,45.4999979171754
278,275,85100,1,0,0:0:0:0:
278,275,85263,1,0,0:0:0:0:
108,56,85426,1,0,0:0:0:0:
263,134,85589,1,0,0:0:0:0:
11,215,85752,1,0,0:0:0:0:
275,193,85915,6,0,B|263:164|263:164|277:121|291:90,1,90.9999958343508
375,303,86404,1,0,0:0:0:0:
438,107,86567,2,0,L|436:42,1,45.4999979171754
281,162,86893,2,0,B|267:185|267:185|269:233|281:274,1,90.9999958343508
360,48,87382,2,0,L|297:45,1,45.4999979171754
243,246,87708,1,0,0:0:0:0:
72,92,87871,2,0,B|96:74|96:74|140:75|167:101,1,90.9999958343508
161,327,88361,5,0,0:0:0:0:
79,161,88524,1,0,0:0:0:0:
79,161,88687,1,0,0:0:0:0:
260,163,88850,2,0,L|259:265,1,90.9999958343508
108,114,89339,2,0,L|108:60,1,45.4999979171754
324,210,89665,1,0,0:0:0:0:
85,243,89828,6,0,B|78:279|78:279|84:317|122:347,1,90.9999958343508
206,319,90317,1,0,0:0:0:0:
109,74,90480,2,0,L|108:144,1,45.4999979171754
275,182,90806,2,0,B|292:152|292:152|290:104|278:63,1,90.9999958343508
361,329,91295,5,0,0:0:0:0:
361,90,91458,1,0,0:0:0:0:
191,286,91621,1,0,0:0:0:0:
395,114,91784,2,0,B|382:84|382:84|330:67|296:82,1,90.9999958343508
137,131,92274,5,0,0:0:0:0:
137,131,92355,1,0,0:0:0:0:
137,131,92437,1,0,0:0:0:0:
207,291,92600,1,0,0:0:0:0:
346,184,92763,1,0,0:0:0:0:
64,242,92926,1,0,0:0:0:0:
235,349,93089,1,0,0:0:0:0:
165,120,93252,1,0,0:0:0:0:
359,173,93415,6,0,L|358:112,1,45.4999979171754
314,273,93741,2,0,P|367:285|430:263,1,90.9999958343508
272,125,94230,2,0,L|271:56,1,45.4999979171754
178,120,94556,1,0,0:0:0:0:
268,259,94719,2,0,P|286:207|266:118,1,136.499993751526
74,199,95371,5,0,0:0:0:0:
276,158,95534,1,0,0:0:0:0:
119,42,95697,2,0,B|99:75|99:75|98:127|117:171,1,136.499993751526
252,273,96350,1,0,0:0:0:0:
252,273,96513,1,0,0:0:0:0:
408,163,96676,2,0,P|349:154|320:161,1,90.9999958343508
82,136,97165,5,0,0:0:0:0:
82,136,97328,2,0,P|130:118|161:135,1,68.2499968757631
159,179,97654,2,0,B|158:204|177:237|159:284,1,90.9999958343508
226,60,98143,1,0,0:0:0:0:
350,183,98306,1,0,0:0:0:0:
195,211,98469,1,0,0:0:0:0:
377,101,98632,2,0,P|318:89|266:106,1,90.9999958343508
319,216,99121,6,0,L|319:275,1,45.4999979171754
220,113,99448,1,0,0:0:0:0:
172,326,99611,2,0,B|175:302|156:255|178:220,1,90.9999958343508
72,212,100100,1,0,0:0:0:0:
72,212,100263,1,0,0:0:0:0:
183,76,100426,2,0,L|181:130,1,45.4999979171754
326,278,100752,5,0,0:0:0:0:
326,278,100915,1,0,0:0:0:0:
205,183,101078,1,0,0:0:0:0:
426,187,101241,6,0,L|427:114,1,68.2499968757631
338,39,101567,2,0,B|305:28|269:41|234:30,1,90.9999958343508
213,214,102056,2,0,P|209:178|215:160,1,45.4999979171754
318,107,102382,1,0,0:0:0:0:
107,50,102545,2,0,B|126:87|93:139|108:194,1,136.499993751526
286,302,103198,6,0,L|349:301,1,45.4999979171754
226,170,103524,2,0,B|189:153|154:168|119:166,1,90.9999958343508
265,73,104013,1,0,0:0:0:0:
198,304,104176,2,0,L|198:233,1,45.4999979171754
139,106,104502,2,0,B|121:81|121:81|63:78|35:103,1,90.9999958343508
130,269,104991,5,0,0:0:0:0:
130,269,105154,1,0,0:0:0:0:
230,134,105317,1,0,0:0:0:0:
286,291,105480,2,0,P|343:312|376:293,1,90.9999958343508
396,95,105969,2,0,L|393:185,1,90.9999958343508
219,181,106458,2,0,P|225:119|208:67,1,90.9999958343508
293,282,106948,5,0,0:0:0:0:
87,221,107111,1,0,0:0:0:0:
169,346,107274,1,0,0:0:0:0:
70,146,107437,2,0,P|132:137|167:151,1,90.9999958343508
269,182,107926,2,0,P|284:107|278:96,1,90.9999958343508
256,84,108334,1,0,0:0:0:0:
256,84,108415,1,0,0:0:0:0:
434,227,108579,5,0,0:0:0:0:
236,151,108742,1,0,0:0:0:0:
310,357,108905,1,0,0:0:0:0:
364,100,109068,1,0,0:0:0:0:
182,269,109231,1,0,0:0:0:0:
452,274,109394,1,0,0:0:0:0:
95,320,109719,5,0,0:0:0:0:
127,37,109882,1,0,0:0:0:0:
127,279,110045,1,0,0:0:0:0:
297,220,110371,5,0,0:0:0:0:
94,100,110697,5,0,0:0:0:0:
404,46,110860,1,0,0:0:0:0:
162,49,111024,1,0,0:0:0:0:
346,121,111350,5,0,0:0:0:0:
102,286,111676,5,0,0:0:0:0:
339,276,111839,1,0,0:0:0:0:
202,358,112002,1,0,0:0:0:0:
144,152,112165,1,0,0:0:0:0:
288,253,112328,2,0,P|300:196|288:137,1,90.9999958343508
163,290,112980,5,0,0:0:0:0:
163,290,113143,1,0,0:0:0:0:
243,197,113306,2,0,L|243:80,1,90.9999958343508
114,337,113958,5,0,0:0:0:0:
114,337,114121,1,0,0:0:0:0:
214,233,114284,2,0,L|214:124,1,90.9999958343508
119,101,114937,1,0,0:0:0:0:
179,322,115263,2,0,P|128:320|89:266,1,90.9999958343508
142,229,115752,2,0,P|180:195|174:129,1,90.9999958343508
103,134,116241,2,0,P|95:83|142:42,1,90.9999958343508,0|0,3:0|3:0,3:0:0:0:
257,281,116730,5,0,0:0:0:0:
141,331,116893,1,0,0:0:0:0:
211,195,117056,1,0,0:0:0:0:
65,175,117219,2,0,B|105:195|105:195|133:200|167:189|185:175,1,105.000004005432
262,114,117708,2,0,B|222:94|222:94|194:89|160:100|142:114,1,105.000004005432
214,298,118198,5,0,0:0:0:0:
214,298,118361,2,0,L|212:239,1,52.5000020027161
310,135,118687,2,0,L|311:212,1,52.5000020027161
291,281,119013,1,0,0:0:0:0:
108,200,119176,6,0,P|107:135|120:96,1,105.000004005432
281,155,119665,2,0,L|366:154,1,52.5000020027161
333,79,119992,1,0,0:0:0:0:
204,123,120155,2,0,B|191:158|191:158|200:243,1,105.000004005432
315,187,120644,1,0,0:0:0:0:
347,303,120807,2,0,L|274:304,1,52.5000020027161
143,211,121133,6,0,B|171:184|171:184|222:179|262:194,1,105.000004005432
384,145,121622,1,0,0:0:0:0:
207,144,121785,1,0,0:0:0:0:
347,40,121948,1,0,0:0:0:0:
348,223,122111,2,0,P|332:275|263:258,2,105.000004005432
88,272,123089,6,0,P|161:275|214:271,1,105.000004005432
303,210,123578,2,0,L|225:211,1,52.5000020027161
172,313,123905,1,0,0:0:0:0:
309,285,124068,2,0,B|320:244|320:244|314:162,1,105.000004005432
193,213,124557,5,0,0:0:0:0:
160,96,124720,2,0,L|231:97,1,52.5000020027161
374,184,125046,2,0,B|337:216|337:216|286:221|246:206,1,105.000004005432
124,255,125535,1,0,0:0:0:0:
301,256,125698,1,0,0:0:0:0:
161,360,125861,1,0,0:0:0:0:
274,163,126024,6,0,L|235:164,2,26.2500010013581
384,224,126350,1,0,0:0:0:0:
257,294,126513,1,0,0:0:0:0:
410,348,126676,1,0,0:0:0:0:
291,138,126839,1,0,0:0:0:0:
142,273,127002,2,0,B|161:283|210:287|210:287|252:274,1,105.000004005432
240,185,127492,5,0,0:0:0:0:
362,202,127655,2,0,L|362:131,1,52.5000020027161
205,70,127981,2,0,B|234:44|234:44|283:51|312:84,1,105.000004005432
260,173,128470,1,0,0:0:0:0:
316,76,128633,2,0,L|393:78,1,52.5000020027161
293,206,128959,2,0,B|272:221|272:221|228:222|175:207,1,105.000004005432
168,101,129448,1,0,0:0:0:0:
294,129,129611,2,0,B|321:117|321:117|363:130|408:161,2,105.000004005432
274,242,130426,1,0,0:0:0:0:
196,75,130589,5,0,0:0:0:0:
164,219,130752,1,0,0:0:0:0:
54,124,130915,2,0,B|38:136|38:136|32:187|50:231,1,105.000004005432
231,267,131404,1,0,0:0:0:0:
288,123,131568,1,0,0:0:0:0:
168,140,131730,1,0,0:0:0:0:
376,295,131894,6,0,P|392:236|377:177,2,105.000004005432
348,104,132871,2,0,P|296:96|231:108,1,105.000004005432
254,183,133361,2,0,P|215:194|153:170,1,105.000004005432
196,31,133850,1,0,0:0:0:0:
359,142,134013,1,0,0:0:0:0:
157,212,134176,1,0,0:0:0:0:
309,29,134339,1,0,0:0:0:0:
272,248,134502,1,0,0:0:0:0:
137,103,134665,1,0,0:0:0:0:
381,85,134829,6,0,B|398:110|398:110|386:205,1,105.000004005432
275,164,135318,1,0,0:0:0:0:
372,254,135481,2,0,L|297:253,1,52.5000020027161
215,322,135807,2,0,B|253:339|253:339|293:347|337:335,1,105.000004005432
268,205,136296,1,0,0:0:0:0:
140,273,136459,2,0,L|139:205,1,52.5000020027161
116,114,136785,6,0,B|152:90|152:90|194:96|231:112,1,105.000004005432
224,179,137274,1,0,0:0:0:0:
376,208,137437,1,0,0:0:0:0:
290,297,137600,1,0,0:0:0:0:
308,146,137763,2,0,P|318:98|286:29,2,105.000004005432
78,91,138741,6,0,P|143:89|192:92,1,105.000004005432
242,171,139231,2,0,L|166:173,1,52.5000020027161
150,78,139556,1,0,0:0:0:0:
306,108,139719,2,0,B|315:151|315:151|306:236,1,105.000004005432
168,186,140208,1,0,0:0:0:0:
202,304,140371,2,0,L|272:305,1,52.5000020027161
344,226,140698,6,0,B|316:203|316:203|265:198|225:213,1,105.000004005432
122,158,141187,1,0,0:0:0:0:
280,263,141350,1,0,0:0:0:0:
186,322,141513,1,0,0:0:0:0:
359,109,141676,5,0,0:0:0:0:
359,109,141758,1,0,0:0:0:0:
359,109,141839,1,0,0:0:0:0:
186,137,142002,1,0,0:0:0:0:
290,33,142165,1,0,0:0:0:0:
307,215,142329,1,0,0:0:0:0:
69,112,142492,1,0,0:0:0:0:
326,112,142655,2,0,B|289:79|289:79|238:67|219:80,1,105.000004005432
163,172,143144,5,0,0:0:0:0:
314,191,143307,2,0,P|319:238|300:302,2,105.000004005432
297,46,144285,2,0,L|222:46,1,52.5000020027161
306,211,144611,2,0,B|333:188|333:188|339:144|325:108,1,105.000004005432
174,96,145100,2,0,L|250:96,1,52.5000020027161
244,326,145426,5,0,0:0:0:0:
26,157,145589,1,0,0:0:0:0:
289,217,145752,1,0,0:0:0:0:
137,77,145915,1,0,0:0:0:0:
133,321,146079,1,0,0:0:0:0:
261,106,146242,1,0,0:0:0:0:
33,277,146405,1,0,0:0:0:0:
252,165,146568,6,0,P|336:152|368:167,1,105.000004005432
373,258,147057,1,0,0:0:0:0:
271,241,147219,2,0,P|253:299|277:355,2,105.000004005432
135,170,148198,1,0,0:0:0:0:
237,60,148524,2,0,B|269:58|269:58|316:76|330:126,1,105.000004005432
246,154,149013,2,0,L|245:281,1,105.000004005432
352,227,149502,1,0,0:0:0:0:
352,227,149665,1,0,0:0:0:0:
254,85,149829,6,0,L|379:84,2,105.000004005432
32,285,150806,2,0,L|34:215,1,52.5000020027161
129,106,151132,2,0,L|129:180,1,52.5000020027161
209,299,151458,2,0,L|209:225,1,52.5000020027161
286,94,151784,2,0,L|286:169,1,52.5000020027161
390,291,152110,2,0,P|410:246|388:172,2,105.000004005432
110,121,153089,5,0,0:0:0:0:
110,121,153252,1,0,0:0:0:0:
198,69,153415,2,0,P|259:64|321:76,1,105.000004005432
222,294,154067,2,0,P|222:226|212:173,1,105.000004005432
111,183,154719,5,0,0:0:0:0:
223,112,154882,1,0,0:0:0:0:
97,45,155045,1,0,0:0:0:0:
101,265,155208,1,0,0:0:0:0:
157,165,155371,2,0,P|191:207|157:263,2,105.000004005432
265,60,156350,6,0,L|265:184,1,105.000004005432
325,271,156839,2,0,L|326:208,1,52.5000020027161
166,249,157165,1,0,0:0:0:0:
202,111,157328,2,0,P|274:94|318:117,1,105.000004005432
272,279,157817,1,0,0:0:0:0:
47,145,157980,1,0,0:0:0:0:
187,319,158143,1,0,0:0:0:0:
214,156,158306,1,0,0:0:0:0:
376,351,158469,6,0,L|322:354,2,52.5000020027161
240,259,158958,2,0,L|293:263,2,52.5000020027161
376,160,159447,2,0,L|317:164,2,52.5000020027161
242,50,159937,2,0,L|298:53,1,52.5000020027161
106,195,160263,2,0,P|169:212|222:190,2,105.000004005432
243,49,161241,2,0,P|261:84|242:166,1,105.000004005432
160,123,161730,5,0,0:0:0:0:
230,267,161893,1,0,0:0:0:0:
228,44,162056,1,0,0:0:0:0:
164,210,162219,2,0,P|226:201|287:220,1,105.000004005432
307,127,162871,1,0,0:0:0:0:
307,127,163197,1,0,0:0:0:0:
307,127,163524,1,0,0:0:0:0:
148,88,163850,6,0,P|189:81|219:93,2,52.5000020027161
150,265,164502,5,0,0:0:0:0:
339,288,164665,1,0,0:0:0:0:
172,92,164991,5,0,0:0:0:0:
172,92,165072,1,0,0:0:0:0:
172,92,165154,1,0,0:0:0:0:
202,272,165317,1,0,0:0:0:0:
228,42,165480,1,0,0:0:0:0:
410,190,165643,1,0,0:0:0:0:
123,210,165806,1,0,0:0:0:0:
298,296,165969,1,0,0:0:0:0:
281,63,166132,1,0,0:0:0:0:
215,72,167111,6,0,P|242:62|266:75,2,48.9999985046387
90,93,168089,2,0,P|79:174|235:251,1,262.500010013581
388,145,169067,2,0,B|336:86|336:86|221:56|165:154,1,262.500010013581
291,314,170045,2,0,B|321:244|321:244|338:114|214:134,1,262.500010013581
76,225,171024,6,0,P|150:232|201:225,2,105.000004005432
361,60,172002,2,0,P|371:117|356:178,1,105.000004005432
272,169,172491,2,0,B|284:214|284:214|351:246,1,105.000004005432
373,162,172980,2,0,P|430:148|477:164,2,105.000004005432
307,293,173795,1,0,0:0:0:0:
231,223,173958,2,0,B|205:186|205:186|205:151|214:109,1,105.000004005432
303,53,174448,2,0,P|230:49|184:58,1,105.000004005432
178,132,174937,2,0,L|178:244,1,105.000004005432
319,120,175426,5,0,0:0:0:0:
319,120,175508,1,0,0:0:0:0:
319,120,175589,2,0,L|317:44,2,52.5000020027161
216,270,176241,1,0,0:0:0:0:
125,88,176567,2,0,P|199:76|249:89,2,105.000004005432
132,133,177545,6,0,L|132:210,1,52.5000020027161
181,275,177871,2,0,P|252:281|307:277,1,105.000004005432
132,189,178361,1,0,0:0:0:0:
250,171,178524,2,0,P|245:131|177:95,2,105.000004005432
142,178,179502,2,0,L|140:248,1,52.5000020027161
303,305,179828,2,0,P|225:318|185:294,1,105.000004005432
244,68,180480,6,0,P|259:129|234:184,2,105.000004005432
156,96,181458,1,0,0:0:0:0:
290,271,181784,1,0,0:0:0:0:
383,62,182110,1,0,0:0:0:0:
287,103,182274,1,0,0:0:0:0:
361,214,182437,1,0,0:0:0:0:
307,29,182600,1,0,0:0:0:0:
309,268,182763,2,0,L|312:225,2,26.2500010013581
337,131,183089,2,0,P|270:118|212:133,1,105.000004005432
110,50,183741,6,0,B|80:83|80:83|82:128|104:163,1,105.000004005432
216,150,184230,2,0,L|215:205,1,52.5000020027161
72,223,184556,1,0,0:0:0:0:
149,329,184719,2,0,B|182:349|182:349|227:346|268:339,1,105.000004005432
367,223,185208,1,0,0:0:0:0:
213,138,185371,2,0,L|212:200,1,52.5000020027161
385,118,185698,6,0,B|346:89|346:89|299:96|273:114,1,105.000004005432
200,246,186187,1,0,0:0:0:0:
349,144,186350,1,0,0:0:0:0:
209,40,186513,1,0,0:0:0:0:
120,234,186676,2,0,P|103:191|34:208,2,105.000004005432
430,187,187654,6,0,P|432:268|418:297,1,105.000004005432
218,202,188143,2,0,L|290:202,1,52.5000020027161
348,325,188470,1,0,0:0:0:0:
205,285,188633,2,0,B|194:244|194:244|200:163,1,105.000004005432
363,213,189122,5,0,0:0:0:0:
377,57,189285,2,0,L|308:59,1,52.5000020027161
185,186,189611,2,0,B|219:216|219:216|270:221|303:212,1,105.000004005432
474,199,190100,1,0,0:0:0:0:
255,256,190263,1,0,0:0:0:0:
395,360,190426,1,0,0:0:0:0:
297,157,190589,6,0,L|249:157,2,26.2500010013581
106,169,190915,1,0,0:0:0:0:
318,287,191078,1,0,0:0:0:0:
126,355,191241,1,0,0:0:0:0:
275,92,191404,1,0,0:0:0:0:
420,271,191567,2,0,B|395:283|346:287|346:287|315:272,1,105.000004005432
327,203,192057,5,0,0:0:0:0:
132,238,192220,2,0,L|133:166,1,52.5000020027161
270,62,192546,2,0,B|241:36|241:36|192:43|163:75,1,105.000004005432
271,210,193035,1,0,0:0:0:0:
367,76,193198,2,0,L|438:76,1,52.5000020027161
137,271,193524,2,0,B|176:295|176:295|220:296|254:289,1,105.000004005432
277,267,194013,5,0,0:0:0:0:
129,162,194176,1,0,0:0:0:0:
286,64,194339,1,0,0:0:0:0:
202,248,194502,1,0,0:0:0:0:
36,66,194665,1,0,0:0:0:0:
363,179,194828,1,0,0:0:0:0:
69,291,194991,1,0,0:0:0:0:
125,11,195154,1,0,0:0:0:0:
204,326,195317,1,0,0:0:0:0:
264,93,195480,2,0,B|276:117|276:117|282:168|257:216,1,105.000004005432
166,138,195969,5,0,0:0:0:0:
171,268,196132,2,0,P|239:279|286:268,2,105.000004005432
230,65,197110,1,0,0:0:0:0:
310,294,197437,2,0,L|312:177,1,105.000004005432
423,65,197926,2,0,P|335:36|258:65,1,157.500006008148
240,298,198741,6,0,P|250:231|229:182,1,105.000004005432
172,94,199393,2,0,P|245:81|293:101,2,105.000004005432
226,264,200371,2,0,L|292:266,1,52.5000020027161
188,117,200698,2,0,L|113:116,1,52.5000020027161
256,303,201024,2,0,L|322:305,1,52.5000020027161
133,212,201350,1,0,0:0:0:0:
286,195,201513,1,0,0:0:0:0:
207,116,201676,1,0,0:0:0:0:
348,93,201839,1,0,0:0:0:0:
273,32,202002,1,0,0:0:0:0:
423,259,202328,6,0,B|383:270|383:270|306:256,2,105.000004005432
403,144,203307,2,0,B|417:113|417:113|411:76|371:40,1,105.000004005432
281,72,203796,1,0,0:0:0:0:
312,255,203959,2,0,L|314:186,1,52.5000020027161
175,147,204285,2,0,B|160:169|160:169|162:217|184:268,1,105.000004005432
209,57,204774,2,0,L|284:55,1,52.5000020027161
340,167,205100,1,0,0:0:0:0:
252,265,205263,6,0,B|230:237|230:237|186:238|146:275,1,105.000004005432
126,162,205752,2,0,L|125:102,1,52.5000020027161
256,68,206078,1,0,0:0:0:0:
379,223,206241,2,0,B|327:236|296:229|296:229|264:216,2,105.000004005432
110,329,207219,6,0,B|83:288|83:288|87:240|101:220,1,105.000004005432
221,265,207708,2,0,L|221:196,1,52.5000020027161
98,133,208034,1,0,0:0:0:0:
255,64,208197,2,0,B|232:41|232:41|185:41|139:66,1,105.000004005432
250,208,208687,6,0,L|319:204,1,52.5000020027161
316,71,209013,1,0,0:0:0:0:
372,300,209176,2,0,B|400:275|400:275|410:213|387:190,1,105.000004005432
334,108,209828,2,0,P|290:87|222:117,2,105.000004005432
287,318,210643,1,0,0:0:0:0:
209,209,210806,1,0,0:0:0:0:
394,131,210969,1,0,0:0:0:0:
240,160,211132,6,0,B|205:193|222:236|271:231|283:188|264:168|264:168|292:128|248:40|216:130|215:165|215:165|183:145|112:136|163:227|208:216|208:216|167:240|144:328|244:287|247:245|247:245|262:285|344:336|330:226|285:212|285:212|341:220|400:144|299:139|266:168|266:168,1,924.000028198243,0|0,0:3|0:3,3:3:0:0:
