osu file format v14

[General]
AudioFilename: audio.mp3
AudioLeadIn: 0
PreviewTime: 66190
Countdown: 0
SampleSet: Normal
StackLeniency: 0.7
Mode: 0
LetterboxInBreaks: 1
EpilepsyWarning: 1
WidescreenStoryboard: 1

[Editor]
Bookmarks: 13793,66395,95984,109135,148587,178176,192971,206121,235710
DistanceSpacing: 0.5
BeatDivisor: 2
GridSize: 4
TimelineZoom: 1.3

[Metadata]
Title:Destiny -Taiyo no Hana-
TitleUnicode:Destiny -太陽の花-
Artist:Hitomi Shimatani
ArtistUnicode:島谷ひとみ
Creator:wingzerocustom
Version:Hard
Source:ブラックジャック
Tags:anime
BeatmapID:1907334
BeatmapSetID:913032

[Difficulty]
HPDrainRate:5
CircleSize:4
OverallDifficulty:6
ApproachRate:8
SliderMultiplier:1.4
SliderTickRate:1

[Events]
//Background and Video events
0,0,"nature_landscape_photography_flowers_poppies_sunset_spring_field-31550.jpg",0,0
//Break Periods
2,99472,108310
2,193171,203653
//Storyboard Layer 0 (Background)
//Storyboard Layer 1 (Fail)
//Storyboard Layer 2 (Pass)
//Storyboard Layer 3 (Foreground)
//Storyboard Sound Samples

[TimingPoints]
642.493150684932,410.958904109589,4,2,0,40,1,0
13793,-133.333333333333,4,2,0,45,0,0
40094,-83.3333333333333,4,2,0,50,0,0
53245,-90.9090909090909,4,1,0,45,0,0
64752,-83.3333333333333,4,1,0,50,0,0
65574,-76.9230769230769,4,1,0,60,0,0
66395,-66.6666666666667,4,1,0,70,0,1
86121,-83.3333333333333,4,1,0,60,0,0
95984,-100,4,1,0,70,0,0
109135,-133.333333333333,4,2,0,45,0,0
122286,-83.3333333333333,4,2,0,50,0,0
135437,-90.9090909090908,4,1,0,45,0,0
146943,-125,4,1,0,50,0,0
147765,-76.9230769230769,4,1,0,60,0,0
148587,-66.6666666666667,4,1,0,70,0,1
168313,-83.3333333333333,4,1,0,60,0,0
178176,-100,4,1,0,70,0,0
184752,-83.3333333333333,4,1,0,80,0,0
191327,-76.9230769230769,4,1,0,60,0,0
191738,-71.4285714285714,4,1,0,70,0,0
192149,-66.6666666666667,4,1,0,80,0,0
192971,-66.6666666666667,4,1,0,60,0,0
206121,-66.6666666666667,4,1,0,70,0,1
225847,-83.3333333333333,4,1,0,60,0,0
235710,-66.6666666666667,4,1,0,70,0,0
262012,-100,4,1,0,60,0,0
263656,441.176470588235,4,1,0,50,1,0
263656,-100,4,1,0,50,0,0

[HitObjects]
93,150,13793,6,0,P|157:83|263:104,1,210.000008010865,2|0,0:0|0:0,0:0:0:0:
191,181,15026,1,0,0:0:0:0:
275,242,15437,2,0,B|332:354|449:309,1,210.000008010865
483,209,16669,1,0,0:0:0:0:
400,144,17080,6,0,L|451:43,1,105.000004005432
351,5,17902,2,0,L|288:125,1,105.000004005432
199,122,18724,2,0,P|156:98|103:104,2,105.000004005432
143,211,19957,1,0,0:0:0:0:
107,309,20368,6,0,P|206:341|305:315,1,210.000008010865,2|0,0:0|0:0,0:0:0:0:
383,245,21601,1,0,0:0:0:0:
453,165,22012,2,0,P|355:141|283:211,1,210.000008010865
181,237,23245,1,0,0:0:0:0:
101,168,23656,6,0,L|20:83,1,105.000004005432
103,18,24478,2,0,L|191:114,1,105.000004005432
276,119,25300,2,0,P|325:116|366:83,2,105.000004005432
201,193,26532,1,0,0:0:0:0:
101,226,26943,6,0,P|173:295|271:271,1,210.000008010865,4|0,0:1|0:0,0:0:0:0:
360,328,28176,1,0,0:0:0:0:
442,262,28587,2,0,L|478:160,2,105.000004005432
339,236,29820,1,0,0:0:0:0:
334,131,30231,6,0,P|291:107|237:109,1,105.000004005432
156,40,31053,2,0,P|132:83|134:137,1,105.000004005432
65,217,31875,2,0,P|107:241|162:238,1,105.000004005432
246,310,32697,2,0,P|270:267|268:213,1,105.000004005432
217,120,33519,6,0,P|137:53|35:40,1,210.000008010865,2|0,0:0|0:0,0:0:0:0:
35,145,34752,1,0,0:0:0:0:
88,235,35163,2,0,L|8:308,2,105.000004005432
192,230,36395,1,0,0:0:0:0:
200,334,36806,6,0,P|247:320|284:280,1,105.000004005432,2|0,0:0|0:0,0:0:0:0:
371,222,37628,2,0,P|335:187|282:175,1,105.000004005432,2|0,0:0|0:0,0:0:0:0:
187,129,38450,2,0,P|174:176|190:228,1,105.000004005432,2|0,0:0|0:0,0:0:0:0:
261,308,39272,1,4,0:2:0:0:
353,264,39683,5,0,0:0:0:0:
353,264,39889,1,0,0:0:0:0:
353,264,40094,2,0,L|359:180,1,83.9999974365235,4|0,0:1|0:0,0:0:0:0:
244,103,40505,1,0,0:0:0:0:
244,103,40710,1,0,0:0:0:0:
244,103,40916,2,0,L|209:179,1,83.9999974365235
72,204,41327,5,0,0:0:0:0:
72,204,41532,1,0,0:0:0:0:
72,204,41738,2,0,P|40:174|21:138,1,83.9999974365235,4|0,0:3|0:0,0:0:0:0:
146,52,42149,2,0,P|186:37|227:38,1,83.9999974365235
217,189,42560,1,0,0:0:0:0:
411,304,42971,5,0,0:0:0:0:
411,304,43176,1,0,0:0:0:0:
411,304,43382,2,0,L|319:307,1,83.9999974365235,4|0,0:3|0:0,0:0:0:0:
236,201,43793,1,0,0:0:0:0:
236,201,43998,1,0,0:0:0:0:
236,201,44204,2,0,L|329:162,1,83.9999974365235
417,68,44615,5,0,0:0:0:0:
417,68,44820,1,0,0:0:0:0:
417,68,45026,2,0,P|384:39|346:24,1,83.9999974365235,4|0,0:3|0:0,0:0:0:0:
233,125,45437,2,0,P|265:153|303:168,1,83.9999974365235
452,147,45847,1,4,0:3:0:0:
177,352,46258,5,4,0:3:0:0:
177,352,46464,1,0,0:0:0:0:
177,352,46669,2,0,L|96:315,1,83.9999974365235,4|0,0:1|0:0,0:0:0:0:
62,183,47080,1,4,0:3:0:0:
62,183,47286,1,0,0:0:0:0:
62,182,47491,2,0,L|150:189,1,83.9999974365235,4|0,0:3|0:0,0:0:0:0:
251,98,47902,5,4,0:3:0:0:
251,98,48108,1,0,0:0:0:0:
251,98,48313,2,0,P|208:102|171:119,1,83.9999974365235,4|0,0:3|0:0,0:0:0:0:
188,269,48724,2,0,P|208:231|214:190,1,83.9999974365235,4|0,0:3|0:0,0:0:0:0:
177,44,49135,1,4,0:3:0:0:
454,163,49546,5,4,0:3:0:0:
454,163,49752,1,0,0:0:0:0:
454,163,49957,2,0,L|475:250,1,83.9999974365235,4|0,0:3|0:0,0:0:0:0:
381,347,50368,1,4,0:3:0:0:
381,347,50574,1,0,0:0:0:0:
381,347,50779,2,0,L|331:272,1,83.9999974365235,4|0,0:3|0:0,0:0:0:0:
202,225,51190,5,4,0:3:0:0:
202,225,51395,1,0,0:0:0:0:
202,225,51601,2,0,P|230:257|266:277,1,83.9999974365235,4|0,0:3|0:0,0:0:0:0:
378,176,52012,2,0,P|335:180|298:197,1,83.9999974365235,4|0,0:3|0:0,0:0:0:0:
191,304,52423,1,4,0:3:0:0:
98,120,52834,5,0,1:0:0:0:
98,120,52937,1,0,1:0:0:0:
98,120,53039,1,0,1:0:0:0:
124,258,53245,2,4,P|171:316|245:333,1,154.000004699707
278,197,53861,2,0,L|242:127,2,77.0000023498536
401,262,54478,6,0,P|433:242|451:209,1,77.0000023498536
456,70,54889,2,0,P|382:53|314:85,1,154.000004699707
233,198,55505,2,0,L|245:274,2,77.0000023498536
133,100,56121,6,0,P|150:66|183:47,1,77.0000023498536
321,54,56532,2,0,P|386:91|415:161,1,154.000004699707
369,293,57149,2,0,P|275:310|304:218,1,231.000007049561
74,61,58176,6,0,L|150:81,1,77.0000023498536
169,217,58587,2,0,L|244:237,1,77.0000023498536
334,135,58998,2,0,L|410:156,1,77.0000023498536
320,264,59409,5,0,0:0:0:0:
320,264,59615,1,0,0:0:0:0:
318,125,59820,2,0,L|343:53,2,77.0000023498536,4|0|0,0:0|0:0|0:0,0:0:0:0:
186,83,60437,2,0,P|112:101|65:160,1,154.000004699707
101,301,61053,5,0,0:0:0:0:
181,233,61258,1,0,0:0:0:0:
320,267,61464,2,0,L|319:343,2,77.0000023498536
439,195,62080,2,0,P|410:124|344:87,1,154.000004699707
208,60,62697,5,0,0:0:0:0:
208,60,62902,1,0,0:0:0:0:
263,187,63108,2,0,P|243:260|183:305,1,154.000004699707
77,215,63724,2,0,P|119:104|216:57,1,231.000007049561
405,112,64752,6,0,L|382:147,3,41.9999987182618
381,147,65163,2,0,L|404:182,3,41.9999987182618
407,264,65574,1,4,0:0:0:0:
241,338,65984,1,0,0:0:0:0:
241,338,66087,1,0,0:0:0:0:
241,338,66190,1,0,0:0:0:0:
241,338,66293,1,0,0:0:0:0:
241,338,66395,6,0,P|191:331|148:300,1,105.000004005432,4|0,0:0|0:0,0:0:0:0:
156,128,66806,2,0,P|124:88|113:36,1,105.000004005432,8|0,0:0|0:0,0:0:0:0:
279,0,67217,2,0,P|313:41|325:89,1,105.000004005432
398,246,67628,2,0,P|439:215|491:207,1,105.000004005432,8|0,0:0|0:0,0:0:0:0:
298,332,68039,6,0,P|248:325|205:294,1,105.000004005432
94,159,68450,1,8,0:0:0:0:
94,159,68656,1,0,0:0:0:0:
208,37,68861,6,0,P|260:24|308:35,1,105.000004005432
493,112,69272,1,8,0:0:0:0:
493,112,69478,1,0,0:0:0:0:
432,224,69683,6,0,P|385:211|331:221,1,105.000004005432
112,270,70094,2,0,P|159:283|212:272,1,105.000004005432,8|0,0:0|0:0,0:0:0:0:
251,74,70505,2,0,P|235:123|245:174,2,105.000004005432,0|0|8,0:0|0:0|0:0,0:0:0:0:
382,132,71121,1,0,0:0:0:0:
327,268,71327,6,0,P|224:297|121:275,1,210.000008010865,0|8,0:0|0:0,0:0:0:0:
106,135,71943,1,0,0:0:0:0:
258,129,72149,1,0,0:0:0:0:
198,260,72354,1,0,0:0:0:0:
258,129,72560,1,8,0:0:0:0:
106,143,72765,1,0,0:0:0:0:
53,354,72971,6,0,P|28:308|26:256,1,105.000004005432,4|0,0:2|0:0,0:0:0:0:
63,128,73382,2,0,P|101:92|151:79,1,105.000004005432,8|0,0:0|0:0,0:0:0:0:
259,143,73793,2,0,P|220:178|170:191,1,105.000004005432
269,45,74204,2,0,P|316:66|348:107,1,105.000004005432,8|0,0:0|0:0,0:0:0:0:
439,204,74615,6,0,P|441:255|466:301,1,105.000004005432
351,364,75026,2,0,P|312:328|262:315,1,105.000004005432,8|0,0:0|0:0,0:0:0:0:
245,190,75437,2,0,P|295:176|333:141,1,105.000004005432
231,72,75847,1,8,0:0:0:0:
61,195,76258,6,0,P|27:267|35:342,1,157.500006008148
58,355,76669,2,0,L|229:356,1,157.500006008148
241,350,77080,2,0,P|316:330|370:275,1,157.500006008148
350,257,77491,2,0,L|211:177,1,157.500006008148
191,164,77902,6,0,P|221:92|285:47,1,157.500006008148
310,48,78313,2,0,B|478:81|310:229|504:263,1,315.000012016297
465,111,79135,1,0,0:2:0:0:
465,111,79238,1,0,0:2:0:0:
465,111,79341,1,0,0:2:0:0:
310,145,79546,6,0,P|259:158|208:146,1,105.000004005432,4|0,0:0|0:0,0:0:0:0:
170,314,79957,2,0,P|124:289|94:246,1,105.000004005432,8|0,0:0|0:0,0:0:0:0:
47,88,80368,2,0,P|77:46|124:23,1,105.000004005432
316,51,80779,2,0,P|283:92|238:116,1,105.000004005432,8|0,0:0|0:0,0:0:0:0:
224,315,81190,6,0,P|244:267|283:232,1,105.000004005432
451,164,81601,1,8,0:0:0:0:
451,164,81806,1,0,0:0:0:0:
362,285,82012,6,0,P|331:248|309:197,1,105.000004005432
335,0,82423,1,8,0:0:0:0:
335,0,82628,1,0,0:0:0:0:
475,129,82834,6,0,P|427:139|372:134,1,105.000004005432
227,70,83245,2,0,P|174:65|123:75,1,105.000004005432,8|0,0:0|0:0,0:0:0:0:
34,205,83656,2,0,P|18:254|28:305,2,105.000004005432,0|0|8,0:0|0:0|0:0,0:0:0:0:
176,261,84272,1,0,0:0:0:0:
334,279,84478,6,0,P|395:194|411:92,1,210.000008010865,0|8,0:0|0:0,0:0:0:0:
259,57,85094,1,0,0:0:0:0:
103,84,85300,1,0,0:0:0:0:
53,230,85505,1,0,0:0:0:0:
207,206,85710,5,0,0:0:0:0:
207,206,85916,1,0,0:0:0:0:
218,332,86121,2,0,P|301:288|331:215,1,167.999994873047,4|0,0:0|0:0,0:0:0:0:
328,96,86738,1,0,0:0:0:0:
136,157,87354,5,0,0:0:0:0:
136,157,87560,1,0,0:0:0:0:
121,32,87765,2,0,P|41:72|8:140,1,167.999994873047
20,266,88382,1,0,0:0:0:0:
215,343,88998,5,0,0:0:0:0:
274,251,89204,1,0,0:0:0:0:
328,346,89409,2,0,P|408:306|460:247,1,167.999994873047
309,42,90231,6,0,P|398:36|472:61,1,167.999994873047
485,100,90847,2,0,P|415:146|251:170,1,251.999992309571
0,40,91875,5,0,0:0:0:0:
62,189,92286,1,0,0:0:0:0:
195,312,92697,2,0,P|284:304|340:254,1,167.999994873047,4|0,0:0|0:0,0:0:0:0:
234,187,93313,1,0,0:0:0:0:
87,293,93724,6,0,P|55:261|47:220,1,83.9999974365235
55,101,94135,1,0,0:0:0:0:
154,37,94341,2,4,P|240:37|311:74,1,167.999994873047
425,46,94957,1,0,0:0:0:0:
393,243,95368,1,0,0:0:0:0:
256,192,95779,12,0,99272,0:0:0:0:
240,270,109135,6,0,P|337:295|411:226,1,210.000008010865,2|0,0:0|0:0,0:0:0:0:
311,191,110368,1,0,0:0:0:0:
236,109,110779,2,0,L|272:7,2,105.000004005432
136,142,112012,1,0,0:0:0:0:
162,237,112423,6,0,P|110:241|64:216,1,105.000004005432
134,137,113245,2,0,P|131:85|156:40,1,105.000004005432
236,109,114067,2,0,P|288:106|334:131,1,105.000004005432
267,212,114889,2,0,P|270:264|246:310,1,105.000004005432
348,285,115711,6,0,P|382:186|462:122,1,210.000008010865,2|0,0:0|0:0,0:0:0:0:
456,227,116944,1,0,0:0:0:0:
367,170,117355,2,0,L|367:64,2,105.000004005432
279,227,118587,1,0,0:0:0:0:
211,307,118998,6,0,P|205:258|172:214,1,105.000004005432
12,285,119820,2,0,P|59:306|110:299,1,105.000004005432
130,120,120642,2,0,P|88:150|68:198,1,105.000004005432
164,208,121464,1,4,0:0:0:0:
313,320,121875,5,0,0:0:0:0:
313,320,122081,1,0,0:0:0:0:
313,320,122286,2,0,L|393:346,1,83.9999974365235,4|0,0:1|0:0,0:0:0:0:
402,203,122697,1,0,0:0:0:0:
402,203,122902,1,0,0:0:0:0:
402,203,123108,2,0,L|336:150,1,83.9999974365235
439,61,123519,5,0,0:0:0:0:
439,61,123724,1,0,0:0:0:0:
439,61,123930,2,0,P|433:102|415:139,1,83.9999974365235,4|0,0:3|0:0,0:0:0:0:
281,67,124341,2,0,P|239:66|200:81,1,83.9999974365235
274,213,124752,1,0,0:0:0:0:
165,288,125163,5,0,0:0:0:0:
165,288,125369,1,0,0:0:0:0:
165,288,125574,2,0,L|86:256,1,83.9999974365235,4|0,0:3|0:0,0:0:0:0:
171,140,125985,1,0,0:0:0:0:
171,140,126190,1,0,0:0:0:0:
171,140,126396,2,0,L|254:141,1,83.9999974365235
155,27,126807,5,0,0:0:0:0:
155,27,127012,1,0,0:0:0:0:
155,27,127218,2,0,P|112:39|80:63,1,83.9999974365235,4|0,0:3|0:0,0:0:0:0:
144,200,127629,2,0,P|176:228|214:243,1,83.9999974365235
364,254,128039,1,4,0:3:0:0:
463,122,128450,5,4,0:3:0:0:
463,122,128656,1,0,0:0:0:0:
463,122,128861,2,0,L|471:33,1,83.9999974365235,4|0,0:3|0:0,0:0:0:0:
322,129,129272,1,4,0:3:0:0:
322,129,129478,1,0,0:0:0:0:
322,129,129683,2,0,L|295:44,1,83.9999974365235,4|0,0:3|0:0,0:0:0:0:
205,211,130094,5,4,0:3:0:0:
205,211,130300,1,0,0:0:0:0:
205,211,130505,2,0,P|166:190|126:185,1,83.9999974365235,4|0,0:3|0:0,0:0:0:0:
59,320,130916,2,0,P|96:340|137:347,1,83.9999974365235,4|0,0:3|0:0,0:0:0:0:
276,315,131327,1,4,0:3:0:0:
440,204,131738,5,0,0:0:0:0:
440,204,131944,1,0,0:0:0:0:
440,204,132149,2,0,L|461:291,1,83.9999974365235,4|0,0:3|0:0,0:0:0:0:
318,146,132560,1,4,0:3:0:0:
318,146,132766,1,0,0:0:0:0:
318,146,132971,2,0,L|268:71,1,83.9999974365235,4|0,0:3|0:0,0:0:0:0:
203,202,133382,5,4,0:3:0:0:
203,202,133587,1,0,0:0:0:0:
203,202,133793,2,0,P|197:244|207:284,1,83.9999974365235,4|0,0:3|0:0,0:0:0:0:
357,300,134204,2,0,P|325:270|287:254,1,83.9999974365235,4|0,0:3|0:0,0:0:0:0:
137,246,134615,1,4,0:3:0:0:
387,108,135026,5,0,1:0:0:0:
387,108,135129,1,0,1:0:0:0:
387,108,135231,1,0,1:0:0:0:
392,245,135437,2,0,P|318:229|270:170,1,154.000004699707,4|0,0:0|0:0,0:0:0:0:
256,32,136053,2,0,L|330:5,2,77.0000023498536
135,102,136670,6,0,P|108:129|98:165,1,77.0000023498536
103,304,137081,2,0,P|178:301|239:345,1,154.000004699707
285,214,137697,2,0,L|235:155,2,77.0000023498536
422,234,138313,6,0,P|458:210|472:181,1,77.0000023498536
428,48,138724,2,0,P|362:10|287:21,1,154.000004699707
321,156,139341,2,0,P|270:237|221:154,1,231.000007049561
24,99,140368,6,0,L|100:119,1,77.0000023498536
171,236,140779,2,0,L|150:161,1,77.0000023498536
215,38,141190,2,0,L|160:92,1,77.0000023498536
69,197,141601,5,0,0:0:0:0:
125,283,141807,1,0,0:0:0:0:
259,251,142012,2,0,L|293:183,2,77.0000023498536,4|0|0,0:0|0:0|0:0,0:0:0:0:
344,361,142629,2,0,P|418:343|465:284,1,154.000004699707
463,145,143245,5,0,0:0:0:0:
463,145,143450,1,0,0:0:0:0:
338,84,143656,2,0,L|391:29,2,77.0000023498536
229,170,144272,2,0,P|169:199|85:183,1,154.000004699707
149,59,144889,5,0,0:0:0:0:
276,113,145094,1,0,0:0:0:0:
413,94,145300,2,0,P|407:169|356:225,1,154.000004699707
458,319,145916,2,0,P|396:363|321:360,1,154.000004699707
194,302,146532,5,0,0:0:0:0:
194,302,146635,1,0,0:0:0:0:
194,302,146738,1,0,0:0:0:0:
194,302,146841,1,0,0:0:0:0:
194,302,146943,2,0,L|115:335,2,84,4|4|4,0:0|0:0|0:0,0:0:0:0:
273,158,147765,1,4,0:0:0:0:
177,71,148587,6,0,P|131:95|102:139,1,105.000004005432,4|0,0:0|0:0,0:0:0:0:
230,246,148998,2,0,P|240:296|273:337,1,105.000004005432,8|0,0:0|0:0,0:0:0:0:
314,124,149409,2,0,P|301:73|267:33,1,105.000004005432
288,207,149820,2,0,P|339:207|386:183,1,105.000004005432,8|0,0:0|0:0,0:0:0:0:
285,42,150231,6,0,P|234:37|185:58,1,105.000004005432
32,169,150642,1,8,0:0:0:0:
32,169,150848,1,0,0:0:0:0:
198,158,151053,6,0,P|248:170|287:204,1,105.000004005432
413,358,151464,1,8,0:0:0:0:
413,358,151670,1,0,0:0:0:0:
248,327,151875,6,0,P|202:309|164:270,1,105.000004005432
137,112,152286,2,0,P|86:123|46:157,1,105.000004005432,8|0,0:0|0:0,0:0:0:0:
258,165,152697,2,0,P|301:137|325:91,2,105.000004005432,0|0|8,0:0|0:0|0:0,0:0:0:0:
106,207,153313,1,0,0:0:0:0:
219,317,153519,6,0,P|321:337|421:308,1,210.000008010865,0|8,0:0|0:0,0:0:0:0:
470,168,154135,1,0,0:0:0:0:
358,226,154341,1,0,0:0:0:0:
388,126,154546,1,0,0:0:0:0:
314,166,154752,1,8,0:0:0:0:
298,102,154957,1,0,0:0:0:0:
227,230,155163,6,0,P|219:281|234:331,1,105.000004005432,4|0,0:2|0:0,0:0:0:0:
322,151,155574,2,0,P|326:99|306:51,1,105.000004005432,8|0,0:0|0:0,0:0:0:0:
314,242,155985,2,0,P|365:250|414:234,1,105.000004005432
231,142,156396,2,0,P|182:125|130:133,1,105.000004005432,8|0,0:0|0:0,0:0:0:0:
63,228,156807,6,0,P|65:279|90:325,1,105.000004005432
181,181,157218,2,0,P|220:217|270:230,1,105.000004005432,8|0,0:0|0:0,0:0:0:0:
236,64,157629,2,0,P|287:61|332:36,1,105.000004005432
118,46,158039,1,8,0:0:0:0:
32,212,158450,6,0,P|102:175|178:180,1,157.500006008148
197,197,158861,2,0,L|126:352,1,157.500006008148
148,360,159272,2,0,P|224:370|296:341,1,157.500006008148
319,326,159683,2,0,L|453:244,1,157.500006008148
458,218,160094,6,0,P|428:146|364:101,1,157.500006008148
339,95,160505,2,0,B|163:27|230:240|69:182,1,315.000012016297
13,69,161327,1,0,0:0:0:0:
13,69,161430,1,0,0:0:0:0:
13,69,161533,1,0,0:0:0:0:
174,120,161738,6,0,P|224:108|275:121,1,105.000004005432,4|0,0:0|0:0,0:0:0:0:
217,279,162149,2,0,P|267:291|318:280,1,105.000004005432,8|0,0:0|0:0,0:0:0:0:
365,112,162560,2,0,P|395:70|442:47,1,105.000004005432
439,221,162971,2,0,P|483:192|512:149,1,105.000004005432,8|0,0:0|0:0,0:0:0:0:
373,35,163382,6,0,P|321:29|271:45,1,105.000004005432
105,131,163793,1,8,0:0:0:0:
105,131,163998,1,0,0:0:0:0:
256,220,164204,6,0,P|237:175|203:131,1,105.000004005432
21,60,164615,1,8,0:0:0:0:
21,60,164820,1,0,0:0:0:0:
109,204,165026,6,0,P|150:235|200:253,1,105.000004005432
358,232,165437,2,0,P|402:204|436:164,1,105.000004005432,8|0,0:0|0:0,0:0:0:0:
297,91,165848,2,0,P|281:140|291:191,2,105.000004005432,0|0|8,0:0|0:0|0:0,0:0:0:0:
424,1,166464,1,0,0:0:0:0:
452,155,166670,6,0,P|435:257|375:342,1,210.000008010865,0|8,0:0|0:0,0:0:0:0:
238,337,167286,1,0,0:0:0:0:
326,262,167492,1,0,0:0:0:0:
375,342,167697,1,0,0:0:0:0:
267,316,167902,5,0,0:0:0:0:
267,316,168108,1,0,0:0:0:0:
155,356,168313,2,0,P|113:271|132:194,1,167.999994873047,4|0,0:0|0:0,0:0:0:0:
210,105,168930,1,0,0:0:0:0:
442,129,169546,5,0,0:0:0:0:
442,129,169752,1,0,0:0:0:0:
316,130,169957,2,0,P|236:170|203:238,1,167.999994873047
328,253,170574,1,0,0:0:0:0:
127,343,171190,5,0,0:0:0:0:
50,265,171396,1,0,0:0:0:0:
47,156,171601,2,0,P|92:86|161:38,1,167.999994873047
328,53,172423,6,0,P|279:127|214:171,1,167.999994873047
228,210,173039,2,0,P|309:189|472:219,1,251.999992309571
320,350,174067,5,0,0:0:0:0:
180,262,174478,1,0,0:0:0:0:
29,333,174889,2,0,P|8:252|40:176,1,167.999994873047,4|0,0:0|0:0,0:0:0:0:
134,92,175505,1,0,0:0:0:0:
160,265,175916,6,0,P|170:305|201:334,1,83.9999974365235
287,242,176327,1,0,0:0:0:0:
230,128,176533,2,0,P|318:118|387:165,1,167.999994873047,4|0,0:0|0:0,0:0:0:0:
440,270,177149,1,0,0:0:0:0:
426,37,177560,2,0,L|253:31,1,167.999994873047
116,88,178587,5,0,0:0:0:0:
116,192,178998,1,0,0:0:0:0:
116,295,179409,1,0,0:0:0:0:
116,192,179820,2,0,L|396:192,1,280
396,88,181053,5,0,0:0:0:0:
396,192,181464,1,0,0:0:0:0:
396,295,181875,1,0,0:0:0:0:
396,295,182286,1,0,0:0:0:0:
396,192,182697,1,0,0:0:0:0:
282,88,183108,5,0,0:0:0:0:
270,192,183313,1,0,0:0:0:0:
182,123,183519,1,0,0:0:0:0:
182,123,183621,1,0,0:0:0:0:
182,123,183724,1,0,0:0:0:0:
80,223,183930,5,4,0:2:0:0:
67,356,184135,1,0,0:0:0:0:
194,310,184341,1,4,0:2:0:0:
194,310,184443,1,0,0:0:0:0:
194,310,184546,1,0,0:0:0:0:
376,194,184752,5,4,0:0:0:0:
376,194,184957,1,0,0:0:0:0:
225,147,185163,1,8,0:0:0:0:
225,147,185368,1,0,0:0:0:0:
318,298,185573,5,0,0:0:0:0:
318,298,185779,1,0,0:0:0:0:
330,109,185984,1,8,0:0:0:0:
330,109,186190,1,0,0:0:0:0:
448,255,186395,6,0,L|279:269,1,167.999994873047,0|8,0:0|0:0,0:0:0:0:
155,187,187217,1,0,0:0:0:0:
207,47,187628,2,0,L|305:62,1,83.9999974365235,8|0,0:0|0:0,0:0:0:0:
400,131,188039,6,0,L|198:162,1,167.999994873047
93,289,188861,2,0,L|258:320,1,167.999994873047
433,208,189683,6,0,L|336:72,1,167.999994873047,4|0,0:0|0:0,0:0:0:0:
151,28,190505,2,0,P|72:67|57:141,1,167.999994873047
134,275,191327,6,0,L|167:336,2,60.6666638895672
197,199,191738,6,0,L|267:225,2,65.3333313395183
208,92,192149,5,0,0:0:0:0:
397,303,192971,1,4,0:0:0:0:
126,101,204478,6,0,L|171:126,3,52.5000020027161
171,126,204889,2,0,L|222:97,3,52.5000020027161
296,101,205300,1,4,0:0:0:0:
424,206,205710,1,0,0:0:0:0:
424,206,205813,1,0,0:0:0:0:
424,206,205916,1,0,0:0:0:0:
424,206,206019,1,0,0:0:0:0:
424,206,206121,6,0,P|418:256|389:300,1,105.000004005432,4|0,0:0|0:0,0:0:0:0:
217,291,206532,2,0,P|227:240|259:198,1,105.000004005432,8|0,0:0|0:0,0:0:0:0:
410,85,206943,2,0,P|400:137|371:177,1,105.000004005432
172,114,207354,2,0,P|213:83|265:75,1,105.000004005432,8|0,0:0|0:0,0:0:0:0:
422,155,207765,6,0,P|402:201|361:234,1,105.000004005432
201,306,208176,1,8,0:0:0:0:
201,306,208382,1,0,0:0:0:0:
70,184,208587,6,0,P|95:137|136:109,1,105.000004005432
323,52,208998,1,8,0:0:0:0:
323,52,209204,1,0,0:0:0:0:
442,170,209409,6,0,P|395:157|341:167,1,105.000004005432
389,329,209820,2,0,P|338:340|287:327,1,105.000004005432,8|0,0:0|0:0,0:0:0:0:
197,183,210231,2,0,P|186:132|202:82,2,105.000004005432,0|0|8,0:0|0:0|0:0,0:0:0:0:
336,139,210847,1,0,0:0:0:0:
241,20,211053,6,0,P|145:69|85:155,1,210.000008010865,0|8,0:0|0:0,0:0:0:0:
140,277,211669,1,0,0:0:0:0:
236,180,211875,1,0,0:0:0:0:
287,309,212080,1,0,0:0:0:0:
377,206,212286,1,8,0:0:0:0:
423,333,212491,1,0,0:0:0:0:
481,208,212697,6,0,P|477:155|451:110,1,105.000004005432,4|0,0:2|0:0,0:0:0:0:
352,21,213108,2,0,P|300:10|251:26,1,105.000004005432,8|0,0:0|0:0,0:0:0:0:
253,161,213519,2,0,P|200:155|157:126,1,105.000004005432
110,0,213930,2,0,P|63:21|31:62,1,105.000004005432,8|0,0:0|0:0,0:0:0:0:
16,202,214341,6,0,P|27:252|60:292,1,105.000004005432
200,302,214752,2,8,P|237:266|255:218,1,105.000004005432,8|0,0:0|0:0,0:0:0:0:
189,97,215163,2,0,P|139:81|88:90,1,105.000004005432
137,194,215573,1,8,0:0:0:0:
293,312,215984,6,0,P|369:334|442:314,1,157.500006008148
458,292,216395,2,0,L|426:135,1,157.500006008148
411,116,216806,2,0,P|356:60|281:40,1,157.500006008148
255,45,217217,2,0,L|97:73,1,157.500006008148
78,87,217628,6,0,P|40:155|45:232,1,157.500006008148
56,256,218039,2,0,B|144:422|233:217|316:366,1,315.000012016297
437,234,218861,1,0,0:0:0:0:
437,234,218964,1,0,0:0:0:0:
437,234,219067,1,0,0:0:0:0:
366,65,219273,6,0,P|322:93|296:138,1,105.000004005432,4|0,0:0|0:0,0:0:0:0:
240,325,219684,2,0,P|286:301|317:259,1,105.000004005432,8|0,0:0|0:0,0:0:0:0:
159,149,220095,2,0,P|193:188|241:206,1,105.000004005432
454,240,220506,2,0,P|418:201|369:183,1,105.000004005432,8|0,0:0|0:0,0:0:0:0:
192,148,220916,6,0,P|140:142|90:158,1,105.000004005432
157,327,221327,1,8,0:0:0:0:
157,327,221532,1,0,0:0:0:0:
322,275,221738,6,0,P|291:238|269:187,1,105.000004005432
464,132,222149,1,8,0:0:0:0:
464,132,222354,1,0,0:0:0:0:
334,222,222560,6,0,P|286:232|231:227,1,105.000004005432
163,84,222971,2,0,P|214:74|266:79,1,105.000004005432,8|0,0:0|0:0,0:0:0:0:
398,169,223382,2,0,P|414:218|404:269,2,105.000004005432,0|0|8,0:0|0:0|0:0,0:0:0:0:
303,57,223998,1,0,0:0:0:0:
161,96,224204,6,0,P|100:181|84:283,1,210.000008010865,0|8,0:0|0:0,0:0:0:0:
206,345,224820,1,0,0:0:0:0:
197,208,225026,1,0,0:0:0:0:
84,283,225231,1,0,0:0:0:0:
213,351,225436,5,0,0:0:0:0:
213,351,225642,1,0,0:0:0:0:
349,345,225847,2,0,P|432:301|462:228,1,167.999994873047,4|0,0:0|0:0,0:0:0:0:
336,212,226464,1,0,0:0:0:0:
137,99,227080,5,0,0:0:0:0:
137,99,227286,1,0,0:0:0:0:
251,46,227491,2,0,P|271:117|209:196,1,167.999994873047
102,234,228108,1,0,0:0:0:0:
196,351,228724,5,0,0:0:0:0:
322,351,228930,1,0,0:0:0:0:
409,260,229135,2,0,P|441:176|440:98,1,167.999994873047
325,23,229957,6,0,P|284:102|278:180,1,167.999994873047
238,195,230573,2,0,P|189:126|44:45,1,251.999992309571
45,212,231601,5,0,0:0:0:0:
151,355,232012,1,0,0:0:0:0:
225,190,232423,2,0,P|287:136|370:131,1,167.999994873047,4|0,0:0|0:0,0:0:0:0:
343,254,233039,1,0,0:0:0:0:
74,295,233450,6,0,P|42:263|34:222,1,83.9999974365235
158,208,233861,1,0,0:0:0:0:
283,197,234067,2,0,P|250:115|173:78,1,167.999994873047,4|0,0:0|0:0,0:0:0:0:
63,83,234683,1,0,0:0:0:0:
258,250,235094,1,0,0:0:0:0:
256,192,235710,12,0,238998,0:0:0:0:
256,192,241875,12,0,248861,0:0:0:0:
