osu file format v14

[General]
AudioFilename: audio.mp3
AudioLeadIn: 0
PreviewTime: 66190
Countdown: 0
SampleSet: Normal
StackLeniency: 0.7
Mode: 0
LetterboxInBreaks: 1
EpilepsyWarning: 1
WidescreenStoryboard: 1

[Editor]
Bookmarks: 13793,66395,95984,109135,148587,178176,192971,206121,235710
DistanceSpacing: 1
BeatDivisor: 2
GridSize: 4
TimelineZoom: 1.3

[Metadata]
Title:Destiny -Taiyo no Hana-
TitleUnicode:Destiny -太陽の花-
Artist:Hitomi Shimatani
ArtistUnicode:島谷ひとみ
Creator:wingzerocustom
Version:Easy
Source:ブラックジャック
Tags:anime
BeatmapID:1907333
BeatmapSetID:913032

[Difficulty]
HPDrainRate:2
CircleSize:3
OverallDifficulty:2
ApproachRate:3
SliderMultiplier:0.8
SliderTickRate:1

[Events]
//Background and Video events
0,0,"nature_landscape_photography_flowers_poppies_sunset_spring_field-31550.jpg",0,0
//Break Periods
2,99472,107695
2,193171,204681
//Storyboard Layer 0 (Background)
//Storyboard Layer 1 (Fail)
//Storyboard Layer 2 (Pass)
//Storyboard Layer 3 (Foreground)
//Storyboard Sound Samples

[TimingPoints]
642.493150684932,410.958904109589,4,2,0,40,1,0
13793,-100,4,2,0,45,0,0
40094,-100,4,2,0,50,0,0
53245,-100,4,1,0,45,0,0
64752,-100,4,1,0,50,0,0
65574,-100,4,1,0,60,0,0
66395,-100,4,1,0,70,0,1
86121,-100,4,1,0,60,0,0
95984,-100,4,1,0,70,0,0
109135,-100,4,2,0,45,0,0
122286,-100,4,2,0,50,0,0
135437,-100,4,1,0,45,0,0
146943,-100,4,1,0,50,0,0
147765,-100,4,1,0,60,0,0
148587,-100,4,1,0,70,0,1
168313,-100,4,1,0,60,0,0
178176,-100,4,1,0,70,0,0
184752,-100,4,1,0,80,0,0
191327,-100,4,1,0,60,0,0
191738,-100,4,1,0,70,0,0
192149,-100,4,1,0,80,0,0
192971,-100,4,2,0,60,0,0
206121,-100,4,1,0,70,0,1
225847,-100,4,1,0,60,0,0
235710,-100,4,1,0,70,0,0
262012,-100,4,1,0,60,0,0
263656,441.176470588235,4,1,0,50,1,0
263656,-100,4,1,0,50,0,0

[HitObjects]
397,84,13792,6,0,P|424:154|424:238,1,160,2|0,0:0|0:0,0:0:0:0:
369,296,15026,1,0,0:0:0:0:
292,320,15437,2,0,L|198:329,1,80
133,312,16258,2,0,L|48:273,1,80
40,200,17080,5,0,0:0:0:0:
146,80,17902,1,0,0:0:0:0:
306,80,18724,2,0,L|388:80,2,80
156,23,20368,6,0,P|68:42|26:96,1,160,2|0,0:0|0:0,0:0:0:0:
72,159,21601,1,0,0:0:0:0:
26,224,22012,2,0,L|26:303,1,80
81,361,22834,2,0,L|163:358,1,80
242,354,23656,5,0,0:0:0:0:
196,200,24478,1,0,0:0:0:0:
319,98,25300,2,0,L|380:47,2,80
397,228,26943,6,0,P|360:298|289:332,1,160,4|0,0:1|0:0,0:0:0:0:
209,332,28176,1,0,0:0:0:0:
169,262,28587,2,0,L|186:183,1,80
169,105,29409,2,0,L|120:43,1,80
48,4,30231,5,0,0:0:0:0:
7,158,31053,2,0,L|82:201,1,80
156,197,31875,2,0,L|231:153,1,80
306,157,32697,2,0,L|396:211,1,80
428,257,33519,6,0,P|379:325|313:361,1,160,2|0,0:0|0:0,0:0:0:0:
156,329,35163,2,0,L|130:254,1,80
141,174,35984,2,0,L|210:132,1,80
289,125,36806,5,2,0:0:0:0:
400,239,37628,1,2,0:0:0:0:
285,351,38450,1,2,0:0:0:0:
172,236,39272,1,4,0:0:0:0:
167,76,40094,6,0,P|184:41|222:29,1,80,4|0,0:1|0:0,0:0:0:0:
300,47,40916,2,0,P|327:74|326:113,1,80
288,184,41738,2,0,L|227:263,2,80,4|0|0,0:3|0:0|0:0,0:0:0:0:
443,145,43382,6,0,P|483:156|501:186,1,80,4|0,0:3|0:0,0:0:0:0:
500,267,44204,2,0,P|465:284|452:321,1,80
376,347,45026,2,0,L|297:358,2,80,4|0|4,0:3|0:0|0:3,0:0:0:0:
372,187,46669,5,4,0:0:0:0:
231,110,47491,1,4,0:3:0:0:
76,151,48313,2,0,L|76:242,2,80,4|4|4,0:3|0:3|0:3,0:0:0:0:
171,22,49957,5,4,0:3:0:0:
331,23,50779,1,4,0:3:0:0:
424,152,51601,2,4,L|424:232,2,80,4|4|4,0:3|0:3|0:3,0:3:0:0:
295,56,53245,6,0,P|184:21|70:56,1,240,4|0,0:0|0:0,0:0:0:0:
69,136,54889,2,0,P|180:171|294:136,1,240
296,55,56532,6,0,P|185:20|71:55,1,240
45,131,58176,1,0,0:0:0:0:
49,210,58587,1,0,0:0:0:0:
90,278,58998,1,0,0:0:0:0:
159,316,59409,1,0,0:0:0:0:
236,336,59820,6,4,P|351:324|442:244,1,240,4|0,0:0|0:0,0:0:0:0:
452,166,61464,2,0,P|381:73|265:38,1,240
194,73,63108,6,0,P|142:177|161:296,1,240
223,345,64752,2,0,L|309:360,1,80
380,343,65574,2,0,L|465:296,1,80,4|0,0:0|0:0,0:0:0:0:
497,239,66395,5,4,0:0:0:0:
498,160,66806,1,8,0:0:0:0:
477,82,67217,2,0,P|457:54|415:37,1,80,0|8,0:0|0:0,0:0:0:0:
336,28,68039,2,0,P|302:28|263:51,1,80,0|8,0:0|0:0,0:0:0:0:
213,114,68861,2,0,P|184:129|138:127,1,80,0|8,0:0|0:0,0:0:0:0:
70,170,69683,6,0,L|39:243,2,80,0|8|0,0:0|0:0|0:0,0:0:0:0:
46,93,70916,1,8,0:0:0:0:
121,64,71327,2,0,L|393:64,1,240,0|8,0:0|0:0,0:0:0:0:
434,97,72971,5,4,0:2:0:0:
465,170,73382,1,8,0:0:0:0:
452,248,73793,2,0,P|441:283|413:314,1,80,0|8,0:0|0:0,0:0:0:0:
338,346,74615,2,0,P|296:356|256:345,2,80,0|8|0,0:0|0:0|0:0,0:0:0:0:
435,219,76258,6,0,P|399:208|359:217,1,80,0|8,0:0|0:0,0:0:0:0:
288,256,77080,2,0,P|251:267|212:256,1,80,0|8,0:0|0:0,0:0:0:0:
168,189,77902,2,0,B|163:141|117:104|82:118|45:135|2:100|-1:50,1,240,0|8,0:0|0:0,0:0:0:0:
60,0,79546,5,4,0:0:0:0:
140,0,79957,1,8,0:0:0:0:
219,10,80368,2,0,P|252:31|269:66,1,80,0|8,0:0|0:0,0:0:0:0:
266,147,81190,2,0,P|244:181|209:199,1,80,0|8,0:0|0:0,0:0:0:0:
132,219,82012,2,0,P|104:251|97:287,1,80,0|8,0:0|0:0,0:0:0:0:
147,350,82834,5,0,0:0:0:0:
226,352,83245,1,8,0:0:0:0:
270,285,83656,1,0,0:0:0:0:
349,289,84067,1,8,0:0:0:0:
410,237,84478,2,0,P|442:158|419:92,1,160
366,30,85710,1,8,0:0:0:0:
290,2,86121,5,4,0:0:0:0:
210,4,86532,2,0,P|170:8|140:34,1,80
88,94,87354,1,0,0:0:0:0:
86,173,87765,5,0,0:0:0:0:
131,238,88176,2,0,P|163:260|202:262,1,80
275,228,88998,1,0,0:0:0:0:
297,151,89409,5,0,0:0:0:0:
149,89,90231,1,0,0:0:0:0:
71,107,90642,2,0,P|25:171|24:250,1,160
67,318,91875,1,0,0:0:0:0:
139,351,92286,1,0,0:0:0:0:
218,359,92697,6,0,P|296:348|358:299,1,160,4|0,0:0|0:0,0:0:0:0:
416,150,94341,1,4,0:0:0:0:
256,192,95984,12,0,99272,0:0:0:0:
147,124,109135,6,0,P|185:203|245:237,1,160,4|0,0:1|0:0,0:0:0:0:
326,234,110368,1,0,0:0:0:0:
400,204,110779,2,0,L|455:146,1,80
456,65,111601,2,0,L|392:14,1,80
313,15,112423,5,0,0:0:0:0:
166,79,113245,1,0,0:0:0:0:
116,231,114067,2,0,L|146:305,2,80
49,85,115710,6,0,P|113:31|186:14,1,160,2|0,0:0|0:0,0:0:0:0:
266,18,116943,1,0,0:0:0:0:
337,54,117354,2,0,L|386:118,1,80
391,197,118176,2,0,L|361:271,1,80
301,324,118998,5,0,0:0:0:0:
141,327,119820,1,0,0:0:0:0:
140,166,120642,1,0,0:0:0:0:
300,166,121464,1,4,0:0:0:0:
456,132,122286,6,0,P|472:96|457:59,1,80,4|0,0:1|0:0,0:0:0:0:
395,11,123108,2,0,P|357:7|327:32,1,80
285,102,123930,2,0,L|262:184,2,80,4|0|0,0:3|0:0|0:0,0:0:0:0:
149,17,125574,6,0,P|112:3|76:19,1,80,4|0,0:3|0:0,0:0:0:0:
85,98,126395,2,0,P|52:114|37:152,1,80
56,230,127217,2,0,L|87:303,2,80,4|0|4,0:3|0:0|0:3,0:0:0:0:
198,156,128861,5,4,0:0:0:0:
272,297,129683,1,4,0:3:0:0:
429,326,130505,2,0,L|508:326,2,80,4|4|4,0:3|0:3|0:3,0:0:0:0:
268,326,132149,5,4,0:3:0:0:
122,259,132971,1,4,0:3:0:0:
70,107,133793,2,0,L|45:32,2,80,4|4|4,0:3|0:3|0:3,0:0:0:0:
149,246,135437,6,0,P|234:323|355:337,1,240,4|0,0:0|0:0,0:0:0:0:
420,293,137080,2,0,P|441:178|389:68,1,240
317,39,138724,6,0,P|204:69|129:163,1,240
136,243,140368,1,0,0:0:0:0:
174,312,140779,1,0,0:0:0:0:
240,355,141190,1,0,0:0:0:0:
319,359,141601,1,0,0:0:0:0:
394,331,142012,6,0,P|460:236|459:115,1,240,4|0,0:0|0:0,0:0:0:0:
399,63,143656,2,0,P|290:92|172:53,1,240
92,58,145300,6,0,P|40:162|59:281,1,240
124,326,146943,2,0,L|205:328,1,80,4|0,0:0|0:0,0:0:0:0:
272,286,147765,1,4,0:0:0:0:
279,126,148587,5,4,0:0:0:0:
358,118,148998,1,8,0:0:0:0:
429,153,149409,2,0,P|460:175|475:212,1,80,0|8,0:0|0:0,0:0:0:0:
452,288,150231,2,0,P|420:307|379:310,1,80,0|8,0:0|0:0,0:0:0:0:
312,264,151053,2,0,P|278:245|238:244,1,80,0|8,0:0|0:0,0:0:0:0:
162,271,151875,6,0,L|107:328,2,80,0|8|0,0:0|0:0|0:0,0:0:0:0:
178,192,153108,1,8,0:0:0:0:
228,129,153519,2,0,L|461:43,1,240,0|8,0:0|0:0,0:0:0:0:
496,113,155163,5,4,0:2:0:0:
454,181,155573,1,8,0:0:0:0:
378,207,155984,2,0,P|341:210|302:196,1,80,0|8,0:0|0:0,0:0:0:0:
239,144,156806,2,0,P|217:106|215:65,2,80,0|8|0,0:0|0:0|0:0,0:0:0:0:
100,223,158450,6,8,P|139:219|175:236,1,80,0|8,0:0|0:0,0:0:0:0:
232,291,159272,2,0,P|269:301|307:290,1,80,0|8,0:0|0:0,0:0:0:0:
381,260,160094,2,0,B|423:236|439:179|412:153|382:125|398:72|442:50,1,240,0|8,0:0|0:0,0:0:0:0:
372,10,161738,5,4,0:0:0:0:
291,8,162149,1,8,0:0:0:0:
212,23,162560,2,0,P|177:42|159:77,1,80,0|8,0:0|0:0,0:0:0:0:
136,154,163382,2,0,P|127:193|101:222,1,80,0|8,0:0|0:0,0:0:0:0:
84,300,164204,2,0,P|107:335|139:352,1,80,0|8,0:0|0:0,0:0:0:0:
209,313,165026,5,0,0:0:0:0:
282,344,165437,1,8,0:0:0:0:
346,296,165847,1,0,0:0:0:0:
386,226,166258,1,8,0:0:0:0:
400,147,166669,2,0,P|373:65|313:30,1,160
232,37,167902,1,8,0:0:0:0:
278,102,168313,5,4,0:0:0:0:
323,167,168724,2,0,P|289:180|247:175,1,80
173,142,169546,1,0,0:0:0:0:
106,96,169957,5,0,0:0:0:0:
38,53,170368,2,0,P|25:89|33:127,1,80
61,204,171190,1,0,0:0:0:0:
124,252,171601,5,0,0:0:0:0:
257,163,172423,1,0,0:0:0:0:
336,172,172834,2,0,P|396:217|424:294,1,160
369,353,174067,1,0,0:0:0:0:
289,343,174478,1,0,0:0:0:0:
220,300,174889,6,0,P|178:232|177:153,1,160,4|0,0:0|0:0,0:0:0:0:
265,20,176532,1,4,0:0:0:0:
108,298,178176,5,0,0:0:0:0:
181,266,178587,2,0,L|259:280,2,80
119,215,179820,2,0,P|122:112|238:90,1,240
297,142,181464,6,0,L|319:218,2,80
311,63,182697,1,0,0:0:0:0:
391,63,183108,2,0,L|499:63,1,80
471,143,183930,2,0,L|387:143,1,80,4|4,0:2|0:2,0:0:0:0:
340,205,184752,5,4,0:0:0:0:
360,282,185163,1,8,0:0:0:0:
306,340,185573,1,0,0:0:0:0:
226,319,185984,1,8,0:0:0:0:
165,266,186395,2,0,P|117:154|140:41,1,240,0|8,0:0|0:0,0:0:0:0:
218,23,188039,5,0,0:0:0:0:
369,73,188861,1,0,0:0:0:0:
256,192,189683,12,4,192971,0:3:0:0:
61,55,206121,5,4,0:0:0:0:
75,133,206532,1,8,0:0:0:0:
152,150,206943,2,0,P|195:146|224:119,1,80,0|8,0:0|0:0,0:0:0:0:
275,62,207765,2,0,P|312:74|340:102,1,80,0|8,0:0|0:0,0:0:0:0:
408,58,208587,2,0,P|420:95|414:134,1,80,0|8,0:0|0:0,0:0:0:0:
446,208,209409,6,0,L|511:254,2,80,0|8|0,0:0|0:0|0:0,0:0:0:0:
366,196,210642,1,8,0:0:0:0:
286,183,211053,2,0,L|46:153,1,240,0|8,0:0|0:0,0:0:0:0:
39,233,212697,5,4,0:2:0:0:
81,301,213108,1,8,0:0:0:0:
157,327,213519,2,0,P|194:330|233:316,1,80,0|8,0:0|0:0,0:0:0:0:
296,264,214341,2,0,P|318:226|320:185,2,80,0|8|0,0:0|0:0|0:0,0:0:0:0:
439,334,215984,6,0,P|447:295|434:257,1,80,0|8,0:0|0:0,0:0:0:0:
367,214,216806,2,0,P|329:225|291:215,1,80,0|8,0:0|0:0,0:0:0:0:
211,225,217628,2,0,B|197:177|226:130|267:133|304:136|336:86|326:39,1,240,0|8,0:0|0:0,0:0:0:0:
246,46,219272,5,4,0:0:0:0:
167,61,219683,1,8,0:0:0:0:
93,92,220094,2,0,P|59:113|44:150,1,80,0|8,0:0|0:0,0:0:0:0:
122,169,220916,2,0,P|103:204|71:226,1,80,0|8,0:0|0:0,0:0:0:0:
66,305,221738,2,0,P|97:332|133:339,1,80,0|8,0:0|0:0,0:0:0:0:
209,313,222560,5,0,0:0:0:0:
257,249,222971,1,8,0:0:0:0:
321,297,223382,1,0,0:0:0:0:
369,233,223793,1,8,0:0:0:0:
380,153,224204,2,0,P|353:71|293:36,1,160
226,80,225437,1,8,0:0:0:0:
248,156,225847,5,4,0:0:0:0:
307,208,226258,2,0,P|342:226|381:225,1,80
450,184,227080,1,0,0:0:0:0:
465,105,227491,5,0,0:0:0:0:
421,37,227902,2,0,P|387:18|348:20,1,80
282,68,228724,1,0,0:0:0:0:
260,144,229135,5,0,0:0:0:0:
256,303,229957,1,0,0:0:0:0:
185,265,230368,2,0,P|138:201|134:122,1,160
176,54,231601,1,0,0:0:0:0:
252,30,232012,1,0,0:0:0:0:
322,68,232423,6,0,P|367:132|372:211,1,160,4|0,0:0|0:0,0:0:0:0:
219,164,234067,1,4,0:0:0:0:
256,192,235710,12,0,238998,0:0:0:0:
256,192,241875,12,0,248861,0:0:0:0:
