osu file format v14

[General]
AudioFilename: audio.mp3
AudioLeadIn: 0
PreviewTime: 4087
Countdown: 0
SampleSet: Normal
StackLeniency: 0.7
Mode: 1
LetterboxInBreaks: 0
WidescreenStoryboard: 1

[Editor]
Bookmarks: 4337,12337,20337,28337,32337
DistanceSpacing: 1.4
BeatDivisor: 4
GridSize: 16
TimelineZoom: 1

[Metadata]
Title:Route 201 (Day)
TitleUnicode:201ばんどうろ (昼)
Artist:Hitomi Sato
ArtistUnicode:佐藤仁美
Creator:Daanny
Version:Oni
Source:ポケットモンスター ダイヤモンド・パール
Tags:pokémon pokemon ポケモン pocket monsters poketto monsuta monsutā ポケットモンスター 6 ost disk 1 track sato satō diamond and & pearl platinum version ポケットモンスタープラチナ d p dp pt ポケットモンスターブリリアントダイヤモンド・シャイニングパール gen generation four fourth 4 4th 4g iv sinnoh シンオウ videogame video vgm instrumental original soundtrack sound track gamefreak game freak nintendo ds nds 任天堂 ニンテンドーds ダイヤモンド&パール スーパーミュージックコレクション super music collection electronic
BeatmapID:4474918
BeatmapSetID:2128408

[Difficulty]
HPDrainRate:9
CircleSize:2
OverallDifficulty:5.5
ApproachRate:10
SliderMultiplier:1.4
SliderTickRate:1

[Events]
//Background and Video events
0,0,"bg.jpg",0,70
//Break Periods
//Storyboard Layer 0 (Background)
//Storyboard Layer 1 (Fail)
//Storyboard Layer 2 (Pass)
//Storyboard Layer 3 (Foreground)
//Storyboard Layer 4 (Overlay)
//Storyboard Sound Samples

[TimingPoints]
337,500,4,1,0,50,1,0
337,-133.333333333333,4,1,0,50,0,0
3836,-133.31555,4,1,0,50,0,0
4086,-129.01561,4,1,0,50,0,0
4211,-126.96801,4,1,0,50,0,0
4337,500,4,1,0,50,1,0
4337,-124.984375,4,1,0,50,0,0
11836,-100.01996,4,1,0,50,0,0
11961,-102.57985,4,1,0,50,0,0
12086,-105.274216,4,1,0,50,0,0
12211,-108.113945,4,1,0,50,0,0
12337,-111.111115,4,1,0,50,0,1
14337,-111.111111111111,4,1,0,50,0,0
16337,-111.111111111111,4,1,0,50,0,1
18337,-111.111111111111,4,1,0,50,0,0
19586,-111.09457,4,1,0,50,0,0
19711,-109.06439,4,1,0,50,0,0
19836,-107.10707,4,1,0,50,0,0
19961,-105.21877,4,1,0,50,0,0
20086,-103.395905,4,1,0,50,0,0
20211,-101.635124,4,1,0,50,0,0
20336,-99.93331,4,1,0,50,0,0
26169,-99.93331,4,1,0,50,0,0
26336,-101.50267,4,1,0,50,0,0
26502,-103.11226,4,1,0,50,0,0
26669,-104.78389,4,1,0,50,0,0
26836,-106.510605,4,1,0,50,0,0
27002,-108.284325,4,1,0,50,0,0
27169,-110.12936,4,1,0,50,0,0
27336,-112.038345,4,1,0,50,0,0
27586,-115.02311,4,1,0,50,0,0
27836,-118.171265,4,1,0,50,0,0
28086,-121.49658,4,1,0,50,0,0
28336,-125.01447,4,1,0,50,0,0

[Colours]
Combo1 : 0,128,255
Combo2 : 255,0,0
Combo3 : 255,255,0

[HitObjects]
256,192,337,1,0,0:0:0:0:
256,192,587,1,0,0:0:0:0:
256,192,837,1,8,0:0:0:0:
256,192,1087,1,0,0:0:0:0:
256,192,1337,1,0,0:0:0:0:
256,192,1587,1,0,0:0:0:0:
256,192,1837,1,8,0:0:0:0:
256,192,2087,1,8,0:0:0:0:
256,192,2337,1,0,0:0:0:0:
256,192,2587,1,0,0:0:0:0:
256,192,2837,1,8,0:0:0:0:
256,192,3087,1,0,0:0:0:0:
256,192,3337,1,0,0:0:0:0:
256,192,3587,1,0,0:0:0:0:
256,192,3837,1,8,0:0:0:0:
256,192,4087,1,8,0:0:0:0:
256,192,4212,1,0,0:0:0:0:
256,192,4337,1,8,0:0:0:0:
256,192,4587,1,0,0:0:0:0:
256,192,4837,1,8,0:0:0:0:
256,192,4962,1,0,0:0:0:0:
256,192,5087,1,0,0:0:0:0:
256,192,5212,1,0,0:0:0:0:
256,192,5337,1,8,0:0:0:0:
256,192,5587,1,8,0:0:0:0:
256,192,5837,1,0,0:0:0:0:
256,192,6087,1,0,0:0:0:0:
256,192,6212,1,0,0:0:0:0:
256,192,6337,1,8,0:0:0:0:
256,192,6587,1,8,0:0:0:0:
256,192,6837,1,0,0:0:0:0:
256,192,7087,1,8,0:0:0:0:
256,192,7212,1,8,0:0:0:0:
256,192,7337,1,0,0:0:0:0:
256,192,7587,1,0,0:0:0:0:
256,192,8087,1,8,0:0:0:0:
256,192,8212,1,0,0:0:0:0:
256,192,8337,1,8,0:0:0:0:
256,192,8587,1,0,0:0:0:0:
256,192,8837,1,8,0:0:0:0:
256,192,8962,1,8,0:0:0:0:
256,192,9087,1,0,0:0:0:0:
256,192,9212,1,8,0:0:0:0:
256,192,9337,1,0,0:0:0:0:
256,192,9587,1,0,0:0:0:0:
256,192,10087,1,0,0:0:0:0:
256,192,10212,1,0,0:0:0:0:
256,192,10337,1,8,0:0:0:0:
256,192,10587,1,8,0:0:0:0:
256,192,10837,1,0,0:0:0:0:
256,192,11087,1,0,0:0:0:0:
256,192,11212,1,0,0:0:0:0:
256,192,11337,1,8,0:0:0:0:
256,192,11837,1,8,0:0:0:0:
256,192,11962,1,8,0:0:0:0:
256,192,12087,1,0,0:0:0:0:
256,192,12212,1,0,0:0:0:0:
256,192,12337,1,8,0:0:0:0:
256,192,12587,1,0,0:0:0:0:
256,192,12837,1,8,0:0:0:0:
256,192,13087,1,0,0:0:0:0:
256,192,13212,1,0,0:0:0:0:
256,192,13337,1,8,0:0:0:0:
256,192,13587,1,0,0:0:0:0:
256,192,13837,1,8,0:0:0:0:
256,192,14087,1,0,0:0:0:0:
256,192,14337,1,8,0:0:0:0:
256,192,14462,1,0,0:0:0:0:
256,192,14587,1,8,0:0:0:0:
256,192,14837,1,8,0:0:0:0:
256,192,15087,1,0,0:0:0:0:
256,192,15337,1,8,0:0:0:0:
256,192,15587,1,0,0:0:0:0:
256,192,15712,1,8,0:0:0:0:
256,192,15837,1,0,0:0:0:0:
256,192,15962,1,0,0:0:0:0:
256,192,16087,1,8,0:0:0:0:
256,192,16337,1,8,0:0:0:0:
256,192,16587,1,0,0:0:0:0:
256,192,16837,1,8,0:0:0:0:
256,192,17087,1,0,0:0:0:0:
256,192,17212,1,0,0:0:0:0:
256,192,17337,1,8,0:0:0:0:
256,192,17587,1,0,0:0:0:0:
256,192,17837,1,8,0:0:0:0:
256,192,18087,1,0,0:0:0:0:
256,192,18337,1,0,0:0:0:0:
256,192,18462,1,0,0:0:0:0:
256,192,18587,1,8,0:0:0:0:
256,192,18837,1,8,0:0:0:0:
256,192,19087,1,0,0:0:0:0:
256,192,19337,1,8,0:0:0:0:
256,192,19587,1,0,0:0:0:0:
256,192,19712,1,0,0:0:0:0:
256,192,19837,1,8,0:0:0:0:
256,192,19962,1,8,0:0:0:0:
256,192,20087,1,0,0:0:0:0:
256,192,20212,1,0,0:0:0:0:
256,192,20337,1,8,0:0:0:0:
256,192,20670,1,0,0:0:0:0:
256,192,20837,1,8,0:0:0:0:
256,192,21170,1,0,0:0:0:0:
256,192,21337,1,8,0:0:0:0:
256,192,21503,1,0,0:0:0:0:
256,192,21670,1,0,0:0:0:0:
256,192,21837,1,8,0:0:0:0:
256,192,22170,1,0,0:0:0:0:
256,192,22337,1,8,0:0:0:0:
256,192,22503,1,0,0:0:0:0:
256,192,22670,1,8,0:0:0:0:
256,192,22837,1,0,0:0:0:0:
256,192,23170,1,8,0:0:0:0:
256,192,23337,1,8,0:0:0:0:
256,192,23503,1,0,0:0:0:0:
256,192,23670,1,0,0:0:0:0:
256,192,23837,1,8,0:0:0:0:
256,192,24170,1,8,0:0:0:0:
256,192,24337,1,0,0:0:0:0:
256,192,24670,1,0,0:0:0:0:
256,192,24837,1,8,0:0:0:0:
256,192,25170,1,0,0:0:0:0:
256,192,25337,1,8,0:0:0:0:
256,192,25503,1,0,0:0:0:0:
256,192,25670,1,8,0:0:0:0:
256,192,25837,1,0,0:0:0:0:
256,192,26170,1,8,0:0:0:0:
256,192,26337,1,8,0:0:0:0:
256,192,26503,1,0,0:0:0:0:
256,192,26670,1,0,0:0:0:0:
256,192,26837,1,8,0:0:0:0:
256,192,27003,1,0,0:0:0:0:
256,192,27170,1,0,0:0:0:0:
256,192,27337,1,8,0:0:0:0:
256,192,27587,1,0,0:0:0:0:
256,192,27837,1,8,0:0:0:0:
256,192,28087,1,8,0:0:0:0:
256,192,28337,1,0,0:0:0:0:
256,192,28587,1,0,0:0:0:0:
256,192,28837,1,8,0:0:0:0:
256,192,29087,1,0,0:0:0:0:
256,192,29337,1,0,0:0:0:0:
256,192,29587,1,0,0:0:0:0:
256,192,29837,1,8,0:0:0:0:
256,192,30087,1,8,0:0:0:0:
256,192,30337,1,0,0:0:0:0:
256,192,30587,1,0,0:0:0:0:
256,192,30837,1,8,0:0:0:0:
256,192,31087,1,0,0:0:0:0:
256,192,31337,1,0,0:0:0:0:
256,192,31587,1,0,0:0:0:0:
256,192,31837,1,8,0:0:0:0:
256,192,32087,1,8,0:0:0:0:
256,192,32337,1,0,0:0:0:0:
