osu file format v14

[General]
AudioFilename: audio.mp3
AudioLeadIn: 0
PreviewTime: 4087
Countdown: 0
SampleSet: Normal
StackLeniency: 0.7
Mode: 1
LetterboxInBreaks: 0
WidescreenStoryboard: 1

[Editor]
Bookmarks: 4337,12337,20337,28337,32337
DistanceSpacing: 1.4
BeatDivisor: 4
GridSize: 16
TimelineZoom: 1

[Metadata]
Title:Route 201 (Day)
TitleUnicode:201ばんどうろ (昼)
Artist:Hitomi Sato
ArtistUnicode:佐藤仁美
Creator:Daanny
Version:Futsuu
Source:ポケットモンスター ダイヤモンド・パール
Tags:pokémon pokemon ポケモン pocket monsters poketto monsuta monsutā ポケットモンスター 6 ost disk 1 track sato satō diamond and & pearl platinum version ポケットモンスタープラチナ d p dp pt ポケットモンスターブリリアントダイヤモンド・シャイニングパール gen generation four fourth 4 4th 4g iv sinnoh シンオウ videogame video vgm instrumental original soundtrack sound track gamefreak game freak nintendo ds nds 任天堂 ニンテンドーds ダイヤモンド&パール スーパーミュージックコレクション super music collection electronic
BeatmapID:4474915
BeatmapSetID:2128408

[Difficulty]
HPDrainRate:10
CircleSize:2
OverallDifficulty:4
ApproachRate:10
SliderMultiplier:1.4
SliderTickRate:1

[Events]
//Background and Video events
0,0,"bg.jpg",0,70
//Break Periods
//Storyboard Layer 0 (Background)
//Storyboard Layer 1 (Fail)
//Storyboard Layer 2 (Pass)
//Storyboard Layer 3 (Foreground)
//Storyboard Layer 4 (Overlay)
//Storyboard Sound Samples

[TimingPoints]
337,500,4,1,0,50,1,0
337,-125,4,1,0,50,0,0
4337,500,4,1,0,50,1,0
4337,-125,4,1,0,50,0,0
12337,-125,4,1,0,50,0,1
14337,-125,4,1,0,50,0,0
16337,-125,4,1,0,50,0,1
18337,-125,4,1,0,50,0,0

[Colours]
Combo1 : 0,128,255
Combo2 : 255,0,0
Combo3 : 255,255,0

[HitObjects]
256,192,337,5,0,0:0:0:0:
256,192,837,1,8,0:0:0:0:
256,192,1337,1,0,0:0:0:0:
256,192,1837,1,8,0:0:0:0:
256,192,2337,1,0,0:0:0:0:
256,192,2837,1,8,0:0:0:0:
256,192,3337,1,0,0:0:0:0:
256,192,3837,1,8,0:0:0:0:
256,192,4337,1,8,0:0:0:0:
256,192,4837,1,0,0:0:0:0:
256,192,5337,1,8,0:0:0:0:
256,192,5587,1,8,0:0:0:0:
256,192,5837,1,0,0:0:0:0:
256,192,6337,1,0,0:0:0:0:
256,192,6837,1,8,0:0:0:0:
256,192,7087,1,0,0:0:0:0:
256,192,7337,1,0,0:0:0:0:
256,192,7587,1,8,0:0:0:0:
256,192,8337,1,8,0:0:0:0:
256,192,8837,1,0,0:0:0:0:
256,192,9337,1,8,0:0:0:0:
256,192,9587,1,0,0:0:0:0:
256,192,10337,1,8,0:0:0:0:
256,192,10587,1,8,0:0:0:0:
256,192,10837,1,0,0:0:0:0:
256,192,11087,1,0,0:0:0:0:
256,192,11337,1,8,0:0:0:0:
256,192,12337,1,8,0:0:0:0:
256,192,12837,1,0,0:0:0:0:
256,192,13087,1,0,0:0:0:0:
256,192,13337,1,8,0:0:0:0:
256,192,13837,1,0,0:0:0:0:
256,192,14337,1,8,0:0:0:0:
256,192,15087,1,0,0:0:0:0:
256,192,15337,1,8,0:0:0:0:
256,192,16337,1,8,0:0:0:0:
256,192,16837,1,0,0:0:0:0:
256,192,17087,1,8,0:0:0:0:
256,192,17337,1,0,0:0:0:0:
256,192,17837,1,8,0:0:0:0:
256,192,18337,1,0,0:0:0:0:
256,192,19087,1,8,0:0:0:0:
256,192,19337,1,0,0:0:0:0:
256,192,20087,1,0,0:0:0:0:
256,192,20337,1,8,0:0:0:0:
256,192,21087,1,8,0:0:0:0:
256,192,21837,1,0,0:0:0:0:
256,192,22337,1,8,0:0:0:0:
256,192,22837,1,0,0:0:0:0:
256,192,23087,1,0,0:0:0:0:
256,192,23337,1,8,0:0:0:0:
256,192,23587,1,0,0:0:0:0:
256,192,24087,1,8,0:0:0:0:
256,192,24337,1,0,0:0:0:0:
256,192,25087,1,8,0:0:0:0:
256,192,25837,1,0,0:0:0:0:
256,192,26337,1,8,0:0:0:0:
256,192,26837,1,0,0:0:0:0:
256,192,27087,1,8,0:0:0:0:
256,192,27587,1,0,0:0:0:0:
256,192,27837,1,8,0:0:0:0:
256,192,28087,1,8,0:0:0:0:
256,192,28337,1,0,0:0:0:0:
256,192,28837,1,8,0:0:0:0:
256,192,29337,1,0,0:0:0:0:
256,192,29837,1,8,0:0:0:0:
256,192,30337,1,0,0:0:0:0:
256,192,30837,1,8,0:0:0:0:
256,192,31337,1,8,0:0:0:0:
256,192,31837,1,8,0:0:0:0:
256,192,32337,1,0,0:0:0:0:
