osu file format v14

[General]
AudioFilename: audio.mp3
AudioLeadIn: 0
PreviewTime: -1
Countdown: 1
SampleSet: Normal
StackLeniency: 0.7
Mode: 0
LetterboxInBreaks: 0
WidescreenStoryboard: 1

[Editor]
DistanceSpacing: 3
BeatDivisor: 4
GridSize: 4
TimelineZoom: 1

[Metadata]
Title:Encounter! Lass - Pokemon Black/White
TitleUnicode:Encounter! Lass - Pokémon Black/White
Artist:Hitomi Sato
ArtistUnicode:Hitomi Sato
Creator:TheAlphaSheep
Version:Expert Skirt
Source:Pokemon Black/White
Tags:pokemon
BeatmapID:1429224
BeatmapSetID:663323

[Difficulty]
HPDrainRate:6.5
CircleSize:4
OverallDifficulty:9
ApproachRate:9.3
SliderMultiplier:1.4
SliderTickRate:1

[Events]
//Background and Video events
0,0,"miniskirt.jpg",0,0
//Break Periods
//Storyboard Layer 0 (Background)
//Storyboard Layer 1 (Fail)
//Storyboard Layer 2 (Pass)
//Storyboard Layer 3 (Foreground)
//Storyboard Sound Samples

[TimingPoints]
700,348.837209302326,4,1,0,100,1,0
2008,-93.3333333333333,4,1,0,100,0,0
4798,-100,4,1,0,100,0,0

[HitObjects]
108,312,700,5,0,0:0:0:0:
256,72,874,1,0,0:0:0:0:
404,312,1048,1,0,0:0:0:0:
256,192,1223,1,0,0:0:0:0:
108,72,1397,5,0,0:0:0:0:
404,72,1572,1,0,0:0:0:0:
256,312,1745,1,0,0:0:0:0:
256,72,1920,1,0,0:0:0:0:
432,312,2095,5,0,0:0:0:0:
382,256,2269,1,0,0:0:0:0:
332,312,2444,1,0,0:0:0:0:
282,256,2618,1,0,0:0:0:0:
232,312,2793,5,0,0:0:0:0:
182,256,2967,1,0,0:0:0:0:
132,312,3141,1,0,0:0:0:0:
82,256,3316,1,0,0:0:0:0:
80,128,3490,5,0,0:0:0:0:
130,72,3665,1,0,0:0:0:0:
180,128,3839,1,0,0:0:0:0:
230,72,4013,1,0,0:0:0:0:
280,128,4188,5,0,0:0:0:0:
330,72,4362,1,0,0:0:0:0:
380,128,4537,1,0,0:0:0:0:
430,72,4711,1,0,0:0:0:0:
288,160,4886,5,0,0:0:0:0:
288,360,5060,1,0,0:0:0:0:
288,224,5234,5,0,0:0:0:0:
88,224,5409,1,0,0:0:0:0:
224,224,5583,5,0,0:0:0:0:
224,24,5758,1,0,0:0:0:0:
224,160,5932,5,0,0:0:0:0:
424,160,6106,1,0,0:0:0:0:
88,224,6281,5,0,0:0:0:0:
224,24,6455,1,0,0:0:0:0:
284,360,6630,5,0,0:0:0:0:
424,160,6804,1,0,0:0:0:0:
224,160,6979,5,0,0:0:0:0:
288,160,7153,1,0,0:0:0:0:
288,224,7327,1,0,0:0:0:0:
224,224,7502,1,0,0:0:0:0:
256,32,7676,5,0,0:0:0:0:
256,352,7851,1,0,0:0:0:0:
256,112,8025,5,0,0:0:0:0:
256,272,8200,1,0,0:0:0:0:
256,192,8374,5,0,0:0:0:0:
256,42,8548,2,0,L|256:142,2,70
256,352,9072,5,0,0:0:0:0:
256,112,9246,1,0,0:0:0:0:
256,272,9420,5,0,0:0:0:0:
256,32,9595,1,0,0:0:0:0:
256,192,9769,5,0,0:0:0:0:
256,342,9944,2,0,L|256:242,2,70
512,16,10467,5,0,0:0:0:0:
476,92,10641,1,0,0:0:0:0:
400,4,10816,5,0,0:0:0:0:
396,136,10990,1,0,0:0:0:0:
256,24,11165,5,0,0:0:0:0:
308,208,11339,1,0,0:0:0:0:
112,96,11513,5,0,0:0:0:0:
232,320,11688,1,0,0:0:0:0:
16,224,11862,5,0,0:0:0:0:
388,328,12037,1,0,0:0:0:0:
0,384,12211,5,0,0:0:0:0:
448,216,12386,1,0,0:0:0:0:
156,384,12560,5,0,0:0:0:0:
480,36,12734,1,0,0:0:0:0:
312,384,12909,5,0,0:0:0:0:
124,0,13083,1,0,0:0:0:0:
0,380,13258,5,0,0:0:0:0:
328,24,13606,1,0,0:0:0:0:
328,24,13955,5,0,0:0:0:0:
0,380,14129,1,0,0:0:0:0:
328,24,14479,1,0,0:0:0:0:
0,380,14827,5,0,0:0:0:0:
328,24,15002,1,0,0:0:0:0:
484,352,15176,1,0,0:0:0:0:
