osu file format v14

[General]
AudioFilename: audio.mp3
AudioLeadIn: 0
PreviewTime: 62375
Countdown: 0
SampleSet: Soft
StackLeniency: 0.7
Mode: 0
LetterboxInBreaks: 0
WidescreenStoryboard: 0

[Editor]
DistanceSpacing: 1.1
BeatDivisor: 2
GridSize: 4
TimelineZoom: 1.1

[Metadata]
Title:Overdrive
TitleUnicode:Overdrive
Artist:Hitomi Harada
ArtistUnicode:原田ひとみ
Creator:Kyuukai
Version:Normal
Source:VALKYRIE DRIVE -MERMAID-
Tags:ヴァルキリードライヴ マーメイド op opening yaleufeu
BeatmapID:1501844
BeatmapSetID:710486

[Difficulty]
HPDrainRate:3
CircleSize:3.2
OverallDifficulty:3
ApproachRate:4.5
SliderMultiplier:0.8
SliderTickRate:1

[Events]
//Background and Video events
0,0,"McDrive.jpg",0,0
//Break Periods
//Storyboard Layer 0 (Background)
//Storyboard Layer 1 (Fail)
//Storyboard Layer 2 (Pass)
//Storyboard Layer 3 (Foreground)
//Storyboard Sound Samples

[TimingPoints]
480,329.67032967033,4,2,1,50,1,0
21578,-100,4,2,1,55,0,0
29490,-100,4,2,1,50,0,0
30809,-100,4,2,1,40,0,0
31469,-100,4,2,1,45,0,0
32128,-100,4,2,1,70,0,1
42677,-100,4,2,1,60,0,0
62458,-100,4,2,1,40,0,0
63034,-100,4,2,1,5,0,0
63117,-100,4,2,1,45,0,0
63776,-100,4,2,1,70,0,1
73666,-100,4,2,1,60,0,0
74326,-100,4,2,1,70,0,1
79600,-100,4,2,1,60,0,0
82238,-100,4,2,1,70,0,1
83556,-100,4,2,1,50,0,0
84875,-100,4,2,1,60,0,0
94436,-100,4,2,1,65,0,0
95425,-100,4,2,1,70,0,1
105809,-100,4,2,1,60,0,0

[Colours]
Combo1 : 192,192,192
Combo2 : 0,128,255
Combo3 : 0,255,64

[HitObjects]
96,112,11029,6,0,L|188:104,1,80,2|2,0:1|0:1,0:0:0:0:
252,60,11689,2,0,L|331:66,1,80,2|2,0:1|0:1,0:0:0:0:
416,96,12348,2,0,P|420:64|404:16,2,80,2|2|2,0:1|0:1|0:1,0:0:0:0:
396,180,13337,1,0,0:0:0:0:
372,264,13667,6,0,L|292:270,1,80,2|2,0:1|0:1,0:0:0:0:
228,332,14326,2,0,L|148:338,1,80,2|2,0:1|0:1,0:0:0:0:
68,376,14985,1,2,0:1:0:0:
76,288,15315,2,0,L|64:184,2,80,2|2|2,0:1|0:1|0:1,0:0:0:0:
148,338,16304,6,0,L|228:332,1,80,2|2,0:0|0:1,0:0:0:0:
296,276,16963,2,0,L|375:282,1,80,2|2,0:1|0:1,0:0:0:0:
458,253,17623,2,0,P|462:297|447:331,2,80,2|2|2,0:1|0:1|0:1,0:0:0:0:
444,168,18612,1,2,0:1:0:0:
388,100,18941,6,0,P|340:96|296:104,1,80,2|2,0:1|0:1,0:0:0:0:
236,152,19601,2,0,P|188:156|144:148,1,80,2|2,0:1|0:1,0:0:0:0:
72,128,20260,1,2,0:1:0:0:
16,196,20590,2,0,P|16:240|28:296,1,80,2|2,0:1|0:1,0:0:0:0:
44,360,21249,1,2,0:0:0:0:
120,312,21579,6,0,P|164:308|224:316,1,80,4|2,0:0|0:1,0:0:0:0:
272,360,22238,2,0,P|316:364|376:356,1,80,2|2,0:1|0:1,0:0:0:0:
396,356,22733,1,2,0:0:0:0:
396,356,22898,2,0,L|400:252,1,80,2|2,0:1|0:1,0:0:0:0:
472,224,23557,2,0,L|468:120,1,80,2|2,0:1|0:0,0:0:0:0:
464,56,24216,6,0,P|412:48|356:52,1,80,2|2,0:1|0:1,0:0:0:0:
312,0,24876,2,0,P|260:10|209:33,1,80,2|2,0:1|0:1,0:0:0:0:
197,41,25370,1,2,0:1:0:0:
197,41,25534,1,2,0:1:0:0:
128,100,25865,2,0,P|112:68|112:16,2,80,2|2|2,0:0|0:1|0:0,0:0:0:0:
188,164,26854,6,0,L|184:268,1,80,2|2,0:1|0:1,0:0:0:0:
136,320,27513,2,0,P|176:332|240:316,1,80,2|2,0:1|0:1,0:0:0:0:
288,284,28172,2,0,P|325:272|365:275,1,80,6|2,0:1|0:1,0:0:0:0:
448,304,28832,1,2,0:1:0:0:
500,236,29161,2,0,L|492:128,1,80,8|2,0:0|0:1,0:0:0:0:
256,192,29656,12,0,31469,0:0:0:0:
48,44,32128,6,0,L|56:144,1,80,4|8,0:0|0:0,0:0:0:0:
136,156,32788,2,0,L|129:235,1,80,2|8,0:1|0:0,0:0:0:0:
124,280,33282,1,0,0:0:0:0:
124,280,33447,2,0,P|64:284|20:316,2,80,2|8|2,0:1|0:0|0:1,0:0:0:0:
196,328,34436,1,10,0:0:0:0:
268,376,34766,6,0,L|372:372,1,80,2|8,0:1|0:0,0:0:0:0:
432,340,35425,2,0,P|440:300|435:260,1,80,2|8,0:1|0:0,0:0:0:0:
469,180,36084,2,0,P|430:174|392:184,1,80,2|10,0:1|0:0,0:0:0:0:
320,236,36744,2,0,P|280:242|242:232,1,80,2|8,0:1|0:0,0:0:0:0:
200,220,37238,1,8,0:0:0:0:
200,220,37403,6,0,L|192:108,1,80,2|8,0:1|0:0,0:0:0:0:
248,68,38062,2,0,P|286:58|325:64,1,80,2|8,0:1|0:0,0:0:0:0:
368,80,38557,1,0,0:0:0:0:
368,80,38722,2,0,L|376:-4,2,80,2|8|2,0:1|0:0|0:1,0:0:0:0:
436,136,39711,1,10,0:0:0:0:
472,216,40040,6,0,L|464:295,1,80,2|8,0:1|0:0,0:0:0:0:
408,364,40700,2,0,P|356:364|328:356,1,80,2|8,0:1|0:0,0:0:0:0:
260,300,41359,2,0,P|208:300|180:307,1,80,12|10,0:0|0:0,0:0:0:0:
112,360,42018,2,0,P|60:360|32:352,1,80,12|8,0:0|0:0,0:0:0:0:
0,324,42513,1,2,0:1:0:0:
0,324,42678,6,0,L|4:224,1,80,4|8,0:0|0:0,0:0:0:0:
44,224,43172,2,0,L|40:124,1,80,0|2,0:0|0:1,0:0:0:0:
68,60,43832,2,0,P|128:44|204:56,1,120,0|8,0:0|0:0,0:0:0:0:
264,92,44656,2,0,P|308:96|368:84,1,80,0|8,0:0|0:0,0:0:0:0:
408,32,45315,6,0,P|428:72|420:136,1,80,2|8,0:0|0:0,0:0:0:0:
424,152,45809,2,0,L|408:260,1,80,0|2,0:0|0:1,0:0:0:0:
404,276,46304,1,8,0:0:0:0:
336,332,46634,2,0,P|284:336|232:352,1,80,2|8,0:1|0:0,0:0:0:0:
176,380,47293,2,0,P|124:376|72:360,1,80,2|8,0:1|0:0,0:0:0:0:
56,356,47788,1,2,0:1:0:0:
56,356,47952,6,0,L|48:256,1,80,4|8,0:0|0:0,0:0:0:0:
0,204,48612,2,0,P|52:188|108:208,1,80,0|8,0:0|0:0,0:0:0:0:
164,196,49271,1,2,0:1:0:0:
192,280,49601,1,0,0:0:0:0:
260,224,49931,2,0,P|300:220|360:232,1,80,0|8,0:0|0:0,0:0:0:0:
420,264,50590,6,0,P|428:212|416:172,1,80,2|8,0:0|0:0,0:0:0:0:
456,104,51249,2,0,P|400:100|368:112,1,80,2|8,0:1|0:0,0:0:0:0:
300,152,51909,2,0,L|204:148,1,80,2|8,0:1|0:0,0:0:0:0:
152,92,52568,2,0,L|72:95,1,80,2|8,0:1|0:0,0:0:0:0:
28,96,53062,1,2,0:1:0:0:
28,96,53227,6,0,P|12:148|28:232,1,120,4|2,0:0|0:1,0:0:0:0:
60,288,54051,2,0,P|96:292|160:280,1,80,2|0,0:1|0:0,0:0:0:0:
216,240,54711,1,2,0:1:0:0:
216,240,54876,1,8,0:0:0:0:
292,284,55205,2,0,P|328:288|392:276,1,80,2|8,0:1|0:0,0:0:0:0:
444,336,55865,6,0,P|460:279|440:224,1,120,2|2,0:1|0:1,0:0:0:0:
384,156,56689,2,0,L|304:152,1,80,2|2,0:1|0:1,0:0:0:0:
236,96,57348,1,2,0:0:0:0:
236,96,57513,2,0,L|156:100,1,80,8|2,0:0|0:1,0:0:0:0:
68,104,58172,1,2,0:0:0:0:
0,160,58502,6,0,P|-4:204|8:252,1,80,2|2,0:1|0:1,0:0:0:0:
40,320,59161,2,0,P|80:312|124:316,1,80,2|2,0:1|0:1,0:0:0:0:
192,364,59821,2,0,P|232:372|276:368,1,80,6|2,0:1|0:1,0:0:0:0:
360,356,60480,2,0,L|364:264,1,80,2|2,0:1|0:1,0:0:0:0:
428,216,61139,6,0,L|424:124,1,80,6|2,0:1|0:1,0:0:0:0:
420,92,61634,1,2,0:1:0:0:
420,92,61799,2,0,B|340:76|340:76|248:96,1,160,8|2,0:0|0:1,0:0:0:0:
0,56,63447,5,4,0:3:0:0:
12,144,63777,6,0,L|24:236,1,80,6|8,0:1|0:0,0:0:0:0:
104,252,64436,2,0,L|114:172,1,80,2|8,0:1|0:0,0:0:0:0:
120,132,64930,1,0,0:0:0:0:
120,132,65095,2,0,P|164:124|236:128,1,80,2|8,0:0|0:0,0:0:0:0:
272,172,65754,2,0,P|316:180|388:176,1,80,2|8,0:1|0:0,0:0:0:0:
396,176,66249,1,0,0:0:0:0:
400,180,66414,6,0,P|420:236|420:288,1,80,6|8,0:1|0:0,0:0:0:0:
508,248,67073,2,0,P|507:307|489:356,1,80,2|8,0:1|0:0,0:0:0:0:
472,360,67567,1,0,0:0:0:0:
472,360,67733,2,0,L|392:357,1,80,2|8,0:0|0:0,0:0:0:0:
320,308,68392,2,0,L|240:310,1,80,2|8,0:0|0:0,0:0:0:0:
196,312,68887,1,2,0:1:0:0:
196,312,69051,6,0,P|180:252|184:200,1,80,6|8,0:1|0:0,0:0:0:0:
100,196,69711,2,0,P|112:148|136:112,1,80,2|8,0:1|0:0,0:0:0:0:
156,88,70205,1,2,0:1:0:0:
156,88,70370,2,0,L|264:80,1,80,2|8,0:0|0:0,0:0:0:0:
312,36,71029,2,0,L|391:41,1,80,2|8,0:1|0:0,0:0:0:0:
436,48,71524,1,2,0:1:0:0:
436,48,71689,6,0,P|424:108|424:148,1,80,6|8,0:1|0:0,0:0:0:0:
472,200,72348,2,0,P|484:260|484:300,1,80,2|8,0:1|0:0,0:0:0:0:
432,348,73007,2,0,L|372:336,1,40,12|0,0:0|0:0,0:0:0:0:
356,312,73337,2,0,L|316:319,1,40,12|0,0:0|0:0,0:0:0:0:
276,336,73667,2,0,P|228:340|172:328,1,80,12|2,0:0|0:1,0:0:0:0:
108,348,74326,6,0,L|96:240,1,80,4|8,0:0|0:0,0:0:0:0:
20,232,74985,2,0,L|8:124,1,80,2|8,0:1|0:0,0:0:0:0:
4,108,75480,1,0,0:0:0:0:
4,108,75645,2,0,P|44:96|100:96,1,80,2|8,0:0|0:0,0:0:0:0:
164,128,76304,2,0,P|204:140|260:140,1,80,2|8,0:1|0:0,0:0:0:0:
284,136,76798,1,0,0:0:0:0:
284,136,76963,6,0,L|276:56,2,80,4|8|2,0:0|0:0|0:1,0:0:0:0:
292,224,77952,2,0,L|296:272,1,40,8|0,0:0|0:0,0:0:0:0:
300,308,78282,2,0,P|339:311|378:300,1,80,2|8,0:0|0:0,0:0:0:0:
440,240,78941,2,0,P|439:200|423:164,1,80,4|8,0:0|0:0,0:0:0:0:
395,128,79436,1,2,0:1:0:0:
395,128,79601,5,6,0:1:0:0:
320,84,79931,2,0,L|212:88,1,80,2|2,0:1|0:1,0:0:0:0:
172,32,80590,2,0,L|112:34,1,40,2|2,0:1|0:1,0:0:0:0:
88,32,80920,2,0,P|100:92|100:136,1,80,6|2,0:1|0:1,0:0:0:0:
163,172,81579,2,0,P|143:229|121:268,1,80,2|2,0:1|0:1,0:0:0:0:
120,288,82073,1,2,0:1:0:0:
120,288,82238,6,0,P|44:288|-4:328,2,120,6|6|8,0:1|0:1|0:0,0:0:0:0:
160,308,83392,1,8,0:0:0:0:
160,308,83557,1,12,0:0:0:0:
416,372,84546,5,4,0:3:0:0:
416,372,84876,2,0,L|420:260,1,80,4|8,0:0|0:0,0:0:0:0:
488,236,85535,2,0,L|484:124,1,80,2|8,0:1|0:0,0:0:0:0:
484,68,86194,2,0,P|436:56|376:56,1,80,2|8,0:1|0:0,0:0:0:0:
332,100,86854,2,0,P|284:112|224:112,1,80,2|10,0:1|0:0,0:0:0:0:
176,156,87513,6,0,P|168:104|184:60,2,80,2|8|2,0:1|0:0|0:1,0:0:0:0:
208,240,88502,1,8,0:0:0:0:
132,288,88832,2,0,P|80:280|36:296,2,80,2|12|2,0:1|0:0|0:1,0:0:0:0:
212,328,89821,2,0,L|264:332,1,40,8|8,0:0|0:0,0:0:0:0:
284,360,90150,6,0,L|363:353,1,80,4|8,0:0|0:0,0:0:0:0:
452,348,90810,2,0,L|458:268,1,80,2|8,0:1|0:0,0:0:0:0:
428,184,91469,2,0,P|464:180|512:196,2,80,2|8|2,0:1|0:0|0:1,0:0:0:0:
344,208,92458,1,10,0:0:0:0:
260,184,92788,6,0,P|224:188|176:172,2,80,6|8|2,0:1|0:0|0:1,0:0:0:0:
324,124,93777,1,8,0:0:0:0:
280,48,94106,2,0,P|242:36|202:39,1,80,4|8,0:0|0:0,0:0:0:0:
136,100,94766,2,0,P|98:111|58:108,1,80,4|2,0:0|0:1,0:0:0:0:
16,100,95260,1,2,0:1:0:0:
16,100,95425,6,0,P|8:152|16:204,1,80,4|8,0:0|0:0,0:0:0:0:
16,268,96084,2,0,P|72:256|128:264,1,80,8|8,0:0|0:0,0:0:0:0:
164,312,96744,2,0,P|220:324|276:316,1,80,8|8,0:0|0:0,0:0:0:0:
316,276,97403,2,0,P|372:264|428:272,1,80,8|8,0:0|0:0,0:0:0:0:
472,224,98062,6,0,P|480:280|464:320,2,80,12|8|8,0:0|0:0|0:0,0:0:0:0:
448,140,99051,1,8,0:0:0:0:
407,62,99381,2,0,P|463:54|503:70,2,80,8|8|12,0:0|0:0|0:0,0:0:0:0:
344,124,100370,2,0,L|280:120,1,40,8|8,0:0|0:0,0:0:0:0:
268,96,100700,6,0,L|188:101,1,80,2|12,0:1|0:0,0:0:0:0:
124,40,101359,2,0,L|44:45,1,80,8|8,0:0|0:0,0:0:0:0:
0,120,102018,6,0,P|0:168|12:220,1,80,8|8,0:0|0:0,0:0:0:0:
88,232,102678,2,0,P|88:280|76:332,1,80,8|8,0:0|0:0,0:0:0:0:
72,356,103172,1,8,0:0:0:0:
72,356,103337,2,0,P|128:336|168:336,1,80,12|8,0:0|0:0,0:0:0:0:
184,308,103832,2,0,P|243:309|281:322,1,80,4|8,0:0|0:0,0:0:0:0:
300,336,104326,1,4,0:0:0:0:
384,308,104656,6,0,L|392:200,1,80,12|12,0:0|0:0,0:0:0:0:
456,168,105315,2,0,L|452:116,1,40,12|8,0:0|0:0,0:0:0:0:
416,104,105645,2,0,L|412:52,1,40,8|8,0:0|0:0,0:0:0:0:
