osu file format v14

[General]
AudioFilename: audio.mp3
AudioLeadIn: 0
PreviewTime: 62375
Countdown: 0
SampleSet: Soft
StackLeniency: 0.5
Mode: 0
LetterboxInBreaks: 0
WidescreenStoryboard: 0

[Editor]
Bookmarks: 102338
DistanceSpacing: 1
BeatDivisor: 4
GridSize: 4
TimelineZoom: 2

[Metadata]
Title:Overdrive
TitleUnicode:Overdrive
Artist:Hitomi Harada
ArtistUnicode:原田ひとみ
Creator:Kyuukai
Version:Insane
Source:VALKYRIE DRIVE -MERMAID-
Tags:ヴァルキリードライヴ マーメイド op opening yaleufeu
BeatmapID:1573008
BeatmapSetID:710486

[Difficulty]
HPDrainRate:6
CircleSize:4
OverallDifficulty:8.5
ApproachRate:9.2
SliderMultiplier:1.6
SliderTickRate:1

[Events]
//Background and Video events
0,0,"McDrive.jpg",0,0
//Break Periods
//Storyboard Layer 0 (Background)
//Storyboard Layer 1 (Fail)
//Storyboard Layer 2 (Pass)
//Storyboard Layer 3 (Foreground)
//Storyboard Sound Samples

[TimingPoints]
480,329.67032967033,4,2,1,50,1,0
11029,-125,4,2,1,50,0,0
21578,-125,4,2,1,55,0,0
29490,-117.647058823529,4,2,1,50,0,0
30809,-200,4,2,1,40,0,0
31469,-133.333333333333,4,2,1,45,0,0
32128,-100,4,2,1,70,0,1
42677,-111.111111111111,4,2,1,60,0,0
62458,-200,4,2,1,40,0,0
63117,-125,4,2,1,45,0,0
63776,-86.9565217391304,4,2,1,70,0,1
73666,-111.111111111111,4,2,1,60,0,0
74326,-86.9565217391304,4,2,1,70,0,1
79600,-133.333333333333,4,2,1,60,0,0
82238,-86.9565217391304,4,2,1,70,0,1
83556,-125,4,2,1,50,0,0
84875,-111.111111111111,4,2,1,60,0,0
94436,-111.111111111111,4,2,1,65,0,0
95425,-80,4,2,1,70,0,1
105809,-100,4,2,1,60,0,0

[Colours]
Combo1 : 192,192,192
Combo2 : 0,128,255
Combo3 : 0,255,64

[HitObjects]
104,136,10205,5,2,0:0:0:0:
64,44,10370,1,4,0:0:0:0:
64,44,10534,1,2,0:1:0:0:
28,212,10699,1,8,0:0:0:0:
63,229,10781,1,8,0:0:0:0:
103,236,10863,1,0,0:0:0:0:
142,230,10946,1,8,0:0:0:0:
178,213,11029,6,0,P|212:208|260:216,1,64,2|0,0:1|0:0,0:0:0:0:
320,256,11359,2,0,P|354:261|402:253,1,64,2|0,0:1|0:0,0:0:0:0:
468,304,11688,2,0,P|480:256|476:220,1,64,2|0,0:1|0:0,0:0:0:0:
416,176,12018,2,0,P|417:144|427:113,1,64,2|0,0:1|0:0,0:0:0:0:
300,24,12348,5,2,0:1:0:0:
320,128,12512,1,0,0:0:0:0:
220,92,12677,2,0,P|168:88|132:100,1,64,2|0,0:1|0:0,0:0:0:0:
8,136,13007,1,2,0:1:0:0:
7,135,13172,2,0,P|39:130|71:134,1,64,2|0,0:1|0:0,0:0:0:0:
112,204,13501,1,0,0:0:0:0:
156,276,13666,6,0,P|208:280|244:268,1,64,2|0,0:1|0:0,0:0:0:0:
313,158,13996,2,0,P|292:182|280:212,1,64,2|0,0:1|0:0,0:0:0:0:
338,351,14326,2,0,P|326:321|308:296,1,64,2|0,0:1|0:0,0:0:0:0:
156,276,14655,2,0,P|208:280|244:268,1,64,2|0,0:1|0:0,0:0:0:0:
368,228,14985,1,2,0:1:0:0:
368,228,15150,1,0,0:0:0:0:
313,158,15315,6,0,P|292:182|280:212,1,64,2|0,0:1|0:0,0:0:0:0:
456,216,15644,2,0,P|445:185|425:160,1,64,2|0,0:1|0:0,0:0:0:0:
336,312,15974,2,0,P|367:318|399:313,1,64,2|0,0:1|0:0,0:0:0:0:
252,356,16304,6,0,P|221:350|189:355,1,64,2|0,0:0|0:0,0:0:0:0:
84,384,16633,1,2,0:1:0:0:
84,384,16798,1,0,0:0:0:0:
116,292,16963,2,0,L|104:212,2,64,2|0|2,0:1|0:0|0:1,0:0:0:0:
189,354,17458,1,0,0:0:0:0:
216,248,17622,6,0,L|232:168,1,64,2|0,0:1|0:0,0:0:0:0:
316,148,17952,2,0,L|300:68,1,64,2|0,0:1|0:0,0:0:0:0:
168,44,18282,1,2,0:1:0:0:
144,120,18447,1,0,0:0:0:0:
248,28,18611,1,0,0:1:0:0:
303,85,18776,1,0,0:0:0:0:
380,64,18941,6,0,P|424:60|464:68,1,64,2|0,0:1|0:0,0:0:0:0:
496,140,19271,2,0,P|455:158|425:185,1,64,2|0,0:1|0:0,0:0:0:0:
352,204,19600,2,0,P|371:229|385:258,1,64,2|0,0:1|0:0,0:0:0:0:
480,256,19930,2,0,P|460:281|446:310,1,64,2|0,0:1|0:0,0:0:0:0:
368,384,20260,5,2,0:1:0:0:
368,384,20425,1,0,0:0:0:0:
260,292,20589,1,2,0:1:0:0:
272,384,20754,1,0,0:0:0:0:
356,292,20919,1,2,0:1:0:0:
308,212,21084,1,2,0:1:0:0:
160,163,21249,2,0,P|192:159|224:164,1,64,2|0,0:0|0:0,0:0:0:0:
362,87,21578,6,0,P|333:100|308:120,1,64,4|0,0:0|0:0,0:0:0:0:
224,256,21908,1,2,0:1:0:0:
308,212,22073,1,0,0:0:0:0:
260,344,22238,2,0,P|212:350|184:344,1,64,2|0,0:1|0:0,0:0:0:0:
344,300,22567,2,0,P|392:294|420:300,1,64,2|2,0:1|0:0,0:0:0:0:
480,336,22815,5,2,0:0:0:0:
480,336,22897,2,0,P|490:294|479:250,1,64,2|0,0:1|0:0,0:0:0:0:
365,212,23227,2,0,P|396:221|428:220,1,64,2|2,0:1|0:1,0:0:0:0:
492,172,23474,1,2,0:1:0:0:
492,172,23556,2,0,L|488:88,1,64,2|0,0:1|0:0,0:0:0:0:
416,8,23886,1,2,0:0:0:0:
352,80,24051,1,2,0:1:0:0:
352,80,24133,1,2,0:1:0:0:
352,80,24216,6,0,P|321:89|289:87,1,64,2|0,0:1|0:0,0:0:0:0:
208,44,24545,2,0,P|177:35|145:37,1,64,2|0,0:1|0:0,0:0:0:0:
64,80,24875,2,0,L|60:143,1,64,2|0,0:1|0:0,0:0:0:0:
60,240,25205,1,2,0:1:0:0:
160,192,25370,1,2,0:1:0:0:
160,192,25452,1,2,0:1:0:0:
160,192,25534,6,0,P|191:183|223:185,1,64,2|0,0:1|0:0,0:0:0:0:
348,144,25864,2,0,P|328:180|316:224,1,64,2|2,0:0|0:1,0:0:0:0:
264,256,26111,1,0,0:0:0:0:
264,256,26194,2,0,P|264:297|276:341,1,64,2|0,0:1|0:0,0:0:0:0:
412,288,26523,2,0,P|381:279|349:281,1,64,2|0,0:0|0:1,0:0:0:0:
184,272,26853,5,2,0:1:0:0:
168,356,27183,5,2,0:1:0:0:
168,356,27348,1,0,0:0:0:0:
44,356,27512,1,2,0:1:0:0:
44,356,27677,1,0,0:0:0:0:
188,276,27842,1,2,0:1:0:0:
188,276,28007,1,0,0:0:0:0:
24,276,28172,6,0,L|8:192,1,64,6|2,0:1|0:1,0:0:0:0:
132,100,28501,1,2,0:1:0:0:
104,192,28666,1,2,0:1:0:0:
12,28,28831,1,2,0:1:0:0:
40,120,28996,1,2,0:1:0:0:
224,76,29161,5,8,0:0:0:0:
255,76,29243,1,8,0:0:0:0:
287,77,29325,1,8,0:0:0:0:
319,78,29408,1,8,0:0:0:0:
351,79,29490,1,2,0:1:0:0:
351,79,30809,6,0,B|324:144|380:160|348:224,1,140,0|0,0:0|0:0,0:0:0:0:
344,252,31469,6,0,P|373:248|402:256,2,60.0000022888184,0|2|8,0:0|0:1|0:0,0:0:0:0:
336,288,32128,6,0,P|288:280|248:296,1,80,4|0,0:0|0:0,0:0:0:0:
196,360,32458,2,0,P|178:314|145:287,1,80,8|0,0:0|0:0,0:0:0:0:
64,272,32787,2,0,P|94:234|101:191,1,80,2|2,0:1|0:1,0:0:0:0:
35,61,33117,2,0,P|48:99|75:128,1,80,8|0,0:0|0:0,0:0:0:0:
184,40,33447,5,2,0:1:0:0:
156,144,33611,1,0,0:0:0:0:
264,40,33776,1,8,0:0:0:0:
252,152,33941,1,0,0:0:0:0:
344,40,34106,1,2,0:1:0:0:
348,160,34271,1,2,0:1:0:0:
498,100,34436,2,0,P|459:92|420:100,1,80,10|0,0:0|0:0,0:0:0:0:
364,252,34765,5,2,0:1:0:0:
436,192,34930,1,0,0:0:0:0:
452,288,35095,1,8,0:0:0:0:
364,252,35260,5,0,0:0:0:0:
436,192,35425,1,2,0:1:0:0:
452,288,35590,1,2,0:1:0:0:
276,216,35754,5,8,0:0:0:0:
348,156,35919,1,0,0:0:0:0:
364,252,36084,1,2,0:1:0:0:
276,216,36249,5,0,0:0:0:0:
348,156,36414,1,10,0:0:0:0:
364,252,36579,1,0,0:0:0:0:
288,308,36743,5,2,0:1:0:0:
288,308,36908,1,2,0:1:0:0:
276,216,37073,5,8,0:0:0:0:
314,205,37155,1,8,0:0:0:0:
353,200,37237,1,8,0:0:0:0:
393,205,37320,1,8,0:0:0:0:
432,220,37403,6,0,P|464:260|464:356,1,120,2|0,0:1|0:0,0:0:0:0:
464,364,37732,2,0,P|408:352|360:360,1,80,8|0,0:0|0:0,0:0:0:0:
294,378,38062,2,0,P|254:378|215:367,1,80,2|2,0:1|0:1,0:0:0:0:
88,288,38392,1,8,0:0:0:0:
120,376,38556,1,0,0:0:0:0:
176,252,38721,6,0,P|140:208|92:192,1,80,2|0,0:1|0:0,0:0:0:0:
32,160,39051,2,0,P|68:116|116:100,1,80,8|0,0:0|0:0,0:0:0:0:
208,84,39381,1,2,0:1:0:0:
208,84,39545,1,2,0:1:0:0:
120,197,39710,1,10,0:0:0:0:
120,197,39875,1,0,0:0:0:0:
252,168,40040,6,0,P|304:164|348:176,1,80,2|0,0:1|0:0,0:0:0:0:
428,216,40370,1,8,0:0:0:0:
336,76,40534,2,0,P|378:106|404:143,1,80,0|2,0:0|0:1,0:0:0:0:
439,225,40864,1,2,0:1:0:0:
468,56,41029,2,0,P|480:106|476:151,1,80,8|0,0:0|0:0,0:0:0:0:
400,320,41359,5,12,0:0:0:0:
330,169,41523,1,0,0:0:0:0:
312,368,41688,1,10,0:0:0:0:
312,368,41853,1,0,0:0:0:0:
496,272,42018,1,12,0:0:0:0:
330,169,42183,5,8,0:0:0:0:
290,169,42265,1,8,0:0:0:0:
250,169,42347,1,8,0:0:0:0:
210,169,42430,1,8,0:0:0:0:
170,169,42512,2,0,L|124:169,1,40,2|2,0:1|0:1,0:0:0:0:
40,144,42677,6,0,P|24:200|48:296,1,143.999995605469,4|8,0:0|0:0,0:0:0:0:
32,380,43172,1,0,0:0:0:0:
32,380,43337,2,0,P|67:373|100:360,1,71.9999978027344,0|2,0:0|0:1,0:0:0:0:
163,200,43666,1,8,0:0:0:0:
24,216,43831,2,0,P|57:202|184:208,1,143.999995605469,2|0,0:1|0:0,0:0:0:0:
340,276,44326,1,8,0:0:0:0:
268,96,44490,1,0,0:0:0:0:
268,96,44655,2,0,P|256:152|260:184,1,71.9999978027344,0|2,0:0|0:1,0:0:0:0:
340,276,44985,2,0,P|352:220|348:188,1,71.9999978027344,8|0,0:0|0:0,0:0:0:0:
268,352,45315,6,0,P|340:368|428:344,1,143.999995605469,2|8,0:0|0:0,0:0:0:0:
496,216,45809,1,0,0:0:0:0:
502,298,45974,2,0,P|460:288|421:247,1,71.9999978027344,0|2,0:0|0:1,0:0:0:0:
286,231,46304,2,0,P|315:211|351:205,1,71.9999978027344,8|0,0:0|0:0,0:0:0:0:
488,124,46633,5,2,0:1:0:0:
496,216,46798,1,2,0:1:0:0:
392,120,46963,2,0,L|400:32,1,71.9999978027344,8|2,0:0|0:1,0:0:0:0:
324,16,47210,1,2,0:1:0:0:
324,16,47293,2,0,L|252:22,1,71.9999978027344,2|2,0:1|0:1,0:0:0:0:
164,121,47622,1,8,0:0:0:0:
307,107,47787,1,2,0:1:0:0:
307,107,47869,1,2,0:1:0:0:
307,107,47952,6,0,L|164:121,1,143.999995605469,4|8,0:0|0:0,0:0:0:0:
56,68,48447,1,0,0:0:0:0:
56,68,48611,2,0,P|44:108|44:152,1,71.9999978027344,0|2,0:0|0:1,0:0:0:0:
0,224,48941,2,0,P|28:254|66:276,1,71.9999978027344,8|0,0:0|0:0,0:0:0:0:
216,244,49271,6,0,P|152:272|136:352,1,143.999995605469,2|8,0:1|0:0,0:0:0:0:
216,328,49765,1,0,0:0:0:0:
196,166,49930,2,0,P|160:173|128:188,1,71.9999978027344,0|2,0:0|0:1,0:0:0:0:
315,218,50260,2,0,P|351:211|384:196,1,71.9999978027344,8|0,0:0|0:0,0:0:0:0:
440,84,50589,6,0,P|472:148|472:244,1,143.999995605469,2|8,0:0|0:0,0:0:0:0:
424,372,51084,1,0,0:0:0:0:
384,300,51249,2,0,P|432:292|479:310,1,71.9999978027344,2|2,0:1|0:1,0:0:0:0:
312,340,51578,2,0,P|304:292|322:245,1,71.9999978027344,8|0,0:0|0:0,0:0:0:0:
380,152,51908,6,0,L|232:144,1,143.999995605469,2|8,0:1|0:0,0:0:0:0:
48,72,52403,1,0,0:0:0:0:
128,20,52567,2,0,P|144:64|136:168,1,143.999995605469,2|8,0:1|0:0,0:0:0:0:
44,284,53062,1,2,0:1:0:0:
44,284,53144,1,2,0:1:0:0:
44,284,53227,5,4,0:0:0:0:
32,176,53392,1,2,0:1:0:0:
168,280,53556,1,8,0:0:0:0:
168,280,53721,1,2,0:1:0:0:
168,280,54051,6,0,P|216:276|248:280,1,71.9999978027344,2|8,0:1|0:0,0:0:0:0:
388,336,54381,2,0,P|358:315|325:301,1,71.9999978027344,0|0,0:0|0:0,0:0:0:0:
276,148,54710,1,2,0:1:0:0:
300,224,54875,1,8,0:0:0:0:
252,72,55205,5,2,0:1:0:0:
276,148,55370,1,2,0:1:0:0:
300,224,55534,1,8,0:0:0:0:
325,301,55699,1,2,0:0:0:0:
404,204,55864,6,0,P|440:192|488:188,2,71.9999978027344,2|2|8,0:1|0:1|0:0,0:0:0:0:
325,301,56359,1,2,0:1:0:0:
325,301,56688,5,2,0:1:0:0:
220,268,56853,1,8,0:0:0:0:
336,308,57018,1,2,0:1:0:0:
208,264,57183,5,2,0:0:0:0:
208,264,57348,2,0,P|156:260|120:268,1,71.9999978027344,2|8,0:0|0:0,0:0:0:0:
40,312,57677,1,0,0:0:0:0:
40,312,57842,2,0,P|36:260|44:224,1,71.9999978027344,2|2,0:1|0:1,0:0:0:0:
88,72,58172,2,0,P|104:116|104:200,1,107.999996704102,2|0,0:0|0:0,0:0:0:0:
107,176,58501,6,0,L|188:168,1,71.9999978027344,2|2,0:1|0:1,0:0:0:0:
248,104,58831,2,0,L|319:111,1,71.9999978027344,2|2,0:1|0:1,0:0:0:0:
408,72,59161,2,0,L|416:153,1,71.9999978027344,2|2,0:1|0:1,0:0:0:0:
480,213,59491,2,0,L|472:284,1,71.9999978027344,2|2,0:1|0:1,0:0:0:0:
396,364,59820,5,6,0:1:0:0:
396,364,59985,1,2,0:1:0:0:
324,304,60150,1,2,0:1:0:0:
324,304,60315,1,2,0:1:0:0:
252,364,60480,1,2,0:1:0:0:
252,364,60645,1,2,0:1:0:0:
180,304,60810,1,2,0:1:0:0:
180,304,60975,1,2,0:1:0:0:
32,364,61139,5,6,0:1:0:0:
88,284,61304,1,2,0:1:0:0:
87,273,61386,1,2,0:1:0:0:
86,262,61468,1,2,0:1:0:0:
85,251,61551,1,2,0:1:0:0:
84,240,61633,1,2,0:1:0:0:
83,230,61716,1,2,0:1:0:0:
82,219,61798,5,8,0:0:0:0:
88,184,61880,1,8,0:0:0:0:
104,152,61962,1,8,0:0:0:0:
132,128,62045,1,8,0:0:0:0:
168,124,62127,1,8,0:0:0:0:
204,132,62210,1,8,0:0:0:0:
236,148,62293,1,8,0:0:0:0:
272,152,62375,1,8,0:0:0:0:
308,144,62458,5,2,0:1:0:0:
308,144,63117,5,0,0:0:0:0:
308,144,63447,5,4,0:3:0:0:
308,144,63776,6,0,P|262:139|216:145,1,92.0000017547608,6|0,0:1|0:0,0:0:0:0:
348,256,64106,2,0,P|306:236|261:226,1,92.0000017547608,8|0,0:0|0:0,0:0:0:0:
348,376,64436,2,0,P|315:343|276:318,1,92.0000017547608,2|2,0:1|0:1,0:0:0:0:
84,376,64765,1,8,0:0:0:0:
84,376,64930,1,0,0:0:0:0:
128,260,65095,6,0,L|112:160,1,92.0000017547608,2|0,0:0|0:0,0:0:0:0:
176,24,65425,2,0,L|190:114,1,92.0000017547608,8|0,0:0|0:0,0:0:0:0:
296,232,65754,2,0,L|280:132,1,92.0000017547608,2|2,0:1|0:1,0:0:0:0:
424,44,66084,1,8,0:0:0:0:
424,44,66249,1,0,0:0:0:0:
376,160,66414,5,6,0:1:0:0:
328,56,66578,1,0,0:0:0:0:
468,128,66743,1,8,0:0:0:0:
310,254,66908,5,0,0:0:0:0:
376,160,67072,1,2,0:1:0:0:
383,317,67237,1,2,0:1:0:0:
196,244,67403,5,8,0:0:0:0:
310,254,67567,1,0,0:0:0:0:
177,338,67732,1,2,0:0:0:0:
148,141,67897,5,0,0:0:0:0:
196,244,68061,1,8,0:0:0:0:
57,171,68226,1,0,0:0:0:0:
156,32,68392,6,0,P|220:24|276:32,1,92.0000017547608,2|0,0:0|0:0,0:0:0:0:
384,0,68721,2,0,P|345:51|324:103,1,92.0000017547608,8|2,0:0|0:1,0:0:0:0:
328,152,68969,5,2,0:1:0:0:
328,152,69051,2,0,P|232:172|144:156,1,184.000003509522,6|8,0:1|0:0,0:0:0:0:
12,56,69545,1,0,0:0:0:0:
52,144,69710,2,0,P|60:192|60:256,1,92.0000017547608,2|2,0:1|0:1,0:0:0:0:
20,352,70040,2,0,P|68:344|132:344,1,92.0000017547608,8|2,0:0|0:1,0:0:0:0:
192,368,70287,5,2,0:1:0:0:
192,368,70370,2,0,P|272:368|364:312,1,184.000003509522,2|8,0:0|0:0,0:0:0:0:
468,192,70864,1,0,0:0:0:0:
380,136,71029,2,0,P|364:200|380:252,1,92.0000017547608,2|0,0:1|0:0,0:0:0:0:
452,376,71359,1,8,0:0:0:0:
359,316,71523,1,2,0:1:0:0:
359,316,71606,1,2,0:1:0:0:
359,316,71688,6,0,L|224:308,1,92.0000017547608,6|0,0:1|0:0,0:0:0:0:
76,272,72018,2,0,L|211:264,1,92.0000017547608,8|0,0:0|0:0,0:0:0:0:
360,208,72348,2,0,L|225:200,1,92.0000017547608,2|2,0:1|0:1,0:0:0:0:
152,52,72677,1,8,0:0:0:0:
116,188,72842,1,0,0:0:0:0:
244,24,73007,5,12,0:0:0:0:
268,202,73172,1,0,0:0:0:0:
384,30,73337,5,12,0:0:0:0:
360,208,73502,1,0,0:0:0:0:
244,24,73666,6,0,L|256:112,1,71.9999978027344,12|0,0:0|0:0,0:0:0:0:
267,201,73996,1,2,0:1:0:0:
272,237,74078,1,2,0:1:0:0:
277,273,74160,1,2,0:1:0:0:
450,206,74326,6,0,P|404:199|359:207,1,92.0000017547608,4|0,0:0|0:0,0:0:0:0:
277,273,74655,2,0,P|231:279|186:271,1,92.0000017547608,8|0,0:0|0:0,0:0:0:0:
88,228,74985,2,0,P|81:273|89:318,1,92.0000017547608,2|2,0:1|0:1,0:0:0:0:
186,271,75315,1,8,0:0:0:0:
186,271,75480,1,0,0:0:0:0:
120,144,75644,6,0,P|64:144|16:164,1,92.0000017547608,2|0,0:0|0:0,0:0:0:0:
192,92,75974,2,0,P|143:64|91:57,1,92.0000017547608,8|0,0:0|0:0,0:0:0:0:
280,76,76304,2,0,P|252:27|210:-4,1,92.0000017547608,2|2,0:1|0:1,0:0:0:0:
108,57,76633,1,8,0:0:0:0:
108,57,76798,1,0,0:0:0:0:
256,180,76963,5,4,0:0:0:0:
104,152,77128,1,0,0:0:0:0:
256,196,77293,5,8,0:0:0:0:
103,221,77458,1,0,0:0:0:0:
256,212,77622,5,2,0:1:0:0:
120,287,77787,1,2,0:1:0:0:
256,228,77952,5,8,0:0:0:0:
153,344,78117,1,0,0:0:0:0:
256,244,78282,6,0,P|300:240|368:248,1,92.0000017547608,2|0,0:0|0:0,0:0:0:0:
444,320,78611,2,0,P|440:276|448:208,1,92.0000017547608,8|2,0:0|0:0,0:0:0:0:
496,48,78941,1,4,0:0:0:0:
512,152,79106,1,0,0:0:0:0:
376,24,79271,1,8,0:0:0:0:
300,80,79436,1,2,0:1:0:0:
301,125,79518,1,2,0:1:0:0:
303,171,79600,6,0,L|306:251,1,60.0000022888184,6|0,0:1|0:0,0:0:0:0:
292,184,79930,6,0,L|295:264,1,60.0000022888184,2|0,0:1|0:0,0:0:0:0:
284,196,80260,6,0,L|287:276,1,60.0000022888184,2|0,0:1|0:0,0:0:0:0:
276,208,80589,5,2,0:1:0:0:
284,348,80754,5,2,0:1:0:0:
284,348,80837,1,2,0:1:0:0:
284,348,80919,2,0,P|240:352|204:348,1,60.0000022888184,6|0,0:1|0:0,0:0:0:0:
252,372,81249,6,0,P|207:368|173:358,1,60.0000022888184,2|0,0:1|0:0,0:0:0:0:
219,383,81578,6,0,P|189:375|162:365,1,60.0000022888184,2|0,0:1|0:0,0:0:0:0:
32,216,81908,1,2,0:1:0:0:
12,324,82073,1,2,0:1:0:0:
176,224,82238,5,6,0:1:0:0:
108,136,82403,1,2,0:1:0:0:
96,276,82567,1,2,0:1:0:0:
256,172,82732,5,6,0:1:0:0:
188,84,82897,1,2,0:1:0:0:
176,224,83061,1,2,0:1:0:0:
336,120,83227,5,8,0:0:0:0:
379,105,83309,1,8,0:0:0:0:
424,110,83391,1,8,0:0:0:0:
463,135,83474,1,8,0:0:0:0:
487,173,83556,1,12,0:0:0:0:
487,173,84545,5,4,0:3:0:0:
487,173,84875,6,0,L|484:264,1,71.9999978027344,4|0,0:0|0:0,0:0:0:0:
392,300,85205,2,0,L|389:228,1,71.9999978027344,8|0,0:0|0:0,0:0:0:0:
296,172,85534,2,0,L|293:243,1,71.9999978027344,2|2,0:1|0:1,0:0:0:0:
292,352,85864,1,8,0:0:0:0:
292,352,86029,1,0,0:0:0:0:
216,296,86194,6,0,P|180:296|145:307,1,71.9999978027344,2|0,0:1|0:0,0:0:0:0:
292,243,86523,2,0,P|264:221|232:207,1,71.9999978027344,8|0,0:0|0:0,0:0:0:0:
389,227,86853,2,0,P|376:193|355:165,1,71.9999978027344,2|2,0:1|0:1,0:0:0:0:
272,32,87183,1,10,0:0:0:0:
252,120,87348,1,0,0:0:0:0:
144,44,87512,6,0,L|48:52,1,71.9999978027344,2|2,0:1|0:1,0:0:0:0:
16,144,87842,1,8,0:0:0:0:
156,68,88007,6,0,L|59:67,1,71.9999978027344,0|2,0:0|0:1,0:0:0:0:
19,156,88337,1,2,0:1:0:0:
168,92,88501,6,0,L|72:83,1,71.9999978027344,8|0,0:0|0:0,0:0:0:0:
23,167,88831,1,2,0:1:0:0:
108,236,88996,1,2,0:1:0:0:
96,85,89161,1,12,0:0:0:0:
8,276,89326,1,0,0:0:0:0:
200,200,89490,1,2,0:1:0:0:
0,164,89655,1,2,0:1:0:0:
92,344,89820,5,8,0:0:0:0:
128,344,89902,1,8,0:0:0:0:
164,344,89984,1,8,0:0:0:0:
200,344,90067,1,8,0:0:0:0:
236,344,90150,6,0,L|328:344,1,71.9999978027344,4|0,0:0|0:0,0:0:0:0:
476,344,90480,2,0,L|404:344,1,71.9999978027344,8|0,0:0|0:0,0:0:0:0:
356,192,90809,2,0,L|356:264,1,71.9999978027344,2|2,0:1|0:1,0:0:0:0:
460,152,91139,1,8,0:0:0:0:
460,152,91304,1,0,0:0:0:0:
324,112,91469,6,0,P|284:144|272:176,1,71.9999978027344,2|0,0:1|0:0,0:0:0:0:
200,104,91798,2,0,P|181:151|186:185,1,71.9999978027344,8|0,0:0|0:0,0:0:0:0:
88,160,92128,2,0,P|95:210|117:237,1,71.9999978027344,2|2,0:1|0:1,0:0:0:0:
224,348,92458,1,10,0:0:0:0:
204,260,92622,1,0,0:0:0:0:
64,384,92787,5,6,0:1:0:0:
106,227,92952,1,0,0:0:0:0:
224,348,93117,5,8,0:0:0:0:
182,171,93282,1,0,0:0:0:0:
316,320,93447,5,2,0:1:0:0:
358,143,93612,1,2,0:1:0:0:
404,288,93776,5,8,0:0:0:0:
264,124,93941,1,0,0:0:0:0:
460,92,94106,6,0,L|448:184,1,71.9999978027344,4|0,0:0|0:0,0:0:0:0:
254,52,94436,2,0,L|266:144,1,71.9999978027344,8|0,0:0|0:0,0:0:0:0:
316,320,94765,1,4,0:0:0:0:
240,244,94930,5,2,0:1:0:0:
208,226,95012,1,2,0:1:0:0:
174,216,95094,1,2,0:1:0:0:
138,211,95177,1,2,0:1:0:0:
102,214,95259,1,2,0:1:0:0:
67,224,95342,1,2,0:1:0:0:
35,240,95425,6,0,P|16:184|16:132,1,100,4|2,0:0|0:1,0:0:0:0:
192,116,95754,2,0,P|136:120|76:108,1,100,8|2,0:0|0:1,0:0:0:0:
208,20,96084,2,0,P|264:16|324:28,1,100,8|2,0:0|0:1,0:0:0:0:
476,128,96414,1,8,0:0:0:0:
416,36,96578,1,2,0:1:0:0:
316,160,96743,6,0,P|322:209|341:255,1,100,8|2,0:0|0:1,0:0:0:0:
480,312,97073,2,0,P|473:262|454:216,1,100,8|2,0:0|0:1,0:0:0:0:
316,160,97403,2,0,P|266:166|220:185,1,100,8|2,0:0|0:1,0:0:0:0:
56,320,97732,1,8,0:0:0:0:
160,352,97897,1,2,0:1:0:0:
24,216,98062,5,12,0:0:0:0:
56,320,98227,1,2,0:1:0:0:
116,156,98392,1,8,0:0:0:0:
141,262,98556,5,2,0:1:0:0:
116,156,98721,1,8,0:0:0:0:
250,268,98886,1,2,0:1:0:0:
310,177,99051,5,8,0:0:0:0:
250,268,99216,1,2,0:1:0:0:
414,208,99381,1,8,0:0:0:0:
350,296,99545,5,2,0:1:0:0:
414,208,99710,1,8,0:0:0:0:
414,383,99875,1,2,0:1:0:0:
496,248,100040,6,0,P|500:184|472:136,1,100,12|2,0:0|0:1,0:0:0:0:
504,60,100370,1,8,0:0:0:0:
464,62,100452,1,8,0:0:0:0:
424,64,100534,1,8,0:0:0:0:
384,66,100617,1,8,0:0:0:0:
344,69,100699,1,2,0:1:0:0:
344,69,101029,6,0,L|220:64,1,100,12|0,0:0|0:0,0:0:0:0:
144,24,101359,2,0,L|20:29,1,100,8|0,0:0|0:0,0:0:0:0:
100,188,101688,1,8,0:0:0:0:
164,116,101853,1,2,0:1:0:0:
8,136,102018,6,0,P|-4:196|4:236,1,100,8|2,0:0|0:1,0:0:0:0:
60,308,102348,2,0,P|105:348|144:361,1,100,8|2,0:0|0:1,0:0:0:0:
236,368,102677,2,0,P|293:348|324:321,1,100,8|2,0:0|0:1,0:0:0:0:
260,172,103007,1,8,0:0:0:0:
237,204,103089,1,8,0:0:0:0:
228,243,103171,1,8,0:0:0:0:
380,248,103337,6,0,P|392:188|384:147,1,100,12|2,0:0|0:1,0:0:0:0:
252,60,103666,1,8,0:0:0:0:
349,64,103831,6,0,P|289:51|248:60,1,100,4|0,0:0|0:0,0:0:0:0:
160,192,104161,1,8,0:0:0:0:
164,95,104326,6,0,P|151:155|160:195,1,100,4|0,0:0|0:0,0:0:0:0:
212,304,104655,2,0,P|152:291|111:300,1,100,12|2,0:0|0:1,0:0:0:0:
0,368,104985,5,12,0:0:0:0:
24,224,105150,1,2,0:1:0:0:
156,372,105315,5,12,0:0:0:0:
159,192,105480,1,8,0:0:0:0:
212,304,105644,1,8,0:0:0:0:
24,224,105809,1,8,0:0:0:0:
